<?xml version="1.0" standalone="no"?><!DOCTYPE svg PUBLIC "-//W3C//DTD SVG 1.1//EN" "http://www.w3.org/Graphics/SVG/1.1/DTD/svg11.dtd" ><svg version="1.1" xmlns="http://www.w3.org/2000/svg"><defs><font horiz-adv-x="0" id="font"><font-face ascent="972" bbox="-120 -354 1500 965" cap-height="700" descent="-226" font-family="Honeywell Sans" font-stretch="normal" font-style="normal" font-weight="900" units-per-em="1000" x-height="502" /><missing-glyph d="M110 0V700H804V0ZM395 345 207 558V129ZM521 345 707 132V558ZM285 613 459 414 631 613ZM455 276 293 87H620Z" horiz-adv-x="914" /><glyph d="M0 0Z" glyph-name=".ttfautohint" horiz-adv-x="741" /><glyph d="M357 502 279 244H435ZM508 0 479 94H235L207 0H7L240 700H481L714 0Z" glyph-name="A" horiz-adv-x="721" unicode="A" /><glyph d="M361 494 281 244H440ZM515 0 486 94H233L203 0H7L255 700H987V545H543L580 432H936V275H633L672 156H997V0Z" glyph-name="AE" horiz-adv-x="1042" unicode="&#198;" /><glyph d="M7 0ZM357 502 279 244H435ZM508 0 479 94H235L207 0H7L240 700H481L714 0ZM556 903 420 769H273V774L357 910H556Z" glyph-name="Aacute" horiz-adv-x="721" unicode="&#193;" /><glyph d="M7 0ZM357 502 279 244H435ZM508 0 479 94H235L207 0H7L240 700H481L714 0ZM434 908H547Q547 866 534.5 837.5Q522 809 498 791.5Q474 774 439.5 767Q405 760 361 760Q317 760 282.5 767Q248 774 224.5 791.5Q201 809 188.5 837.5Q176 866 176 908H288Q288 873 305.5 861Q323 849 361 849Q399 849 416.5 861Q434 873 434 908Z" glyph-name="Abreve" horiz-adv-x="721" unicode="&#258;" /><glyph d="M7 0ZM357 502 279 244H435ZM508 0 479 94H235L207 0H7L240 700H481L714 0ZM358 820 302 768H161V772L285 909H440L565 772V768H416Z" glyph-name="Acircumflex" horiz-adv-x="721" unicode="&#194;" /><glyph d="M7 0ZM357 502 279 244H435ZM508 0 479 94H235L207 0H7L240 700H481L714 0ZM381 847Q381 890 406 910Q431 930 477 930Q523 930 547.5 910Q572 890 572 847Q572 802 547.5 782.5Q523 763 477 763Q431 763 406 782.5Q381 802 381 847ZM152 847Q152 890 177 910Q202 930 247 930Q293 930 317.5 910Q342 890 342 847Q342 802 317.5 782.5Q293 763 247 763Q202 763 177 782.5Q152 802 152 847Z" glyph-name="Adieresis" horiz-adv-x="721" unicode="&#196;" /><glyph d="M7 0ZM357 502 279 244H435ZM508 0 479 94H235L207 0H7L240 700H481L714 0ZM300 769 164 903V910H370L451 774V769Z" glyph-name="Agrave" horiz-adv-x="721" unicode="&#192;" /><glyph d="M7 0ZM357 502 279 244H435ZM508 0 479 94H235L207 0H7L240 700H481L714 0ZM514 883V782H208V883Z" glyph-name="Amacron" horiz-adv-x="721" unicode="&#256;" /><glyph d="M503 14 479 94H235L207 0H7L240 700H481L714 0H640Q592 -4 572 -29Q552 -54 552 -85Q552 -114 571.5 -125Q591 -136 617 -136Q635 -136 652.5 -132Q670 -128 686 -119L712 -209Q665 -238 604 -238Q575 -238 546.5 -231Q518 -224 495.5 -208.5Q473 -193 459 -167Q445 -141 445 -102Q445 -64 461 -35Q477 -6 503 14ZM357 502 279 244H435Z" glyph-name="Aogonek" horiz-adv-x="721" unicode="&#260;" /><glyph d="M7 0ZM357 502 279 244H435ZM508 0 479 94H235L207 0H7L240 700H481L714 0ZM237 857Q237 910 272 937.5Q307 965 361 965Q415 965 449.5 937.5Q484 910 484 857Q484 803 449 775.5Q414 748 360 748Q306 748 271.5 775.5Q237 803 237 857ZM317 857Q317 837 329 825.5Q341 814 360 814Q380 814 392 825.5Q404 837 404 857Q404 877 392 887.5Q380 898 361 898Q341 898 329 887.5Q317 877 317 857Z" glyph-name="Aring" horiz-adv-x="721" unicode="&#197;" /><glyph d="M7 0ZM357 502 279 244H435ZM508 0 479 94H235L207 0H7L240 700H481L714 0ZM446 906H555Q558 868 549 842.5Q540 817 524 801.5Q508 786 487 779.5Q466 773 446 773Q423 773 403.5 778Q384 783 366.5 788.5Q349 794 334 799Q319 804 304 804Q287 804 281.5 793.5Q276 783 276 772H167Q164 810 173 835.5Q182 861 198 876.5Q214 892 234.5 898.5Q255 905 276 905Q299 905 318.5 900Q338 895 355.5 889.5Q373 884 388 879Q403 874 418 874Q436 874 441 883.5Q446 893 446 906Z" glyph-name="Atilde" horiz-adv-x="721" unicode="&#195;" /><glyph d="M84 0V700H461Q515 700 554.5 686Q594 672 619.5 647Q645 622 657.5 587.5Q670 553 670 511Q670 462 646.5 424.5Q623 387 581 367Q609 359 629 342.5Q649 326 661.5 304Q674 282 680 255.5Q686 229 686 202Q686 0 451 0ZM411 553H279V420H409Q443 420 459 439Q475 458 475 486Q475 518 457.5 535.5Q440 553 411 553ZM423 279H279V144H417Q454 144 471.5 162.5Q489 181 489 213Q489 242 473 260.5Q457 279 423 279Z" glyph-name="B" horiz-adv-x="721" unicode="B" /><glyph d="M394 -15Q215 -15 131 76Q47 167 47 351Q47 540 135 627.5Q223 715 402 715Q512 715 584 675Q656 635 691 544L529 466Q507 513 478.5 531Q450 549 399 549Q364 549 336 539.5Q308 530 289 507Q270 484 260 445Q250 406 250 347Q250 290 260 251Q270 212 289.5 189Q309 166 337 156Q365 146 401 146Q449 146 482 167Q515 188 534 236L698 161Q662 77 588 31Q514 -15 394 -15Z" glyph-name="C" horiz-adv-x="714" unicode="C" /><glyph glyph-name="CR" horiz-adv-x="235" unicode="" /><glyph d="M47 0ZM597 903 461 769H314V774L398 910H597ZM394 -15Q215 -15 131 76Q47 167 47 351Q47 540 135 627.5Q223 715 402 715Q512 715 584 675Q656 635 691 544L529 466Q507 513 478.5 531Q450 549 399 549Q364 549 336 539.5Q308 530 289 507Q270 484 260 445Q250 406 250 347Q250 290 260 251Q270 212 289.5 189Q309 166 337 156Q365 146 401 146Q449 146 482 167Q515 188 534 236L698 161Q662 77 588 31Q514 -15 394 -15Z" glyph-name="Cacute" horiz-adv-x="714" unicode="&#262;" /><glyph d="M47 0ZM408 858 465 910H605V907L481 769H325L201 907V910H349ZM394 -15Q215 -15 131 76Q47 167 47 351Q47 540 135 627.5Q223 715 402 715Q512 715 584 675Q656 635 691 544L529 466Q507 513 478.5 531Q450 549 399 549Q364 549 336 539.5Q308 530 289 507Q270 484 260 445Q250 406 250 347Q250 290 260 251Q270 212 289.5 189Q309 166 337 156Q365 146 401 146Q449 146 482 167Q515 188 534 236L698 161Q662 77 588 31Q514 -15 394 -15Z" glyph-name="Ccaron" horiz-adv-x="714" unicode="&#268;" /><glyph d="M396 -258Q348 -258 307 -240Q266 -222 243 -184L303 -122Q319 -145 339.5 -157.5Q360 -170 389 -170Q409 -170 422.5 -162Q436 -154 436 -135Q436 -121 422.5 -111Q409 -101 384 -101Q378 -101 372.5 -102Q367 -103 361 -104L334 -89L361 -14Q199 -6 123 84.5Q47 175 47 351Q47 540 135 627.5Q223 715 402 715Q512 715 584 675Q656 635 691 544L529 466Q507 513 478.5 531Q450 549 399 549Q364 549 336 539.5Q308 530 289 507Q270 484 260 445Q250 406 250 347Q250 290 260 251Q270 212 289.5 189Q309 166 337 156Q365 146 401 146Q449 146 482 167Q515 188 534 236L698 161Q666 87 606 43Q546 -1 451 -12L437 -45H438Q459 -47 478.5 -53.5Q498 -60 513.5 -72Q529 -84 538 -101.5Q547 -119 547 -141Q547 -171 535 -193Q523 -215 502 -229.5Q481 -244 453.5 -251Q426 -258 396 -258Z" glyph-name="Ccedilla" horiz-adv-x="714" unicode="&#199;" /><glyph d="M47 0ZM398 821 342 769H201V773L325 910H480L605 773V769H456ZM394 -15Q215 -15 131 76Q47 167 47 351Q47 540 135 627.5Q223 715 402 715Q512 715 584 675Q656 635 691 544L529 466Q507 513 478.5 531Q450 549 399 549Q364 549 336 539.5Q308 530 289 507Q270 484 260 445Q250 406 250 347Q250 290 260 251Q270 212 289.5 189Q309 166 337 156Q365 146 401 146Q449 146 482 167Q515 188 534 236L698 161Q662 77 588 31Q514 -15 394 -15Z" glyph-name="Ccircumflex" horiz-adv-x="714" unicode="&#264;" /><glyph d="M47 0ZM394 -15Q215 -15 131 76Q47 167 47 351Q47 540 135 627.5Q223 715 402 715Q512 715 584 675Q656 635 691 544L529 466Q507 513 478.5 531Q450 549 399 549Q364 549 336 539.5Q308 530 289 507Q270 484 260 445Q250 406 250 347Q250 290 260 251Q270 212 289.5 189Q309 166 337 156Q365 146 401 146Q449 146 482 167Q515 188 534 236L698 161Q662 77 588 31Q514 -15 394 -15ZM301 848Q301 893 327.5 913Q354 933 402 933Q450 933 476 913Q502 893 502 848Q502 804 476 784Q450 764 402 764Q354 764 327.5 784Q301 804 301 848Z" glyph-name="Cdotaccent" horiz-adv-x="714" unicode="&#266;" /><glyph d="M388 0H84V700H404Q572 700 650.5 615.5Q729 531 729 355Q729 182 646 91Q563 0 388 0ZM286 160H372Q408 160 436.5 170Q465 180 485 202.5Q505 225 515.5 262Q526 299 526 352Q526 449 492 494.5Q458 540 389 540H286Z" glyph-name="D" horiz-adv-x="775" unicode="D" /><glyph d="M84 0ZM409 858 466 910H606V907L482 769H326L202 907V910H350ZM388 0H84V700H404Q572 700 650.5 615.5Q729 531 729 355Q729 182 646 91Q563 0 388 0ZM286 160H372Q408 160 436.5 170Q465 180 485 202.5Q505 225 515.5 262Q526 299 526 352Q526 449 492 494.5Q458 540 389 540H286Z" glyph-name="Dcaron" horiz-adv-x="775" unicode="&#270;" /><glyph d="M401 0H98V270H31V418H98V700H417Q586 700 664 615.5Q742 531 742 355Q742 182 659 91Q576 0 401 0ZM299 160H385Q421 160 449.5 170Q478 180 498 202.5Q518 225 529 262Q540 299 540 352Q540 449 505.5 494.5Q471 540 402 540H299V418H400V270H299Z" glyph-name="Dcroat" horiz-adv-x="788" unicode="&#272;" /><glyph d="M84 0V700H637V545H281V432H587V275H281V156H647V0Z" glyph-name="E" horiz-adv-x="693" unicode="E" /><glyph d="M84 0ZM563 903 427 769H280V774L364 910H563ZM84 0V700H637V545H281V432H587V275H281V156H647V0Z" glyph-name="Eacute" horiz-adv-x="693" unicode="&#201;" /><glyph d="M84 0ZM84 0V700H637V545H281V432H587V275H281V156H647V0ZM441 908H554Q554 866 541.5 837.5Q529 809 505 791.5Q481 774 446.5 767Q412 760 368 760Q324 760 289.5 767Q255 774 231.5 791.5Q208 809 195.5 837.5Q183 866 183 908H295Q295 873 312.5 861Q330 849 368 849Q406 849 423.5 861Q441 873 441 908Z" glyph-name="Ebreve" horiz-adv-x="693" unicode="&#276;" /><glyph d="M84 0ZM374 858 431 910H571V907L447 769H291L167 907V910H315ZM84 0V700H637V545H281V432H587V275H281V156H647V0Z" glyph-name="Ecaron" horiz-adv-x="693" unicode="&#282;" /><glyph d="M84 0ZM364 820 308 768H167V772L291 909H446L571 772V768H422ZM84 0V700H637V545H281V432H587V275H281V156H647V0Z" glyph-name="Ecircumflex" horiz-adv-x="693" unicode="&#202;" /><glyph d="M84 0ZM388 847Q388 890 413 910Q438 930 484 930Q530 930 554.5 910Q579 890 579 847Q579 802 554.5 782.5Q530 763 484 763Q438 763 413 782.5Q388 802 388 847ZM159 847Q159 890 184 910Q209 930 254 930Q300 930 324.5 910Q349 890 349 847Q349 802 324.5 782.5Q300 763 254 763Q209 763 184 782.5Q159 802 159 847ZM84 0V700H637V545H281V432H587V275H281V156H647V0Z" glyph-name="Edieresis" horiz-adv-x="693" unicode="&#203;" /><glyph d="M84 0ZM84 0V700H637V545H281V432H587V275H281V156H647V0ZM267 847Q267 892 293.5 912Q320 932 368 932Q416 932 442 912Q468 892 468 847Q468 803 442 783Q416 763 368 763Q320 763 293.5 783Q267 803 267 847Z" glyph-name="Edotaccent" horiz-adv-x="693" unicode="&#278;" /><glyph d="M84 0ZM84 0V700H637V545H281V432H587V275H281V156H647V0ZM306 768 170 902V909H376L457 773V768Z" glyph-name="Egrave" horiz-adv-x="693" unicode="&#200;" /><glyph d="M84 0ZM84 0V700H637V545H281V432H587V275H281V156H647V0ZM521 883V782H215V883Z" glyph-name="Emacron" horiz-adv-x="693" unicode="&#274;" /><glyph d="M546 -13V24L269 382L274 0H84V700H234L551 285L547 700H737V-23Q737 -74 721.5 -111.5Q706 -149 678 -174Q650 -199 611 -211Q572 -223 525 -223Q496 -223 462.5 -217Q429 -211 403 -197L433 -75Q455 -86 484 -86Q517 -86 531.5 -69.5Q546 -53 546 -13Z" glyph-name="Eng" horiz-adv-x="821" unicode="&#330;" /><glyph d="M84 0V700H637V546H279V432H587V275H279V156H647V0Q596 -4 575.5 -29Q555 -54 555 -85Q555 -114 575 -125Q595 -136 621 -136Q638 -136 655.5 -132Q673 -128 689 -119L715 -209Q668 -238 607 -238Q578 -238 549.5 -231Q521 -224 498.5 -208.5Q476 -193 462 -167Q448 -141 448 -102Q448 -70 459 -44.5Q470 -19 488 0Z" glyph-name="Eogonek" horiz-adv-x="693" unicode="&#280;" /><glyph d="M401 0H98V270H31V418H98V700H417Q586 700 664 615.5Q742 531 742 355Q742 182 659 91Q576 0 401 0ZM299 160H385Q421 160 449.5 170Q478 180 498 202.5Q518 225 529 262Q540 299 540 352Q540 449 505.5 494.5Q471 540 402 540H299V418H400V270H299Z" glyph-name="Eth" horiz-adv-x="788" unicode="&#208;" /><glyph d="M405 -16Q262 -16 181 43.5Q100 103 75 226H6V313H65Q64 321 64 329V353H6V440H69Q88 582 174 648.5Q260 715 414 715Q517 715 586.5 677Q656 639 688 550L532 473Q511 521 484.5 538Q458 555 411 555Q355 555 318 530Q281 505 267 440H479L455 353H257V329Q257 321 258 313H444L420 226H280Q296 179 328.5 161Q361 143 409 143Q454 143 486 161.5Q518 180 535 223L694 148Q660 68 589.5 26Q519 -16 405 -16Z" glyph-name="Euro" horiz-adv-x="721" unicode="&#8364;" /><glyph d="M84 0V700H627V539H286V415H578V250H286V0Z" glyph-name="F" horiz-adv-x="635" unicode="F" /><glyph d="M365 -15Q292 -15 233 7.5Q174 30 133 75.5Q92 121 69.5 189.5Q47 258 47 351Q47 538 135.5 626.5Q224 715 402 715Q510 715 580 678Q650 641 684 556L522 474Q501 517 474 533Q447 549 400 549Q363 549 335 539Q307 529 288 505.5Q269 482 259.5 444Q250 406 250 349Q250 291 260 252Q270 213 289.5 189Q309 165 338 155Q367 145 404 145Q449 145 484 168Q519 191 526 243H404V391H707V0H570L558 79Q531 35 482.5 10Q434 -15 365 -15Z" glyph-name="G" horiz-adv-x="754" unicode="G" /><glyph d="M394 -15Q215 -15 131 76Q47 167 47 351Q47 538 135.5 626.5Q224 715 402 715Q510 715 580 678Q650 641 684 556L522 474Q501 517 474 533Q447 549 400 549Q363 549 335 539Q307 529 288 505.5Q269 482 259.5 444Q250 406 250 349Q250 291 260 252Q270 213 289.5 189Q309 165 338 155Q367 145 404 145Q449 145 484 168Q519 191 526 243H404V391H707V285Q707 195 680.5 137Q654 79 610.5 45Q567 11 510.5 -2Q454 -15 394 -15Z" glyph-name="G.alt" horiz-adv-x="758" /><glyph d="M47 0ZM365 -15Q292 -15 233 7.5Q174 30 133 75.5Q92 121 69.5 189.5Q47 258 47 351Q47 538 135.5 626.5Q224 715 402 715Q510 715 580 678Q650 641 684 556L522 474Q501 517 474 533Q447 549 400 549Q363 549 335 539Q307 529 288 505.5Q269 482 259.5 444Q250 406 250 349Q250 291 260 252Q270 213 289.5 189Q309 165 338 155Q367 145 404 145Q449 145 484 168Q519 191 526 243H404V391H707V0H570L558 79Q531 35 482.5 10Q434 -15 365 -15ZM474 909H587Q587 867 574.5 838.5Q562 810 538 792.5Q514 775 479.5 768Q445 761 401 761Q357 761 322.5 768Q288 775 264.5 792.5Q241 810 228.5 838.5Q216 867 216 909H328Q328 874 345.5 862Q363 850 401 850Q439 850 456.5 862Q474 874 474 909Z" glyph-name="Gbreve" horiz-adv-x="754" unicode="&#286;" /><glyph d="M470 908H583Q583 866 570.5 837.5Q558 809 534 791.5Q510 774 475.5 767Q441 760 397 760Q353 760 318.5 767Q284 774 260.5 791.5Q237 809 224.5 837.5Q212 866 212 908H324Q324 873 341.5 861Q359 849 397 849Q435 849 452.5 861Q470 873 470 908ZM394 -15Q215 -15 131 76Q47 167 47 351Q47 538 135.5 626.5Q224 715 402 715Q510 715 580 678Q650 641 684 556L522 474Q501 517 474 533Q447 549 400 549Q363 549 335 539Q307 529 288 505.5Q269 482 259.5 444Q250 406 250 349Q250 291 260 252Q270 213 289.5 189Q309 165 338 155Q367 145 404 145Q449 145 484 168Q519 191 526 243H404V391H707V285Q707 195 680.5 137Q654 79 610.5 45Q567 11 510.5 -2Q454 -15 394 -15Z" glyph-name="Gbreve.alt" horiz-adv-x="758" /><glyph d="M47 0ZM398 821 342 769H201V773L325 910H480L605 773V769H456ZM365 -15Q292 -15 233 7.5Q174 30 133 75.5Q92 121 69.5 189.5Q47 258 47 351Q47 538 135.5 626.5Q224 715 402 715Q510 715 580 678Q650 641 684 556L522 474Q501 517 474 533Q447 549 400 549Q363 549 335 539Q307 529 288 505.5Q269 482 259.5 444Q250 406 250 349Q250 291 260 252Q270 213 289.5 189Q309 165 338 155Q367 145 404 145Q449 145 484 168Q519 191 526 243H404V391H707V0H570L558 79Q531 35 482.5 10Q434 -15 365 -15Z" glyph-name="Gcircumflex" horiz-adv-x="754" unicode="&#284;" /><glyph d="M394 820 338 768H197V772L321 909H476L601 772V768H452ZM394 -15Q215 -15 131 76Q47 167 47 351Q47 538 135.5 626.5Q224 715 402 715Q510 715 580 678Q650 641 684 556L522 474Q501 517 474 533Q447 549 400 549Q363 549 335 539Q307 529 288 505.5Q269 482 259.5 444Q250 406 250 349Q250 291 260 252Q270 213 289.5 189Q309 165 338 155Q367 145 404 145Q449 145 484 168Q519 191 526 243H404V391H707V285Q707 195 680.5 137Q654 79 610.5 45Q567 11 510.5 -2Q454 -15 394 -15Z" glyph-name="Gcircumflex.alt" horiz-adv-x="758" /><glyph d="M47 0ZM328 -354 295 -287Q328 -279 352 -260.5Q376 -242 384 -216Q340 -216 315 -195.5Q290 -175 290 -136Q290 -93 315 -71.5Q340 -50 388 -50Q435 -50 461.5 -77Q488 -104 488 -158Q488 -197 476.5 -230Q465 -263 444 -289Q423 -315 393.5 -331.5Q364 -348 328 -354ZM365 -15Q292 -15 233 7.5Q174 30 133 75.5Q92 121 69.5 189.5Q47 258 47 351Q47 538 135.5 626.5Q224 715 402 715Q510 715 580 678Q650 641 684 556L522 474Q501 517 474 533Q447 549 400 549Q363 549 335 539Q307 529 288 505.5Q269 482 259.5 444Q250 406 250 349Q250 291 260 252Q270 213 289.5 189Q309 165 338 155Q367 145 404 145Q449 145 484 168Q519 191 526 243H404V391H707V0H570L558 79Q531 35 482.5 10Q434 -15 365 -15Z" glyph-name="Gcommaaccent" horiz-adv-x="754" unicode="&#290;" /><glyph d="M394 -15Q215 -15 131 76Q47 167 47 351Q47 538 135.5 626.5Q224 715 402 715Q510 715 580 678Q650 641 684 556L522 474Q501 517 474 533Q447 549 400 549Q363 549 335 539Q307 529 288 505.5Q269 482 259.5 444Q250 406 250 349Q250 291 260 252Q270 213 289.5 189Q309 165 338 155Q367 145 404 145Q449 145 484 168Q519 191 526 243H404V391H707V285Q707 195 680.5 137Q654 79 610.5 45Q567 11 510.5 -2Q454 -15 394 -15ZM324 -354 291 -287Q324 -279 348 -260.5Q372 -242 380 -216Q336 -216 311 -195.5Q286 -175 286 -136Q286 -93 311 -71.5Q336 -50 384 -50Q431 -50 457.5 -77Q484 -104 484 -158Q484 -197 472.5 -230Q461 -263 440 -289Q419 -315 389.5 -331.5Q360 -348 324 -354Z" glyph-name="Gcommaaccent.alt" horiz-adv-x="758" /><glyph d="M47 0ZM365 -15Q292 -15 233 7.5Q174 30 133 75.5Q92 121 69.5 189.5Q47 258 47 351Q47 538 135.5 626.5Q224 715 402 715Q510 715 580 678Q650 641 684 556L522 474Q501 517 474 533Q447 549 400 549Q363 549 335 539Q307 529 288 505.5Q269 482 259.5 444Q250 406 250 349Q250 291 260 252Q270 213 289.5 189Q309 165 338 155Q367 145 404 145Q449 145 484 168Q519 191 526 243H404V391H707V0H570L558 79Q531 35 482.5 10Q434 -15 365 -15ZM300 848Q300 893 326.5 913Q353 933 401 933Q449 933 475 913Q501 893 501 848Q501 804 475 784Q449 764 401 764Q353 764 326.5 784Q300 804 300 848Z" glyph-name="Gdotaccent" horiz-adv-x="754" unicode="&#288;" /><glyph d="M296 847Q296 892 322.5 912Q349 932 397 932Q445 932 471 912Q497 892 497 847Q497 803 471 783Q445 763 397 763Q349 763 322.5 783Q296 803 296 847ZM394 -15Q215 -15 131 76Q47 167 47 351Q47 538 135.5 626.5Q224 715 402 715Q510 715 580 678Q650 641 684 556L522 474Q501 517 474 533Q447 549 400 549Q363 549 335 539Q307 529 288 505.5Q269 482 259.5 444Q250 406 250 349Q250 291 260 252Q270 213 289.5 189Q309 165 338 155Q367 145 404 145Q449 145 484 168Q519 191 526 243H404V391H707V285Q707 195 680.5 137Q654 79 610.5 45Q567 11 510.5 -2Q454 -15 394 -15Z" glyph-name="Gdotaccent.alt" horiz-adv-x="758" /><glyph d="M538 0V263H286V0H84V700H286V434H538V700H740V0Z" glyph-name="H" horiz-adv-x="825" unicode="H" /><glyph d="M296 434H549V507H296ZM549 0V263H296V0H94V507H32V604H94V700H296V604H549V700H750V604H813V507H750V0Z" glyph-name="Hbar" horiz-adv-x="845" unicode="&#294;" /><glyph d="M84 0ZM409 820 353 768H212V772L336 909H491L616 772V768H467ZM538 0V263H286V0H84V700H286V434H538V700H740V0Z" glyph-name="Hcircumflex" horiz-adv-x="825" unicode="&#292;" /><glyph d="M84 0V700H286V0Z" glyph-name="I" horiz-adv-x="371" unicode="I" /><glyph d="M85 0ZM85 0V700H287V0ZM569 -15Q519 -15 464.5 0.5Q410 16 365 54L444 191Q469 169 500.5 158Q532 147 562 147Q610 147 637 173.5Q664 200 664 266V700H866V264Q866 187 844 134Q822 81 782.5 48Q743 15 688.5 0Q634 -15 569 -15Z" glyph-name="IJ" horiz-adv-x="934" unicode="&#306;" /><glyph d="M84 0ZM84 0V700H286V0ZM380 903 244 769H97V774L181 910H380Z" glyph-name="Iacute" horiz-adv-x="371" unicode="&#205;" /><glyph d="M0 0ZM84 0V700H286V0ZM258 908H371Q371 866 358.5 837.5Q346 809 322 791.5Q298 774 263.5 767Q229 760 185 760Q141 760 106.5 767Q72 774 48.5 791.5Q25 809 12.5 837.5Q0 866 0 908H112Q112 873 129.5 861Q147 849 185 849Q223 849 240.5 861Q258 873 258 908Z" glyph-name="Ibreve" horiz-adv-x="371" unicode="&#300;" /><glyph d="M0 0ZM84 0V700H286V0ZM182 820 126 768H-15V772L109 909H264L389 772V768H240Z" glyph-name="Icircumflex" horiz-adv-x="371" unicode="&#206;" /><glyph d="M0 0ZM84 0V700H286V0ZM205 847Q205 890 230 910Q255 930 301 930Q347 930 371.5 910Q396 890 396 847Q396 802 371.5 782.5Q347 763 301 763Q255 763 230 782.5Q205 802 205 847ZM-24 847Q-24 890 1 910Q26 930 71 930Q117 930 141.5 910Q166 890 166 847Q166 802 141.5 782.5Q117 763 71 763Q26 763 1 782.5Q-24 802 -24 847Z" glyph-name="Idieresis" horiz-adv-x="371" unicode="&#207;" /><glyph d="M84 0ZM84 0V700H286V0ZM84 847Q84 892 110.5 912Q137 932 185 932Q233 932 259 912Q285 892 285 847Q285 803 259 783Q233 763 185 763Q137 763 110.5 783Q84 803 84 847Z" glyph-name="Idotaccent" horiz-adv-x="371" unicode="&#304;" /><glyph d="M0 0ZM84 0V700H286V0ZM123 768 -13 902V909H193L274 773V768Z" glyph-name="Igrave" horiz-adv-x="371" unicode="&#204;" /><glyph d="M33 0ZM84 0V700H286V0ZM339 883V782H33V883Z" glyph-name="Imacron" horiz-adv-x="371" unicode="&#298;" /><glyph d="M150 -238Q121 -238 92.5 -231Q64 -224 41.5 -208.5Q19 -193 5 -167Q-9 -141 -9 -102Q-9 -51 17.5 -15.5Q44 20 84 38V700H286V0H186Q138 -4 118 -29Q98 -54 98 -85Q98 -114 118 -125Q138 -136 164 -136Q181 -136 198.5 -132Q216 -128 232 -119L258 -209Q211 -238 150 -238Z" glyph-name="Iogonek" horiz-adv-x="371" unicode="&#302;" /><glyph d="M0 0ZM84 0V700H286V0ZM270 906H379Q382 868 373 842.5Q364 817 348 801.5Q332 786 311 779.5Q290 773 270 773Q247 773 227.5 778Q208 783 190.5 788.5Q173 794 158 799Q143 804 128 804Q111 804 105.5 793.5Q100 783 100 772H-9Q-12 810 -3 835.5Q6 861 22 876.5Q38 892 58.5 898.5Q79 905 100 905Q123 905 142.5 900Q162 895 179.5 889.5Q197 884 212 879Q227 874 242 874Q260 874 265 883.5Q270 893 270 906Z" glyph-name="Itilde" horiz-adv-x="371" unicode="&#296;" /><glyph d="M196 -15Q146 -15 91.5 0.5Q37 16 -8 54L71 191Q96 169 127.5 158Q159 147 189 147Q237 147 264 173.5Q291 200 291 266V700H493V264Q493 187 471 134Q449 81 409.5 48Q370 15 315.5 0Q261 -15 196 -15Z" glyph-name="J" horiz-adv-x="561" unicode="J" /><glyph d="M0 0ZM392 820 336 768H195V772L319 909H474L599 772V768H450ZM196 -15Q146 -15 91.5 0.5Q37 16 -8 54L71 191Q96 169 127.5 158Q159 147 189 147Q237 147 264 173.5Q291 200 291 266V700H493V264Q493 187 471 134Q449 81 409.5 48Q370 15 315.5 0Q261 -15 196 -15Z" glyph-name="Jcircumflex" horiz-adv-x="561" unicode="&#308;" /><glyph d="M84 0V700H286L285 402L516 700H753L496 390L747 0H504L357 244L286 164V0Z" glyph-name="K" horiz-adv-x="759" unicode="K" /><glyph d="M506 0 287 308V0H84V700H287V361L518 700H748L493 353L758 0Z" glyph-name="K.alt" horiz-adv-x="763" /><glyph d="M84 0ZM339 -354 306 -287Q339 -279 363 -260.5Q387 -242 395 -216Q351 -216 326 -195.5Q301 -175 301 -136Q301 -93 326 -71.5Q351 -50 399 -50Q446 -50 472.5 -77Q499 -104 499 -158Q499 -197 487.5 -230Q476 -263 455 -289Q434 -315 404.5 -331.5Q375 -348 339 -354ZM84 0V700H286L285 402L516 700H753L496 390L747 0H504L357 244L286 164V0Z" glyph-name="Kcommaaccent" horiz-adv-x="759" unicode="&#310;" /><glyph d="M84 0ZM339 -354 306 -287Q339 -279 363 -260.5Q387 -242 395 -216Q351 -216 326 -195.5Q301 -175 301 -136Q301 -93 326 -71.5Q351 -50 399 -50Q446 -50 472.5 -77Q499 -104 499 -158Q499 -197 487.5 -230Q476 -263 455 -289Q434 -315 404.5 -331.5Q375 -348 339 -354ZM506 0 287 308V0H84V700H287V361L518 700H748L493 353L758 0Z" glyph-name="Kcommaaccent.alt" horiz-adv-x="763" /><glyph d="M287 166H627V0H84V700H287Z" glyph-name="L" horiz-adv-x="652" unicode="L" /><glyph d="M84 0ZM382 902 246 768H99V773L183 909H382ZM287 166H627V0H84V700H287Z" glyph-name="Lacute" horiz-adv-x="652" unicode="&#313;" /><glyph d="M84 0ZM526 421H403L410 700H560ZM287 166H627V0H84V700H287Z" glyph-name="Lcaron" horiz-adv-x="652" unicode="&#317;" /><glyph d="M84 0ZM300 -354 267 -287Q300 -279 324 -260.5Q348 -242 356 -216Q312 -216 287 -195.5Q262 -175 262 -136Q262 -93 287 -71.5Q312 -50 360 -50Q407 -50 433.5 -77Q460 -104 460 -158Q460 -197 448.5 -230Q437 -263 416 -289Q395 -315 365.5 -331.5Q336 -348 300 -354ZM287 166H627V0H84V700H287Z" glyph-name="Lcommaaccent" horiz-adv-x="652" unicode="&#315;" /><glyph d="M84 0ZM287 166H627V0H84V700H287ZM402 361Q402 406 428.5 426Q455 446 503 446Q551 446 577 426Q603 406 603 361Q603 317 577 297Q551 277 503 277Q455 277 428.5 297Q402 317 402 361Z" glyph-name="Ldot" horiz-adv-x="652" unicode="&#319;" /><glyph d="M303 166H644V0H101V201L22 159V310L101 351V700H303V447L463 528V377L303 296Z" glyph-name="Lslash" horiz-adv-x="668" unicode="&#321;" /><glyph d="M426 0 258 386 266 0H84V700H300L499 230L696 700H918V0H729L738 403L566 0Z" glyph-name="M" horiz-adv-x="1003" unicode="M" /><glyph d="M567 0 269 382 274 0H84V700H234L551 285L547 700H737V0Z" glyph-name="N" horiz-adv-x="821" unicode="N" /><glyph glyph-name="NULL" horiz-adv-x="235" /><glyph d="M84 0ZM605 903 469 769H322V774L406 910H605ZM567 0 269 382 274 0H84V700H234L551 285L547 700H737V0Z" glyph-name="Nacute" horiz-adv-x="821" unicode="&#323;" /><glyph d="M84 0ZM416 858 473 910H613V907L489 769H333L209 907V910H357ZM567 0 269 382 274 0H84V700H234L551 285L547 700H737V0Z" glyph-name="Ncaron" horiz-adv-x="821" unicode="&#327;" /><glyph d="M84 0ZM355 -354 322 -287Q355 -279 379 -260.5Q403 -242 411 -216Q367 -216 342 -195.5Q317 -175 317 -136Q317 -93 342 -71.5Q367 -50 415 -50Q462 -50 488.5 -77Q515 -104 515 -158Q515 -197 503.5 -230Q492 -263 471 -289Q450 -315 420.5 -331.5Q391 -348 355 -354ZM567 0 269 382 274 0H84V700H234L551 285L547 700H737V0Z" glyph-name="Ncommaaccent" horiz-adv-x="821" unicode="&#325;" /><glyph d="M84 0ZM567 0 269 382 274 0H84V700H234L551 285L547 700H737V0ZM495 906H604Q607 868 598 842.5Q589 817 573 801.5Q557 786 536 779.5Q515 773 495 773Q472 773 452.5 778Q433 783 415.5 788.5Q398 794 383 799Q368 804 353 804Q336 804 330.5 793.5Q325 783 325 772H216Q213 810 222 835.5Q231 861 247 876.5Q263 892 283.5 898.5Q304 905 325 905Q348 905 367.5 900Q387 895 404.5 889.5Q422 884 437 879Q452 874 467 874Q485 874 490 883.5Q495 893 495 906Z" glyph-name="Ntilde" horiz-adv-x="821" unicode="&#209;" /><glyph d="M398 -15Q213 -15 130 77Q47 169 47 351Q47 534 133 624.5Q219 715 400 715Q493 715 560 692Q627 669 669.5 623Q712 577 732 509Q752 441 752 350Q752 167 665.5 76Q579 -15 398 -15ZM399 550Q361 550 333.5 539.5Q306 529 287 505.5Q268 482 259 443.5Q250 405 250 349Q250 294 259.5 256Q269 218 287.5 194Q306 170 333.5 159.5Q361 149 398 149Q435 149 463 159.5Q491 170 509.5 194Q528 218 537 256.5Q546 295 546 351Q546 406 537 444Q528 482 509.5 505.5Q491 529 463.5 539.5Q436 550 399 550Z" glyph-name="O" horiz-adv-x="798" unicode="O" /><glyph d="M1055 0H386Q218 0 132 86Q46 172 46 351Q46 523 129.5 611.5Q213 700 388 700H1045V545H691V432H995V275H691V156H1055ZM386 160H494V540H396Q325 540 287.5 496.5Q250 453 250 349Q250 251 284 205.5Q318 160 386 160Z" glyph-name="OE" horiz-adv-x="1101" unicode="&#338;" /><glyph d="M47 0ZM590 903 454 769H307V774L391 910H590ZM398 -15Q213 -15 130 77Q47 169 47 351Q47 534 133 624.5Q219 715 400 715Q493 715 560 692Q627 669 669.5 623Q712 577 732 509Q752 441 752 350Q752 167 665.5 76Q579 -15 398 -15ZM399 550Q361 550 333.5 539.5Q306 529 287 505.5Q268 482 259 443.5Q250 405 250 349Q250 294 259.5 256Q269 218 287.5 194Q306 170 333.5 159.5Q361 149 398 149Q435 149 463 159.5Q491 170 509.5 194Q528 218 537 256.5Q546 295 546 351Q546 406 537 444Q528 482 509.5 505.5Q491 529 463.5 539.5Q436 550 399 550Z" glyph-name="Oacute" horiz-adv-x="798" unicode="&#211;" /><glyph d="M47 0ZM398 -15Q213 -15 130 77Q47 169 47 351Q47 534 133 624.5Q219 715 400 715Q493 715 560 692Q627 669 669.5 623Q712 577 732 509Q752 441 752 350Q752 167 665.5 76Q579 -15 398 -15ZM399 550Q361 550 333.5 539.5Q306 529 287 505.5Q268 482 259 443.5Q250 405 250 349Q250 294 259.5 256Q269 218 287.5 194Q306 170 333.5 159.5Q361 149 398 149Q435 149 463 159.5Q491 170 509.5 194Q528 218 537 256.5Q546 295 546 351Q546 406 537 444Q528 482 509.5 505.5Q491 529 463.5 539.5Q436 550 399 550ZM468 909H581Q581 867 568.5 838.5Q556 810 532 792.5Q508 775 473.5 768Q439 761 395 761Q351 761 316.5 768Q282 775 258.5 792.5Q235 810 222.5 838.5Q210 867 210 909H322Q322 874 339.5 862Q357 850 395 850Q433 850 450.5 862Q468 874 468 909Z" glyph-name="Obreve" horiz-adv-x="798" unicode="&#334;" /><glyph d="M47 0ZM392 821 336 769H195V773L319 910H474L599 773V769H450ZM398 -15Q213 -15 130 77Q47 169 47 351Q47 534 133 624.5Q219 715 400 715Q493 715 560 692Q627 669 669.5 623Q712 577 732 509Q752 441 752 350Q752 167 665.5 76Q579 -15 398 -15ZM399 550Q361 550 333.5 539.5Q306 529 287 505.5Q268 482 259 443.5Q250 405 250 349Q250 294 259.5 256Q269 218 287.5 194Q306 170 333.5 159.5Q361 149 398 149Q435 149 463 159.5Q491 170 509.5 194Q528 218 537 256.5Q546 295 546 351Q546 406 537 444Q528 482 509.5 505.5Q491 529 463.5 539.5Q436 550 399 550Z" glyph-name="Ocircumflex" horiz-adv-x="798" unicode="&#212;" /><glyph d="M47 0ZM418 848Q418 891 443 911Q468 931 514 931Q560 931 584.5 911Q609 891 609 848Q609 803 584.5 783.5Q560 764 514 764Q468 764 443 783.5Q418 803 418 848ZM189 848Q189 891 214 911Q239 931 284 931Q330 931 354.5 911Q379 891 379 848Q379 803 354.5 783.5Q330 764 284 764Q239 764 214 783.5Q189 803 189 848ZM398 -15Q213 -15 130 77Q47 169 47 351Q47 534 133 624.5Q219 715 400 715Q493 715 560 692Q627 669 669.5 623Q712 577 732 509Q752 441 752 350Q752 167 665.5 76Q579 -15 398 -15ZM399 550Q361 550 333.5 539.5Q306 529 287 505.5Q268 482 259 443.5Q250 405 250 349Q250 294 259.5 256Q269 218 287.5 194Q306 170 333.5 159.5Q361 149 398 149Q435 149 463 159.5Q491 170 509.5 194Q528 218 537 256.5Q546 295 546 351Q546 406 537 444Q528 482 509.5 505.5Q491 529 463.5 539.5Q436 550 399 550Z" glyph-name="Odieresis" horiz-adv-x="798" unicode="&#214;" /><glyph d="M47 0ZM398 -15Q213 -15 130 77Q47 169 47 351Q47 534 133 624.5Q219 715 400 715Q493 715 560 692Q627 669 669.5 623Q712 577 732 509Q752 441 752 350Q752 167 665.5 76Q579 -15 398 -15ZM399 550Q361 550 333.5 539.5Q306 529 287 505.5Q268 482 259 443.5Q250 405 250 349Q250 294 259.5 256Q269 218 287.5 194Q306 170 333.5 159.5Q361 149 398 149Q435 149 463 159.5Q491 170 509.5 194Q528 218 537 256.5Q546 295 546 351Q546 406 537 444Q528 482 509.5 505.5Q491 529 463.5 539.5Q436 550 399 550ZM333 769 197 903V910H403L484 774V769Z" glyph-name="Ograve" horiz-adv-x="798" unicode="&#210;" /><glyph d="M47 0ZM690 905 556 769H419V774L498 910H690ZM463 903 340 769H216V774L286 910H463ZM398 -15Q213 -15 130 77Q47 169 47 351Q47 534 133 624.5Q219 715 400 715Q493 715 560 692Q627 669 669.5 623Q712 577 732 509Q752 441 752 350Q752 167 665.5 76Q579 -15 398 -15ZM399 550Q361 550 333.5 539.5Q306 529 287 505.5Q268 482 259 443.5Q250 405 250 349Q250 294 259.5 256Q269 218 287.5 194Q306 170 333.5 159.5Q361 149 398 149Q435 149 463 159.5Q491 170 509.5 194Q528 218 537 256.5Q546 295 546 351Q546 406 537 444Q528 482 509.5 505.5Q491 529 463.5 539.5Q436 550 399 550Z" glyph-name="Ohungarumlaut" horiz-adv-x="798" unicode="&#336;" /><glyph d="M47 0ZM549 884V783H243V884ZM398 -15Q213 -15 130 77Q47 169 47 351Q47 534 133 624.5Q219 715 400 715Q493 715 560 692Q627 669 669.5 623Q712 577 732 509Q752 441 752 350Q752 167 665.5 76Q579 -15 398 -15ZM399 550Q361 550 333.5 539.5Q306 529 287 505.5Q268 482 259 443.5Q250 405 250 349Q250 294 259.5 256Q269 218 287.5 194Q306 170 333.5 159.5Q361 149 398 149Q435 149 463 159.5Q491 170 509.5 194Q528 218 537 256.5Q546 295 546 351Q546 406 537 444Q528 482 509.5 505.5Q491 529 463.5 539.5Q436 550 399 550Z" glyph-name="Omacron" horiz-adv-x="798" unicode="&#332;" /><glyph d="M161 0H36L121 97Q85 144 68.5 207Q52 270 52 350Q52 533 138 624Q224 715 405 715Q537 715 617 665L648 700H775L689 601Q724 555 740.5 492Q757 429 757 350Q757 166 671.5 75.5Q586 -15 408 -15Q272 -15 191 35ZM493 524Q460 550 404 550Q366 550 338.5 539.5Q311 529 292 505.5Q273 482 264 444Q255 406 255 350Q255 297 265 264ZM312 175Q329 161 352 155Q375 149 404 149Q441 149 468.5 159Q496 169 514.5 192.5Q533 216 542 255Q551 294 551 351Q551 401 542 436Z" glyph-name="Oslash" horiz-adv-x="808" unicode="&#216;" /><glyph d="M47 0ZM398 -15Q213 -15 130 77Q47 169 47 351Q47 534 133 624.5Q219 715 400 715Q493 715 560 692Q627 669 669.5 623Q712 577 732 509Q752 441 752 350Q752 167 665.5 76Q579 -15 398 -15ZM399 550Q361 550 333.5 539.5Q306 529 287 505.5Q268 482 259 443.5Q250 405 250 349Q250 294 259.5 256Q269 218 287.5 194Q306 170 333.5 159.5Q361 149 398 149Q435 149 463 159.5Q491 170 509.5 194Q528 218 537 256.5Q546 295 546 351Q546 406 537 444Q528 482 509.5 505.5Q491 529 463.5 539.5Q436 550 399 550ZM480 907H589Q592 869 583 843.5Q574 818 558 802.5Q542 787 521 780.5Q500 774 480 774Q457 774 437.5 779Q418 784 400.5 789.5Q383 795 368 800Q353 805 338 805Q321 805 315.5 794.5Q310 784 310 773H201Q198 811 207 836.5Q216 862 232 877.5Q248 893 268.5 899.5Q289 906 310 906Q333 906 352.5 901Q372 896 389.5 890.5Q407 885 422 880Q437 875 452 875Q470 875 475 884.5Q480 894 480 907Z" glyph-name="Otilde" horiz-adv-x="798" unicode="&#213;" /><glyph d="M84 0V700H439Q501 700 547.5 681Q594 662 625.5 627.5Q657 593 672.5 545.5Q688 498 688 440Q688 378 668.5 331Q649 284 613.5 251.5Q578 219 527.5 202.5Q477 186 415 186H286V0ZM400 531H286V348H401Q443 348 466 372.5Q489 397 489 443Q489 459 484 475Q479 491 468.5 503.5Q458 516 441 523.5Q424 531 400 531Z" glyph-name="P" horiz-adv-x="715" unicode="P" /><glyph d="M626 43 702 -86H532L486 -9Q445 -15 398 -15Q213 -15 130 77Q47 169 47 351Q47 534 133 624.5Q219 715 400 715Q493 715 560 692Q627 669 669.5 623Q712 577 732 509Q752 441 752 350Q752 130 626 43ZM399 555Q361 555 333.5 544Q306 533 287 508.5Q268 484 259 444.5Q250 405 250 347Q250 291 259 252.5Q268 214 286.5 190Q305 166 332.5 155Q360 144 396 144L335 248H507L525 216Q547 263 547 349Q547 462 509.5 508.5Q472 555 399 555Z" glyph-name="Q" horiz-adv-x="797" unicode="Q" /><glyph d="M416 536H282V371H413Q451 371 473 392.5Q495 414 495 455Q495 488 477 512Q459 536 416 536ZM84 0V700H457Q517 700 561.5 682.5Q606 665 636 633.5Q666 602 681 557.5Q696 513 696 460Q696 385 667.5 332.5Q639 280 587 251L701 0H480L392 213H282V0Z" glyph-name="R" horiz-adv-x="733" unicode="R" /><glyph d="M84 0ZM585 903 449 769H302V774L386 910H585ZM416 536H282V371H413Q451 371 473 392.5Q495 414 495 455Q495 488 477 512Q459 536 416 536ZM84 0V700H457Q517 700 561.5 682.5Q606 665 636 633.5Q666 602 681 557.5Q696 513 696 460Q696 385 667.5 332.5Q639 280 587 251L701 0H480L392 213H282V0Z" glyph-name="Racute" horiz-adv-x="733" unicode="&#340;" /><glyph d="M84 0ZM396 858 453 910H593V907L469 769H313L189 907V910H337ZM416 536H282V371H413Q451 371 473 392.5Q495 414 495 455Q495 488 477 512Q459 536 416 536ZM84 0V700H457Q517 700 561.5 682.5Q606 665 636 633.5Q666 602 681 557.5Q696 513 696 460Q696 385 667.5 332.5Q639 280 587 251L701 0H480L392 213H282V0Z" glyph-name="Rcaron" horiz-adv-x="733" unicode="&#344;" /><glyph d="M84 0ZM322 -354 289 -287Q322 -279 346 -260.5Q370 -242 378 -216Q334 -216 309 -195.5Q284 -175 284 -136Q284 -93 309 -71.5Q334 -50 382 -50Q429 -50 455.5 -77Q482 -104 482 -158Q482 -197 470.5 -230Q459 -263 438 -289Q417 -315 387.5 -331.5Q358 -348 322 -354ZM416 536H282V371H413Q451 371 473 392.5Q495 414 495 455Q495 488 477 512Q459 536 416 536ZM84 0V700H457Q517 700 561.5 682.5Q606 665 636 633.5Q666 602 681 557.5Q696 513 696 460Q696 385 667.5 332.5Q639 280 587 251L701 0H480L392 213H282V0Z" glyph-name="Rcommaaccent" horiz-adv-x="733" unicode="&#342;" /><glyph d="M588 582 459 491Q433 528 402.5 546.5Q372 565 322 565Q268 565 246.5 548Q225 531 225 506Q225 481 246 466Q267 451 319 440L383 426Q448 412 490.5 390.5Q533 369 558 341Q583 313 593 280Q603 247 603 210Q603 159 584 117.5Q565 76 527.5 46.5Q490 17 434.5 1Q379 -15 305 -15Q262 -15 220 -8.5Q178 -2 140.5 14Q103 30 72 56Q41 82 20 121L143 217Q170 169 208 148Q246 127 304 127Q357 127 386.5 142.5Q416 158 416 188Q416 213 398.5 226.5Q381 240 332 251L263 267Q200 282 158 305.5Q116 329 91.5 358.5Q67 388 56.5 421.5Q46 455 46 489Q46 539 64 580.5Q82 622 116.5 652Q151 682 202.5 698.5Q254 715 321 715Q408 715 477.5 685.5Q547 656 588 582Z" glyph-name="S" horiz-adv-x="641" unicode="S" /><glyph d="M20 0ZM512 903 376 769H229V774L313 910H512ZM588 582 459 491Q433 528 402.5 546.5Q372 565 322 565Q268 565 246.5 548Q225 531 225 506Q225 481 246 466Q267 451 319 440L383 426Q448 412 490.5 390.5Q533 369 558 341Q583 313 593 280Q603 247 603 210Q603 159 584 117.5Q565 76 527.5 46.5Q490 17 434.5 1Q379 -15 305 -15Q262 -15 220 -8.5Q178 -2 140.5 14Q103 30 72 56Q41 82 20 121L143 217Q170 169 208 148Q246 127 304 127Q357 127 386.5 142.5Q416 158 416 188Q416 213 398.5 226.5Q381 240 332 251L263 267Q200 282 158 305.5Q116 329 91.5 358.5Q67 388 56.5 421.5Q46 455 46 489Q46 539 64 580.5Q82 622 116.5 652Q151 682 202.5 698.5Q254 715 321 715Q408 715 477.5 685.5Q547 656 588 582Z" glyph-name="Sacute" horiz-adv-x="641" unicode="&#346;" /><glyph d="M20 0ZM323 858 380 910H520V907L396 769H240L116 907V910H264ZM588 582 459 491Q433 528 402.5 546.5Q372 565 322 565Q268 565 246.5 548Q225 531 225 506Q225 481 246 466Q267 451 319 440L383 426Q448 412 490.5 390.5Q533 369 558 341Q583 313 593 280Q603 247 603 210Q603 159 584 117.5Q565 76 527.5 46.5Q490 17 434.5 1Q379 -15 305 -15Q262 -15 220 -8.5Q178 -2 140.5 14Q103 30 72 56Q41 82 20 121L143 217Q170 169 208 148Q246 127 304 127Q357 127 386.5 142.5Q416 158 416 188Q416 213 398.5 226.5Q381 240 332 251L263 267Q200 282 158 305.5Q116 329 91.5 358.5Q67 388 56.5 421.5Q46 455 46 489Q46 539 64 580.5Q82 622 116.5 652Q151 682 202.5 698.5Q254 715 321 715Q408 715 477.5 685.5Q547 656 588 582Z" glyph-name="Scaron" horiz-adv-x="641" unicode="&#352;" /><glyph d="M311 -258Q263 -258 222 -240Q181 -222 158 -184L218 -122Q234 -145 254.5 -157.5Q275 -170 304 -170Q324 -170 337.5 -162Q351 -154 351 -135Q351 -121 337.5 -111Q324 -101 299 -101Q293 -101 287.5 -102Q282 -103 276 -104L249 -89L276 -14Q237 -12 199 -4Q161 4 127.5 20Q94 36 66.5 60.5Q39 85 20 121L143 217Q170 169 208 148Q246 127 304 127Q357 127 386.5 142.5Q416 158 416 188Q416 213 398.5 226.5Q381 240 332 251L263 267Q200 282 158 305.5Q116 329 91.5 358.5Q67 388 56.5 421.5Q46 455 46 489Q46 539 64 580.5Q82 622 116.5 652Q151 682 202.5 698.5Q254 715 321 715Q408 715 477.5 685.5Q547 656 588 582L459 491Q433 528 402.5 546.5Q372 565 322 565Q268 565 246.5 548Q225 531 225 506Q225 481 246 466Q267 451 319 440L383 426Q448 412 490.5 390.5Q533 369 558 341Q583 313 593 280Q603 247 603 210Q603 119 543.5 60Q484 1 366 -12L352 -45H353Q374 -47 393.5 -53.5Q413 -60 428.5 -72Q444 -84 453 -101.5Q462 -119 462 -141Q462 -171 450 -193Q438 -215 417 -229.5Q396 -244 368.5 -251Q341 -258 311 -258Z" glyph-name="Scedilla" horiz-adv-x="641" unicode="&#350;" /><glyph d="M20 0ZM313 820 257 768H116V772L240 909H395L520 772V768H371ZM588 582 459 491Q433 528 402.5 546.5Q372 565 322 565Q268 565 246.5 548Q225 531 225 506Q225 481 246 466Q267 451 319 440L383 426Q448 412 490.5 390.5Q533 369 558 341Q583 313 593 280Q603 247 603 210Q603 159 584 117.5Q565 76 527.5 46.5Q490 17 434.5 1Q379 -15 305 -15Q262 -15 220 -8.5Q178 -2 140.5 14Q103 30 72 56Q41 82 20 121L143 217Q170 169 208 148Q246 127 304 127Q357 127 386.5 142.5Q416 158 416 188Q416 213 398.5 226.5Q381 240 332 251L263 267Q200 282 158 305.5Q116 329 91.5 358.5Q67 388 56.5 421.5Q46 455 46 489Q46 539 64 580.5Q82 622 116.5 652Q151 682 202.5 698.5Q254 715 321 715Q408 715 477.5 685.5Q547 656 588 582Z" glyph-name="Scircumflex" horiz-adv-x="641" unicode="&#348;" /><glyph d="M20 0ZM259 -354 226 -287Q259 -279 283 -260.5Q307 -242 315 -216Q271 -216 246 -195.5Q221 -175 221 -136Q221 -93 246 -71.5Q271 -50 319 -50Q366 -50 392.5 -77Q419 -104 419 -158Q419 -197 407.5 -230Q396 -263 375 -289Q354 -315 324.5 -331.5Q295 -348 259 -354ZM588 582 459 491Q433 528 402.5 546.5Q372 565 322 565Q268 565 246.5 548Q225 531 225 506Q225 481 246 466Q267 451 319 440L383 426Q448 412 490.5 390.5Q533 369 558 341Q583 313 593 280Q603 247 603 210Q603 159 584 117.5Q565 76 527.5 46.5Q490 17 434.5 1Q379 -15 305 -15Q262 -15 220 -8.5Q178 -2 140.5 14Q103 30 72 56Q41 82 20 121L143 217Q170 169 208 148Q246 127 304 127Q357 127 386.5 142.5Q416 158 416 188Q416 213 398.5 226.5Q381 240 332 251L263 267Q200 282 158 305.5Q116 329 91.5 358.5Q67 388 56.5 421.5Q46 455 46 489Q46 539 64 580.5Q82 622 116.5 652Q151 682 202.5 698.5Q254 715 321 715Q408 715 477.5 685.5Q547 656 588 582Z" glyph-name="Scommaaccent" horiz-adv-x="641" unicode="&#536;" /><glyph d="M15 700H630V530H423V0H222V530H15Z" glyph-name="T" horiz-adv-x="645" unicode="T" /><glyph d="M15 700H630V530H424V402H581V262H424V0H222V262H67V402H222V530H15Z" glyph-name="Tbar" horiz-adv-x="646" unicode="&#358;" /><glyph d="M15 0ZM328 858 385 910H525V907L401 769H245L121 907V910H269ZM15 700H630V530H423V0H222V530H15Z" glyph-name="Tcaron" horiz-adv-x="645" unicode="&#356;" /><glyph d="M15 0ZM263 -354 230 -287Q263 -279 287 -260.5Q311 -242 319 -216Q275 -216 250 -195.5Q225 -175 225 -136Q225 -93 250 -71.5Q275 -50 323 -50Q370 -50 396.5 -77Q423 -104 423 -158Q423 -197 411.5 -230Q400 -263 379 -289Q358 -315 328.5 -331.5Q299 -348 263 -354ZM15 700H630V530H423V0H222V530H15Z" glyph-name="Tcommaaccent" horiz-adv-x="645" unicode="&#354;" /><glyph d="M84 0V700H286V604H438Q499 604 544.5 585.5Q590 567 620.5 533Q651 499 666.5 452.5Q682 406 682 349Q682 289 662.5 242.5Q643 196 608 164.5Q573 133 523 116.5Q473 100 413 100H286V0ZM399 435H286V262H400Q439 262 461 285Q483 308 483 351Q483 367 478.5 382Q474 397 464 409Q454 421 438 428Q422 435 399 435Z" glyph-name="Thorn" horiz-adv-x="709" unicode="&#222;" /><glyph d="M512 279V700H713V290Q713 207 691 149Q669 91 628 54.5Q587 18 527.5 1.5Q468 -15 392 -15Q234 -15 151 56.5Q68 128 68 290V700H269V279Q269 216 300.5 183.5Q332 151 391 151Q450 151 481 183.5Q512 216 512 279Z" glyph-name="U" horiz-adv-x="781" unicode="U" /><glyph d="M68 0ZM586 903 450 769H303V774L387 910H586ZM512 279V700H713V290Q713 207 691 149Q669 91 628 54.5Q587 18 527.5 1.5Q468 -15 392 -15Q234 -15 151 56.5Q68 128 68 290V700H269V279Q269 216 300.5 183.5Q332 151 391 151Q450 151 481 183.5Q512 216 512 279Z" glyph-name="Uacute" horiz-adv-x="781" unicode="&#218;" /><glyph d="M68 0ZM512 279V700H713V290Q713 207 691 149Q669 91 628 54.5Q587 18 527.5 1.5Q468 -15 392 -15Q234 -15 151 56.5Q68 128 68 290V700H269V279Q269 216 300.5 183.5Q332 151 391 151Q450 151 481 183.5Q512 216 512 279ZM464 908H577Q577 866 564.5 837.5Q552 809 528 791.5Q504 774 469.5 767Q435 760 391 760Q347 760 312.5 767Q278 774 254.5 791.5Q231 809 218.5 837.5Q206 866 206 908H318Q318 873 335.5 861Q353 849 391 849Q429 849 446.5 861Q464 873 464 908Z" glyph-name="Ubreve" horiz-adv-x="781" unicode="&#364;" /><glyph d="M68 0ZM387 820 331 768H190V772L314 909H469L594 772V768H445ZM512 279V700H713V290Q713 207 691 149Q669 91 628 54.5Q587 18 527.5 1.5Q468 -15 392 -15Q234 -15 151 56.5Q68 128 68 290V700H269V279Q269 216 300.5 183.5Q332 151 391 151Q450 151 481 183.5Q512 216 512 279Z" glyph-name="Ucircumflex" horiz-adv-x="781" unicode="&#219;" /><glyph d="M68 0ZM411 847Q411 890 436 910Q461 930 507 930Q553 930 577.5 910Q602 890 602 847Q602 802 577.5 782.5Q553 763 507 763Q461 763 436 782.5Q411 802 411 847ZM182 847Q182 890 207 910Q232 930 277 930Q323 930 347.5 910Q372 890 372 847Q372 802 347.5 782.5Q323 763 277 763Q232 763 207 782.5Q182 802 182 847ZM512 279V700H713V290Q713 207 691 149Q669 91 628 54.5Q587 18 527.5 1.5Q468 -15 392 -15Q234 -15 151 56.5Q68 128 68 290V700H269V279Q269 216 300.5 183.5Q332 151 391 151Q450 151 481 183.5Q512 216 512 279Z" glyph-name="Udieresis" horiz-adv-x="781" unicode="&#220;" /><glyph d="M68 0ZM512 279V700H713V290Q713 207 691 149Q669 91 628 54.5Q587 18 527.5 1.5Q468 -15 392 -15Q234 -15 151 56.5Q68 128 68 290V700H269V279Q269 216 300.5 183.5Q332 151 391 151Q450 151 481 183.5Q512 216 512 279ZM329 769 193 903V910H399L480 774V769Z" glyph-name="Ugrave" horiz-adv-x="781" unicode="&#217;" /><glyph d="M68 0ZM512 279V700H713V290Q713 207 691 149Q669 91 628 54.5Q587 18 527.5 1.5Q468 -15 392 -15Q234 -15 151 56.5Q68 128 68 290V700H269V279Q269 216 300.5 183.5Q332 151 391 151Q450 151 481 183.5Q512 216 512 279ZM685 904 551 768H414V773L493 909H685ZM458 902 335 768H211V773L281 909H458Z" glyph-name="Uhungarumlaut" horiz-adv-x="781" unicode="&#368;" /><glyph d="M68 0ZM512 279V700H713V290Q713 207 691 149Q669 91 628 54.5Q587 18 527.5 1.5Q468 -15 392 -15Q234 -15 151 56.5Q68 128 68 290V700H269V279Q269 216 300.5 183.5Q332 151 391 151Q450 151 481 183.5Q512 216 512 279ZM544 883V782H238V883Z" glyph-name="Umacron" horiz-adv-x="781" unicode="&#362;" /><glyph d="M375 -98Q375 -74 381 -53Q387 -32 398 -15H389Q311 -15 251 2.5Q191 20 150.5 57Q110 94 89 151.5Q68 209 68 290V700H271V279Q271 216 302 184Q333 152 391 152Q450 152 480.5 184Q511 216 511 279V700H714V290Q714 229 702.5 182.5Q691 136 668.5 101.5Q646 67 613 43.5Q580 20 537 5Q506 -7 494 -28.5Q482 -50 482 -74Q482 -109 502 -122.5Q522 -136 547 -136Q584 -136 616 -118L642 -208Q597 -237 534 -237Q505 -237 476.5 -230Q448 -223 425.5 -207Q403 -191 389 -164Q375 -137 375 -98Z" glyph-name="Uogonek" horiz-adv-x="781" unicode="&#370;" /><glyph d="M68 0ZM267 857Q267 910 302 937.5Q337 965 391 965Q445 965 479.5 937.5Q514 910 514 857Q514 803 479 775.5Q444 748 390 748Q336 748 301.5 775.5Q267 803 267 857ZM347 857Q347 837 359 825.5Q371 814 390 814Q410 814 422 825.5Q434 837 434 857Q434 877 422 887.5Q410 898 391 898Q371 898 359 887.5Q347 877 347 857ZM512 279V700H713V290Q713 207 691 149Q669 91 628 54.5Q587 18 527.5 1.5Q468 -15 392 -15Q234 -15 151 56.5Q68 128 68 290V700H269V279Q269 216 300.5 183.5Q332 151 391 151Q450 151 481 183.5Q512 216 512 279Z" glyph-name="Uring" horiz-adv-x="781" unicode="&#366;" /><glyph d="M68 0ZM512 279V700H713V290Q713 207 691 149Q669 91 628 54.5Q587 18 527.5 1.5Q468 -15 392 -15Q234 -15 151 56.5Q68 128 68 290V700H269V279Q269 216 300.5 183.5Q332 151 391 151Q450 151 481 183.5Q512 216 512 279ZM476 906H585Q588 868 579 842.5Q570 817 554 801.5Q538 786 517 779.5Q496 773 476 773Q453 773 433.5 778Q414 783 396.5 788.5Q379 794 364 799Q349 804 334 804Q317 804 311.5 793.5Q306 783 306 772H197Q194 810 203 835.5Q212 861 228 876.5Q244 892 264.5 898.5Q285 905 306 905Q329 905 348.5 900Q368 895 385.5 889.5Q403 884 418 879Q433 874 448 874Q466 874 471 883.5Q476 893 476 906Z" glyph-name="Utilde" horiz-adv-x="781" unicode="&#360;" /><glyph d="M6 700H216L362 220L510 700H713L476 0H242Z" glyph-name="V" horiz-adv-x="719" unicode="V" /><glyph d="M415 699H587L693 272L794 700H992L796 0H598L497 419L394 0H201L6 700H211L308 276Z" glyph-name="W" horiz-adv-x="997" unicode="W" /><glyph d="M6 0ZM694 902 558 768H411V773L495 909H694ZM415 699H587L693 272L794 700H992L796 0H598L497 419L394 0H201L6 700H211L308 276Z" glyph-name="Wacute" horiz-adv-x="997" unicode="&#7810;" /><glyph d="M6 0ZM495 820 439 768H298V772L422 909H577L702 772V768H553ZM415 699H587L693 272L794 700H992L796 0H598L497 419L394 0H201L6 700H211L308 276Z" glyph-name="Wcircumflex" horiz-adv-x="997" unicode="&#372;" /><glyph d="M6 0ZM517 847Q517 890 542 910Q567 930 613 930Q659 930 683.5 910Q708 890 708 847Q708 802 683.5 782.5Q659 763 613 763Q567 763 542 782.5Q517 802 517 847ZM288 847Q288 890 313 910Q338 930 383 930Q429 930 453.5 910Q478 890 478 847Q478 802 453.5 782.5Q429 763 383 763Q338 763 313 782.5Q288 802 288 847ZM415 699H587L693 272L794 700H992L796 0H598L497 419L394 0H201L6 700H211L308 276Z" glyph-name="Wdieresis" horiz-adv-x="997" unicode="&#7812;" /><glyph d="M6 0ZM415 699H587L693 272L794 700H992L796 0H598L497 419L394 0H201L6 700H211L308 276ZM437 769 301 903V910H507L588 774V769Z" glyph-name="Wgrave" horiz-adv-x="997" unicode="&#7808;" /><glyph d="M482 0 352 214 224 0H7L241 352L19 700H256L375 482L492 700H709L482 357L720 0Z" glyph-name="X" horiz-adv-x="727" unicode="X" /><glyph d="M258 251 7 700H231L366 425L499 700H711L460 245V0H258Z" glyph-name="Y" horiz-adv-x="718" unicode="Y" /><glyph d="M7 0ZM258 251 7 700H231L366 425L499 700H711L460 245V0H258ZM554 903 418 769H271V774L355 910H554Z" glyph-name="Yacute" horiz-adv-x="718" unicode="&#221;" /><glyph d="M7 0ZM258 251 7 700H231L366 425L499 700H711L460 245V0H258ZM356 820 300 768H159V772L283 909H438L563 772V768H414Z" glyph-name="Ycircumflex" horiz-adv-x="718" unicode="&#374;" /><glyph d="M7 0ZM258 251 7 700H231L366 425L499 700H711L460 245V0H258ZM379 847Q379 890 404 910Q429 930 475 930Q521 930 545.5 910Q570 890 570 847Q570 802 545.5 782.5Q521 763 475 763Q429 763 404 782.5Q379 802 379 847ZM150 847Q150 890 175 910Q200 930 245 930Q291 930 315.5 910Q340 890 340 847Q340 802 315.5 782.5Q291 763 245 763Q200 763 175 782.5Q150 802 150 847Z" glyph-name="Ydieresis" horiz-adv-x="718" unicode="&#376;" /><glyph d="M21 0V120L353 543L33 539V700H600V582L270 157L609 161V0Z" glyph-name="Z" horiz-adv-x="634" unicode="Z" /><glyph d="M21 0ZM510 903 374 769H227V774L311 910H510ZM21 0V120L353 543L33 539V700H600V582L270 157L609 161V0Z" glyph-name="Zacute" horiz-adv-x="634" unicode="&#377;" /><glyph d="M21 0ZM321 858 378 910H518V907L394 769H238L114 907V910H262ZM21 0V120L353 543L33 539V700H600V582L270 157L609 161V0Z" glyph-name="Zcaron" horiz-adv-x="634" unicode="&#381;" /><glyph d="M21 0ZM21 0V120L353 543L33 539V700H600V582L270 157L609 161V0ZM214 847Q214 892 240.5 912Q267 932 315 932Q363 932 389 912Q415 892 415 847Q415 803 389 783Q363 763 315 763Q267 763 240.5 783Q214 803 214 847Z" glyph-name="Zdotaccent" horiz-adv-x="634" unicode="&#379;" /><glyph d="M264 101Q302 101 324 124.5Q346 148 346 192V205H283Q204 205 204 149Q204 126 219 113.5Q234 101 264 101ZM200 -14Q124 -14 78 23.5Q32 61 32 132Q32 175 49 207.5Q66 240 96.5 262Q127 284 168.5 294.5Q210 305 259 305H345Q342 347 316.5 361Q291 375 253 375Q204 375 169 361Q134 347 109 321L43 428Q82 472 143.5 494Q205 516 285 516Q338 516 384 505Q430 494 463.5 468.5Q497 443 516.5 401Q536 359 536 297V0H373L361 67Q337 29 297 7.5Q257 -14 200 -14Z" glyph-name="a" horiz-adv-x="589" unicode="a" /><glyph d="M394 250Q394 318 368.5 346.5Q343 375 304 375Q264 375 242 346Q220 317 220 249Q220 128 304 128Q344 128 369 157.5Q394 187 394 250ZM422 0 410 75Q384 30 342.5 7.5Q301 -15 247 -15Q151 -15 92.5 50Q34 115 34 243Q34 313 50 364.5Q66 416 95.5 450Q125 484 165.5 500Q206 516 255 516Q311 516 351.5 495.5Q392 475 415 433L429 502H584V0Z" glyph-name="a.school" horiz-adv-x="641" /><glyph d="M32 0ZM264 101Q302 101 324 124.5Q346 148 346 192V205H283Q204 205 204 149Q204 126 219 113.5Q234 101 264 101ZM200 -14Q124 -14 78 23.5Q32 61 32 132Q32 175 49 207.5Q66 240 96.5 262Q127 284 168.5 294.5Q210 305 259 305H345Q342 347 316.5 361Q291 375 253 375Q204 375 169 361Q134 347 109 321L43 428Q82 472 143.5 494Q205 516 285 516Q338 516 384 505Q430 494 463.5 468.5Q497 443 516.5 401Q536 359 536 297V0H373L361 67Q337 29 297 7.5Q257 -14 200 -14ZM479 704 343 570H196V575L280 711H479Z" glyph-name="aacute" horiz-adv-x="589" unicode="&#225;" /><glyph d="M34 0ZM394 250Q394 318 368.5 346.5Q343 375 304 375Q264 375 242 346Q220 317 220 249Q220 128 304 128Q344 128 369 157.5Q394 187 394 250ZM422 0 410 75Q384 30 342.5 7.5Q301 -15 247 -15Q151 -15 92.5 50Q34 115 34 243Q34 313 50 364.5Q66 416 95.5 450Q125 484 165.5 500Q206 516 255 516Q311 516 351.5 495.5Q392 475 415 433L429 502H584V0ZM495 704 359 570H212V575L296 711H495Z" glyph-name="aacute.school" horiz-adv-x="641" /><glyph d="M32 0ZM264 101Q302 101 324 124.5Q346 148 346 192V205H283Q204 205 204 149Q204 126 219 113.5Q234 101 264 101ZM200 -14Q124 -14 78 23.5Q32 61 32 132Q32 175 49 207.5Q66 240 96.5 262Q127 284 168.5 294.5Q210 305 259 305H345Q342 347 316.5 361Q291 375 253 375Q204 375 169 361Q134 347 109 321L43 428Q82 472 143.5 494Q205 516 285 516Q338 516 384 505Q430 494 463.5 468.5Q497 443 516.5 401Q536 359 536 297V0H373L361 67Q337 29 297 7.5Q257 -14 200 -14ZM357 710H470Q470 668 457.5 639.5Q445 611 421 593.5Q397 576 362.5 569Q328 562 284 562Q240 562 205.5 569Q171 576 147.5 593.5Q124 611 111.5 639.5Q99 668 99 710H211Q211 675 228.5 663Q246 651 284 651Q322 651 339.5 663Q357 675 357 710Z" glyph-name="abreve" horiz-adv-x="589" unicode="&#259;" /><glyph d="M34 0ZM394 250Q394 318 368.5 346.5Q343 375 304 375Q264 375 242 346Q220 317 220 249Q220 128 304 128Q344 128 369 157.5Q394 187 394 250ZM422 0 410 75Q384 30 342.5 7.5Q301 -15 247 -15Q151 -15 92.5 50Q34 115 34 243Q34 313 50 364.5Q66 416 95.5 450Q125 484 165.5 500Q206 516 255 516Q311 516 351.5 495.5Q392 475 415 433L429 502H584V0ZM373 710H486Q486 668 473.5 639.5Q461 611 437 593.5Q413 576 378.5 569Q344 562 300 562Q256 562 221.5 569Q187 576 163.5 593.5Q140 611 127.5 639.5Q115 668 115 710H227Q227 675 244.5 663Q262 651 300 651Q338 651 355.5 663Q373 675 373 710Z" glyph-name="abreve.school" horiz-adv-x="641" /><glyph d="M32 0ZM264 101Q302 101 324 124.5Q346 148 346 192V205H283Q204 205 204 149Q204 126 219 113.5Q234 101 264 101ZM200 -14Q124 -14 78 23.5Q32 61 32 132Q32 175 49 207.5Q66 240 96.5 262Q127 284 168.5 294.5Q210 305 259 305H345Q342 347 316.5 361Q291 375 253 375Q204 375 169 361Q134 347 109 321L43 428Q82 472 143.5 494Q205 516 285 516Q338 516 384 505Q430 494 463.5 468.5Q497 443 516.5 401Q536 359 536 297V0H373L361 67Q337 29 297 7.5Q257 -14 200 -14ZM281 622 225 570H84V574L208 711H363L488 574V570H339Z" glyph-name="acircumflex" horiz-adv-x="589" unicode="&#226;" /><glyph d="M34 0ZM296 622 240 570H99V574L223 711H378L503 574V570H354ZM394 250Q394 318 368.5 346.5Q343 375 304 375Q264 375 242 346Q220 317 220 249Q220 128 304 128Q344 128 369 157.5Q394 187 394 250ZM422 0 410 75Q384 30 342.5 7.5Q301 -15 247 -15Q151 -15 92.5 50Q34 115 34 243Q34 313 50 364.5Q66 416 95.5 450Q125 484 165.5 500Q206 516 255 516Q311 516 351.5 495.5Q392 475 415 433L429 502H584V0Z" glyph-name="acircumflex.school" horiz-adv-x="641" /><glyph d="M484 704 348 570H201V575L285 711H484Z" glyph-name="acute" horiz-adv-x="600" unicode="&#180;" /><glyph d="M32 0ZM264 101Q302 101 324 124.5Q346 148 346 192V205H283Q204 205 204 149Q204 126 219 113.5Q234 101 264 101ZM200 -14Q124 -14 78 23.5Q32 61 32 132Q32 175 49 207.5Q66 240 96.5 262Q127 284 168.5 294.5Q210 305 259 305H345Q342 347 316.5 361Q291 375 253 375Q204 375 169 361Q134 347 109 321L43 428Q82 472 143.5 494Q205 516 285 516Q338 516 384 505Q430 494 463.5 468.5Q497 443 516.5 401Q536 359 536 297V0H373L361 67Q337 29 297 7.5Q257 -14 200 -14ZM304 649Q304 692 329 712Q354 732 400 732Q446 732 470.5 712Q495 692 495 649Q495 604 470.5 584.5Q446 565 400 565Q354 565 329 584.5Q304 604 304 649ZM75 649Q75 692 100 712Q125 732 170 732Q216 732 240.5 712Q265 692 265 649Q265 604 240.5 584.5Q216 565 170 565Q125 565 100 584.5Q75 604 75 649Z" glyph-name="adieresis" horiz-adv-x="589" unicode="&#228;" /><glyph d="M34 0ZM319 649Q319 692 344 712Q369 732 415 732Q461 732 485.5 712Q510 692 510 649Q510 604 485.5 584.5Q461 565 415 565Q369 565 344 584.5Q319 604 319 649ZM90 649Q90 692 115 712Q140 732 185 732Q231 732 255.5 712Q280 692 280 649Q280 604 255.5 584.5Q231 565 185 565Q140 565 115 584.5Q90 604 90 649ZM394 250Q394 318 368.5 346.5Q343 375 304 375Q264 375 242 346Q220 317 220 249Q220 128 304 128Q344 128 369 157.5Q394 187 394 250ZM422 0 410 75Q384 30 342.5 7.5Q301 -15 247 -15Q151 -15 92.5 50Q34 115 34 243Q34 313 50 364.5Q66 416 95.5 450Q125 484 165.5 500Q206 516 255 516Q311 516 351.5 495.5Q392 475 415 433L429 502H584V0Z" glyph-name="adieresis.school" horiz-adv-x="641" /><glyph d="M217 -14Q133 -14 82.5 23.5Q32 61 32 132Q32 175 49 207.5Q66 240 96.5 261.5Q127 283 168.5 293.5Q210 304 259 304H345Q342 348 316.5 361.5Q291 375 253 375Q208 375 171 361.5Q134 348 109 321L43 428Q82 472 143 494Q204 516 282 516Q333 516 375 502Q417 488 446 455Q478 484 521.5 500Q565 516 621 516Q686 516 732.5 496Q779 476 808.5 441Q838 406 852 359.5Q866 313 866 260Q866 244 865 231Q864 218 862 203H536Q541 157 568 135Q595 113 642 113Q678 113 702.5 125Q727 137 743 165L855 94Q791 -15 623 -15Q557 -15 505.5 5.5Q454 26 420 69Q390 30 339 8Q288 -14 217 -14ZM619 384Q585 384 563 364.5Q541 345 536 304H691Q685 384 619 384ZM264 101Q302 101 324 125Q346 149 346 193V203H283Q204 203 204 147Q204 101 264 101Z" glyph-name="ae" horiz-adv-x="901" unicode="&#230;" /><glyph d="M32 0ZM264 101Q302 101 324 124.5Q346 148 346 192V205H283Q204 205 204 149Q204 126 219 113.5Q234 101 264 101ZM200 -14Q124 -14 78 23.5Q32 61 32 132Q32 175 49 207.5Q66 240 96.5 262Q127 284 168.5 294.5Q210 305 259 305H345Q342 347 316.5 361Q291 375 253 375Q204 375 169 361Q134 347 109 321L43 428Q82 472 143.5 494Q205 516 285 516Q338 516 384 505Q430 494 463.5 468.5Q497 443 516.5 401Q536 359 536 297V0H373L361 67Q337 29 297 7.5Q257 -14 200 -14ZM223 570 87 704V711H293L374 575V570Z" glyph-name="agrave" horiz-adv-x="589" unicode="&#224;" /><glyph d="M34 0ZM394 250Q394 318 368.5 346.5Q343 375 304 375Q264 375 242 346Q220 317 220 249Q220 128 304 128Q344 128 369 157.5Q394 187 394 250ZM422 0 410 75Q384 30 342.5 7.5Q301 -15 247 -15Q151 -15 92.5 50Q34 115 34 243Q34 313 50 364.5Q66 416 95.5 450Q125 484 165.5 500Q206 516 255 516Q311 516 351.5 495.5Q392 475 415 433L429 502H584V0ZM238 570 102 704V711H308L389 575V570Z" glyph-name="agrave.school" horiz-adv-x="641" /><glyph d="M32 0ZM264 101Q302 101 324 124.5Q346 148 346 192V205H283Q204 205 204 149Q204 126 219 113.5Q234 101 264 101ZM200 -14Q124 -14 78 23.5Q32 61 32 132Q32 175 49 207.5Q66 240 96.5 262Q127 284 168.5 294.5Q210 305 259 305H345Q342 347 316.5 361Q291 375 253 375Q204 375 169 361Q134 347 109 321L43 428Q82 472 143.5 494Q205 516 285 516Q338 516 384 505Q430 494 463.5 468.5Q497 443 516.5 401Q536 359 536 297V0H373L361 67Q337 29 297 7.5Q257 -14 200 -14ZM438 685V584H132V685Z" glyph-name="amacron" horiz-adv-x="589" unicode="&#257;" /><glyph d="M34 0ZM394 250Q394 318 368.5 346.5Q343 375 304 375Q264 375 242 346Q220 317 220 249Q220 128 304 128Q344 128 369 157.5Q394 187 394 250ZM422 0 410 75Q384 30 342.5 7.5Q301 -15 247 -15Q151 -15 92.5 50Q34 115 34 243Q34 313 50 364.5Q66 416 95.5 450Q125 484 165.5 500Q206 516 255 516Q311 516 351.5 495.5Q392 475 415 433L429 502H584V0ZM453 685V584H147V685Z" glyph-name="amacron.school" horiz-adv-x="641" /><glyph d="M563 487H717Q717 388 697.5 305Q678 222 639 159Q659 145 680.5 131.5Q702 118 726 104L642 -23Q636 -19 619.5 -9Q603 1 584 12.5Q565 24 549 34.5Q533 45 528 48Q433 -15 292 -15Q233 -15 184.5 -3.5Q136 8 101 31.5Q66 55 47 91Q28 127 28 177Q28 213 37.5 241.5Q47 270 63.5 293.5Q80 317 102 336Q124 355 149 372Q114 421 100 460.5Q86 500 86 532Q86 620 141 667.5Q196 715 305 715Q406 715 455 675Q504 635 504 560Q504 493 470.5 444Q437 395 370 350Q396 326 430.5 298.5Q465 271 510 240Q536 287 550 349Q564 411 563 487ZM237 531Q237 515 244.5 493.5Q252 472 274 443Q318 470 337 491Q356 512 356 540Q356 590 299 590Q237 590 237 531ZM302 114Q354 114 395 140Q345 177 306 209.5Q267 242 237 272Q216 257 203 239Q190 221 190 195Q190 160 217.5 137Q245 114 302 114Z" glyph-name="ampersand" horiz-adv-x="740" unicode="&amp;" /><glyph d="M587 -209Q540 -238 479 -238Q450 -238 421.5 -231Q393 -224 370.5 -208.5Q348 -193 334 -167Q320 -141 320 -102Q320 -66 334 -37.5Q348 -9 371 11L361 67Q337 29 297 7.5Q257 -14 200 -14Q124 -14 78 23.5Q32 61 32 132Q32 175 49 207.5Q66 240 96.5 262Q127 284 168.5 294.5Q210 305 259 305H345Q342 347 316.5 361Q291 375 253 375Q204 375 169 361Q134 347 109 321L43 428Q82 472 143.5 494Q205 516 285 516Q338 516 384 505Q430 494 463.5 468.5Q497 443 516.5 401Q536 359 536 297V0H515Q467 -4 447 -29Q427 -54 427 -85Q427 -114 447 -125Q467 -136 493 -136Q510 -136 527.5 -132Q545 -128 561 -119ZM264 101Q302 101 324 124.5Q346 148 346 192V205H283Q204 205 204 149Q204 126 219 113.5Q234 101 264 101Z" glyph-name="aogonek" horiz-adv-x="589" unicode="&#261;" /><glyph d="M423 6 411 74Q385 30 343 7.5Q301 -15 247 -15Q151 -15 92.5 50Q34 115 34 243Q34 313 50 364.5Q66 416 95.5 450Q125 484 165.5 500Q206 516 255 516Q311 516 351.5 495.5Q392 475 415 433L429 502H584V0Q525 -4 502.5 -29Q480 -54 480 -85Q480 -114 500 -125Q520 -136 546 -136Q563 -136 580.5 -132Q598 -128 614 -119L640 -209Q593 -238 532 -238Q503 -238 474.5 -231Q446 -224 423.5 -208.5Q401 -193 387 -167Q373 -141 373 -102Q373 -67 387 -40Q401 -13 423 6ZM394 250Q394 318 369 346.5Q344 375 304 375Q264 375 242 346Q220 317 220 249Q220 128 304 128Q345 128 369.5 157.5Q394 187 394 250Z" glyph-name="aogonek.school" horiz-adv-x="641" /><glyph d="M351 415Q371 415 403.5 421Q436 427 462 444V340Q439 327 405.5 320.5Q372 314 343 314Q316 314 293.5 319.5Q271 325 250.5 331Q230 337 209 342.5Q188 348 163 348Q142 348 110 342.5Q78 337 50 320V424Q73 437 105 443Q137 449 166 449Q194 449 217 443.5Q240 438 261 432Q282 426 303.5 420.5Q325 415 351 415ZM351 262Q371 262 403.5 268Q436 274 462 291V188Q439 175 405.5 168.5Q372 162 343 162Q316 162 293.5 167.5Q271 173 250.5 179Q230 185 209 190.5Q188 196 163 196Q142 196 110 190.5Q78 185 50 168V271Q73 284 105 290Q137 296 166 296Q194 296 217 290.5Q240 285 261 279Q282 273 303.5 267.5Q325 262 351 262Z" glyph-name="approxequal" horiz-adv-x="512" unicode="&#8776;" /><glyph d="M32 0ZM264 101Q302 101 324 124.5Q346 148 346 192V205H283Q204 205 204 149Q204 126 219 113.5Q234 101 264 101ZM200 -14Q124 -14 78 23.5Q32 61 32 132Q32 175 49 207.5Q66 240 96.5 262Q127 284 168.5 294.5Q210 305 259 305H345Q342 347 316.5 361Q291 375 253 375Q204 375 169 361Q134 347 109 321L43 428Q82 472 143.5 494Q205 516 285 516Q338 516 384 505Q430 494 463.5 468.5Q497 443 516.5 401Q536 359 536 297V0H373L361 67Q337 29 297 7.5Q257 -14 200 -14ZM160 659Q160 712 195 739.5Q230 767 284 767Q338 767 372.5 739.5Q407 712 407 659Q407 605 372 577.5Q337 550 283 550Q229 550 194.5 577.5Q160 605 160 659ZM240 659Q240 639 252 627.5Q264 616 283 616Q303 616 315 627.5Q327 639 327 659Q327 679 315 689.5Q303 700 284 700Q264 700 252 689.5Q240 679 240 659Z" glyph-name="aring" horiz-adv-x="589" unicode="&#229;" /><glyph d="M34 0ZM394 250Q394 318 368.5 346.5Q343 375 304 375Q264 375 242 346Q220 317 220 249Q220 128 304 128Q344 128 369 157.5Q394 187 394 250ZM422 0 410 75Q384 30 342.5 7.5Q301 -15 247 -15Q151 -15 92.5 50Q34 115 34 243Q34 313 50 364.5Q66 416 95.5 450Q125 484 165.5 500Q206 516 255 516Q311 516 351.5 495.5Q392 475 415 433L429 502H584V0ZM176 659Q176 712 211 739.5Q246 767 300 767Q354 767 388.5 739.5Q423 712 423 659Q423 605 388 577.5Q353 550 299 550Q245 550 210.5 577.5Q176 605 176 659ZM256 659Q256 639 268 627.5Q280 616 299 616Q319 616 331 627.5Q343 639 343 659Q343 679 331 689.5Q319 700 300 700Q280 700 268 689.5Q256 679 256 659Z" glyph-name="aring.school" horiz-adv-x="641" /><glyph d="M172 700H348L495 361V357H339L256 568L174 357H25V361Z" glyph-name="asciicircum" horiz-adv-x="520" unicode="^" /><glyph d="M422 430 551 409Q545 324 501 281.5Q457 239 391 239Q362 239 336 247Q310 255 286.5 264Q263 273 241.5 281Q220 289 199 289Q180 289 168 278Q156 267 154 239L25 260Q31 345 75 387.5Q119 430 186 430Q215 430 240.5 422Q266 414 289.5 405Q313 396 334.5 388Q356 380 377 380Q397 380 408.5 391Q420 402 422 430Z" glyph-name="asciitilde" horiz-adv-x="576" unicode="~" /><glyph d="M161 313 50 402 113 479 23 504 59 635 154 604 147 715H300L294 604L390 635L426 502L336 479L399 402L287 313L224 402Z" glyph-name="asterisk" horiz-adv-x="451" unicode="*" /><glyph d="M684 -7Q639 -55 571 -81.5Q503 -108 415 -108Q331 -108 265 -83Q199 -58 153.5 -12Q108 34 84 98.5Q60 163 60 242Q60 321 84 385.5Q108 450 153.5 495.5Q199 541 265 566Q331 591 415 591Q497 591 560 567Q623 543 666 499.5Q709 456 731 395Q753 334 753 259Q753 169 706.5 121.5Q660 74 577 74Q496 74 471 125Q454 98 424.5 82.5Q395 67 355 67Q302 67 269.5 93.5Q237 120 237 168Q237 198 248.5 220Q260 242 280.5 256Q301 270 329 277Q357 284 390 284H449Q447 313 428 322Q409 331 381 331Q351 331 327 322Q303 313 287 295L243 367Q269 397 310 412.5Q351 428 403 428Q439 428 470.5 420Q502 412 525 394.5Q548 377 561 348.5Q574 320 574 278V190Q574 164 583.5 151.5Q593 139 616 139Q650 139 671.5 168Q693 197 693 259Q693 329 672.5 381.5Q652 434 615 468Q578 502 527 519Q476 536 415 536Q350 536 296 518Q242 500 203 463.5Q164 427 142.5 371.5Q121 316 121 242Q121 167 142.5 112Q164 57 203 21Q242 -15 296 -33Q350 -51 415 -51Q486 -51 544.5 -30Q603 -9 643 35ZM389 145Q417 145 432.5 162Q448 179 449 208V215H400Q374 215 361.5 207Q349 199 349 179Q349 145 389 145Z" glyph-name="at" horiz-adv-x="814" unicode="@" /><glyph d="M60 0ZM684 101Q639 53 571 26.5Q503 0 415 0Q331 0 265 25Q199 50 153.5 96Q108 142 84 206.5Q60 271 60 350Q60 429 84 493.5Q108 558 153.5 603.5Q199 649 265 674Q331 699 415 699Q497 699 560 675Q623 651 666 607.5Q709 564 731 503Q753 442 753 367Q753 277 706.5 229.5Q660 182 577 182Q496 182 471 233Q454 206 424.5 190.5Q395 175 355 175Q302 175 269.5 201.5Q237 228 237 276Q237 306 248.5 328Q260 350 280.5 364Q301 378 329 385Q357 392 390 392H449Q447 421 428 430Q409 439 381 439Q351 439 327 430Q303 421 287 403L243 475Q269 505 310 520.5Q351 536 403 536Q439 536 470.5 528Q502 520 525 502.5Q548 485 561 456.5Q574 428 574 386V298Q574 272 583.5 259.5Q593 247 616 247Q650 247 671.5 276Q693 305 693 367Q693 437 672.5 489.5Q652 542 615 576Q578 610 527 627Q476 644 415 644Q350 644 296 626Q242 608 203 571.5Q164 535 142.5 479.5Q121 424 121 350Q121 275 142.5 220Q164 165 203 129Q242 93 296 75Q350 57 415 57Q486 57 544.5 78Q603 99 643 143ZM389 253Q417 253 432.5 270Q448 287 449 316V323H400Q374 323 361.5 315Q349 307 349 287Q349 253 389 253Z" glyph-name="at.cap" horiz-adv-x="814" /><glyph d="M32 0ZM264 101Q302 101 324 124.5Q346 148 346 192V205H283Q204 205 204 149Q204 126 219 113.5Q234 101 264 101ZM200 -14Q124 -14 78 23.5Q32 61 32 132Q32 175 49 207.5Q66 240 96.5 262Q127 284 168.5 294.5Q210 305 259 305H345Q342 347 316.5 361Q291 375 253 375Q204 375 169 361Q134 347 109 321L43 428Q82 472 143.5 494Q205 516 285 516Q338 516 384 505Q430 494 463.5 468.5Q497 443 516.5 401Q536 359 536 297V0H373L361 67Q337 29 297 7.5Q257 -14 200 -14ZM369 708H478Q481 670 472 644.5Q463 619 447 603.5Q431 588 410 581.5Q389 575 369 575Q346 575 326.5 580Q307 585 289.5 590.5Q272 596 257 601Q242 606 227 606Q210 606 204.5 595.5Q199 585 199 574H90Q87 612 96 637.5Q105 663 121 678.5Q137 694 157.5 700.5Q178 707 199 707Q222 707 241.5 702Q261 697 278.5 691.5Q296 686 311 681Q326 676 341 676Q359 676 364 685.5Q369 695 369 708Z" glyph-name="atilde" horiz-adv-x="589" unicode="&#227;" /><glyph d="M34 0ZM394 250Q394 318 368.5 346.5Q343 375 304 375Q264 375 242 346Q220 317 220 249Q220 128 304 128Q344 128 369 157.5Q394 187 394 250ZM422 0 410 75Q384 30 342.5 7.5Q301 -15 247 -15Q151 -15 92.5 50Q34 115 34 243Q34 313 50 364.5Q66 416 95.5 450Q125 484 165.5 500Q206 516 255 516Q311 516 351.5 495.5Q392 475 415 433L429 502H584V0ZM385 708H494Q497 670 488 644.5Q479 619 463 603.5Q447 588 426 581.5Q405 575 385 575Q362 575 342.5 580Q323 585 305.5 590.5Q288 596 273 601Q258 606 243 606Q226 606 220.5 595.5Q215 585 215 574H106Q103 612 112 637.5Q121 663 137 678.5Q153 694 173.5 700.5Q194 707 215 707Q238 707 257.5 702Q277 697 294.5 691.5Q312 686 327 681Q342 676 357 676Q375 676 380 685.5Q385 695 385 708Z" glyph-name="atilde.school" horiz-adv-x="641" /><glyph d="M251 700V437Q279 479 319.5 497.5Q360 516 408 516Q500 516 554 452.5Q608 389 608 261Q608 199 594 148Q580 97 551.5 61Q523 25 480.5 5Q438 -15 382 -15Q325 -15 281.5 6Q238 27 212 66L202 0H57V700ZM247 247Q247 184 270.5 154.5Q294 125 335 125Q423 125 423 248Q423 316 399.5 344.5Q376 373 336 373Q295 373 271 344Q247 315 247 247Z" glyph-name="b" horiz-adv-x="642" unicode="b" /><glyph d="M369 0 2 700H214L581 0Z" glyph-name="backslash" horiz-adv-x="586" unicode="\" /><glyph d="M75 -65V766H250V-65Z" glyph-name="bar" horiz-adv-x="324" unicode="|" /><glyph d="M352 -166Q304 -165 262.5 -153.5Q221 -142 190.5 -121Q160 -100 142.5 -69Q125 -38 125 3Q125 38 128.5 68Q132 98 132 130Q132 174 104.5 193Q77 212 24 212H3V350H24Q77 350 104.5 369.5Q132 389 132 432Q132 464 128.5 494Q125 524 125 559Q125 599 142.5 630.5Q160 662 190.5 683Q221 704 262.5 715.5Q304 727 352 728L375 576Q330 577 307 556Q284 535 284 494Q284 468 287.5 443.5Q291 419 291 391Q291 355 269.5 327.5Q248 300 209 281Q248 261 269.5 233.5Q291 206 291 171Q291 144 287.5 119Q284 94 284 68Q284 27 307 6Q330 -15 375 -14Z" glyph-name="braceleft" horiz-adv-x="396" unicode="{" /><glyph d="M20 -14Q65 -15 88 6Q111 27 111 68Q111 94 107.5 119Q104 144 104 171Q104 206 125.5 233.5Q147 261 186 281Q147 300 125.5 327.5Q104 355 104 391Q104 419 107.5 443.5Q111 468 111 494Q111 535 88 556Q65 577 20 576L43 728Q91 727 132.5 715.5Q174 704 204.5 683Q235 662 252.5 630.5Q270 599 270 559Q270 524 266.5 494Q263 464 263 432Q263 389 290.5 369.5Q318 350 371 350H392V212H371Q318 212 290.5 193Q263 174 263 130Q263 98 266.5 68Q270 38 270 3Q270 -38 252.5 -69Q235 -100 204.5 -121Q174 -142 132.5 -153.5Q91 -165 43 -166Z" glyph-name="braceright" horiz-adv-x="396" unicode="}" /><glyph d="M60 -174V717H346V578H234V-35H347V-174Z" glyph-name="bracketleft" horiz-adv-x="367" unicode="[" /><glyph d="M20 -174V-35H133V578H21V717H307V-174Z" glyph-name="bracketright" horiz-adv-x="367" unicode="]" /><glyph d="M373 710H486Q486 668 473.5 639.5Q461 611 437 593.5Q413 576 378.5 569Q344 562 300 562Q256 562 221.5 569Q187 576 163.5 593.5Q140 611 127.5 639.5Q115 668 115 710H227Q227 675 244.5 663Q262 651 300 651Q338 651 355.5 663Q373 675 373 710Z" glyph-name="breve" horiz-adv-x="600" unicode="&#728;" /><glyph d="M75 381V766H250V381ZM75 -65V320H250V-65Z" glyph-name="brokenbar" horiz-adv-x="324" unicode="&#166;" /><glyph d="M44 327Q44 404 89.5 450Q135 496 216 496Q297 496 342 450Q387 404 387 327Q387 249 342 203.5Q297 158 216 158Q135 158 89.5 203.5Q44 249 44 327Z" glyph-name="bullet" horiz-adv-x="431" unicode="&#8226;" /><glyph d="M297 -15Q237 -15 188.5 0Q140 15 105.5 47Q71 79 52.5 129Q34 179 34 250Q34 389 106 452.5Q178 516 306 516Q386 516 440.5 490Q495 464 528 405L396 309Q381 341 360 352.5Q339 364 310 364Q266 364 242.5 340Q219 316 219 249Q219 192 238.5 160Q258 128 308 128Q380 128 402 186L533 111Q501 50 444 17.5Q387 -15 297 -15Z" glyph-name="c" horiz-adv-x="546" unicode="c" /><glyph d="M34 0ZM499 704 363 570H216V575L300 711H499ZM297 -15Q237 -15 188.5 0Q140 15 105.5 47Q71 79 52.5 129Q34 179 34 250Q34 389 106 452.5Q178 516 306 516Q386 516 440.5 490Q495 464 528 405L396 309Q381 341 360 352.5Q339 364 310 364Q266 364 242.5 340Q219 316 219 249Q219 192 238.5 160Q258 128 308 128Q380 128 402 186L533 111Q501 50 444 17.5Q387 -15 297 -15Z" glyph-name="cacute" horiz-adv-x="546" unicode="&#263;" /><glyph d="M305 659 362 711H502V708L378 570H222L98 708V711H246Z" glyph-name="caron" horiz-adv-x="600" unicode="&#711;" /><glyph d="M382 421H259L266 700H416Z" glyph-name="caronSlovak" horiz-adv-x="600" /><glyph d="M34 0ZM311 659 368 711H508V708L384 570H228L104 708V711H252ZM297 -15Q237 -15 188.5 0Q140 15 105.5 47Q71 79 52.5 129Q34 179 34 250Q34 389 106 452.5Q178 516 306 516Q386 516 440.5 490Q495 464 528 405L396 309Q381 341 360 352.5Q339 364 310 364Q266 364 242.5 340Q219 316 219 249Q219 192 238.5 160Q258 128 308 128Q380 128 402 186L533 111Q501 50 444 17.5Q387 -15 297 -15Z" glyph-name="ccaron" horiz-adv-x="546" unicode="&#269;" /><glyph d="M295 -258Q247 -258 206 -240Q165 -222 142 -184L202 -122Q218 -145 238.5 -157.5Q259 -170 288 -170Q308 -170 321.5 -162Q335 -154 335 -135Q335 -121 321.5 -111Q308 -101 283 -101Q277 -101 271.5 -102Q266 -103 260 -104L233 -89L260 -14Q208 -10 166.5 7.5Q125 25 95.5 57.5Q66 90 50 137.5Q34 185 34 250Q34 389 106 452.5Q178 516 306 516Q386 516 440.5 490Q495 464 528 405L396 309Q381 341 360 352.5Q339 364 310 364Q266 364 242.5 340Q219 316 219 249Q219 192 238.5 160Q258 128 308 128Q380 128 402 186L533 111Q506 60 461.5 28.5Q417 -3 350 -12L336 -45H337Q358 -47 377.5 -53.5Q397 -60 412.5 -72Q428 -84 437 -101.5Q446 -119 446 -141Q446 -171 434 -193Q422 -215 401 -229.5Q380 -244 352.5 -251Q325 -258 295 -258Z" glyph-name="ccedilla" horiz-adv-x="546" unicode="&#231;" /><glyph d="M34 0ZM304 622 248 570H107V574L231 711H386L511 574V570H362ZM297 -15Q237 -15 188.5 0Q140 15 105.5 47Q71 79 52.5 129Q34 179 34 250Q34 389 106 452.5Q178 516 306 516Q386 516 440.5 490Q495 464 528 405L396 309Q381 341 360 352.5Q339 364 310 364Q266 364 242.5 340Q219 316 219 249Q219 192 238.5 160Q258 128 308 128Q380 128 402 186L533 111Q501 50 444 17.5Q387 -15 297 -15Z" glyph-name="ccircumflex" horiz-adv-x="546" unicode="&#265;" /><glyph d="M34 0ZM297 -15Q237 -15 188.5 0Q140 15 105.5 47Q71 79 52.5 129Q34 179 34 250Q34 389 106 452.5Q178 516 306 516Q386 516 440.5 490Q495 464 528 405L396 309Q381 341 360 352.5Q339 364 310 364Q266 364 242.5 340Q219 316 219 249Q219 192 238.5 160Q258 128 308 128Q380 128 402 186L533 111Q501 50 444 17.5Q387 -15 297 -15ZM207 649Q207 694 233.5 714Q260 734 308 734Q356 734 382 714Q408 694 408 649Q408 605 382 585Q356 565 308 565Q260 565 233.5 585Q207 605 207 649Z" glyph-name="cdotaccent" horiz-adv-x="546" unicode="&#267;" /><glyph d="M292 0H382L363 -45H364Q385 -47 404.5 -53.5Q424 -60 439.5 -72Q455 -84 464 -101.5Q473 -119 473 -141Q473 -171 461 -193Q449 -215 428 -229.5Q407 -244 379.5 -251Q352 -258 322 -258Q274 -258 233 -240Q192 -222 169 -184L229 -122Q245 -145 265.5 -157.5Q286 -170 315 -170Q335 -170 348.5 -162Q362 -154 362 -135Q362 -121 348.5 -111Q335 -101 310 -101Q304 -101 298.5 -102Q293 -103 287 -104L260 -89Z" glyph-name="cedilla" horiz-adv-x="600" unicode="&#184;" /><glyph d="M263 -62V3Q157 11 99.5 72Q42 133 42 257Q42 380 98 442Q154 504 263 514V580H347V514Q470 501 521 403L405 324Q383 362 347 371V142Q390 152 408 194L528 130Q502 75 455.5 43.5Q409 12 347 4V-62ZM207 255Q207 207 220.5 180Q234 153 263 144V369Q233 360 220 333Q207 306 207 255Z" glyph-name="cent" horiz-adv-x="551" unicode="&#162;" /><glyph d="M299 622 243 570H102V574L226 711H381L506 574V570H357Z" glyph-name="circumflex" horiz-adv-x="600" unicode="&#710;" /><glyph d="M33 0ZM33 86Q33 134 59.5 157.5Q86 181 135 181Q184 181 210.5 157.5Q237 134 237 86Q237 40 210.5 16Q184 -8 135 -8Q86 -8 59.5 15.5Q33 39 33 86ZM33 408Q33 456 59.5 479.5Q86 503 135 503Q184 503 210.5 479.5Q237 456 237 408Q237 362 210.5 338Q184 314 135 314Q86 314 59.5 337.5Q33 361 33 408Z" glyph-name="colon" horiz-adv-x="270" unicode=":" /><glyph d="M73 -160 34 -82Q65 -73 87.5 -54.5Q110 -36 121 -6Q76 -3 54 21Q32 45 32 86Q32 134 59 157.5Q86 181 135 181Q184 181 212 153.5Q240 126 240 66Q240 -25 197 -82.5Q154 -140 73 -160Z" glyph-name="comma" horiz-adv-x="270" unicode="," /><glyph d="M241 -354 208 -287Q241 -279 265 -260.5Q289 -242 297 -216Q253 -216 228 -195.5Q203 -175 203 -136Q203 -93 228 -71.5Q253 -50 301 -50Q348 -50 374.5 -77Q401 -104 401 -158Q401 -197 389.5 -230Q378 -263 357 -289Q336 -315 306.5 -331.5Q277 -348 241 -354Z" glyph-name="commaaccent" horiz-adv-x="600" unicode="&#63171;" /><glyph d="M61 350Q61 429 85 493Q109 557 154 603Q199 649 265 674Q331 699 415 699Q499 699 564.5 674Q630 649 675.5 603Q721 557 745 493Q769 429 769 350Q769 271 745 206.5Q721 142 675.5 96Q630 50 564.5 25Q499 0 415 0Q331 0 265 25Q199 50 154 96Q109 142 85 206.5Q61 271 61 350ZM122 350Q122 275 143.5 220Q165 165 204 129Q243 93 297 75Q351 57 415 57Q479 57 533 75Q587 93 626 129Q665 165 686.5 220Q708 275 708 350Q708 425 686.5 480Q665 535 626 571.5Q587 608 533 626Q479 644 415 644Q351 644 297 626Q243 608 204 571.5Q165 535 143.5 480Q122 425 122 350ZM422 155Q327 155 275.5 202.5Q224 250 224 354Q224 459 275 508Q326 557 426 557Q487 557 527 536Q567 515 590 474L494 404Q483 429 466.5 438.5Q450 448 427 448Q388 448 370.5 426Q353 404 353 353Q353 303 371.5 282Q390 261 427 261Q453 261 472 272Q491 283 499 305L594 250Q570 202 526 178.5Q482 155 422 155Z" glyph-name="copyright" horiz-adv-x="830" unicode="&#169;" /><glyph d="M215 336Q172 336 137.5 346.5Q103 357 78.5 380Q54 403 40.5 439Q27 475 27 525Q27 625 78.5 670Q130 715 222 715Q279 715 318 696.5Q357 678 380 636L285 566Q274 589 259.5 597.5Q245 606 225 606Q194 606 177.5 589Q161 572 161 525Q161 485 174.5 462.5Q188 440 223 440Q273 440 289 480L384 426Q361 382 320.5 359Q280 336 215 336Z" glyph-name="cordinal" horiz-adv-x="393" /><glyph d="M394 250Q394 318 368.5 346.5Q343 375 303 375Q264 375 241.5 346Q219 317 219 249Q219 128 304 128Q344 128 369 157.5Q394 187 394 250ZM423 0 413 73Q388 31 346.5 8Q305 -15 245 -15Q198 -15 159 1.5Q120 18 92 50Q64 82 48.5 130.5Q33 179 33 243Q33 311 49.5 362Q66 413 95 447.5Q124 482 165 499Q206 516 254 516Q300 516 334 500Q368 484 391 455V700H585V0Z" glyph-name="d" horiz-adv-x="641" unicode="d" /><glyph d="M296 477H231L229 257H89V477H23V601H87L85 715H235L232 601H296Z" glyph-name="dagger" horiz-adv-x="320" unicode="&#8224;" /><glyph d="M23 463H90V510H23V634H87L85 715H235L233 634H296V510H230V463H296V339H233L235 257H85L87 339H23Z" glyph-name="daggerdbl" horiz-adv-x="320" unicode="&#8225;" /><glyph d="M33 0ZM769 421H646L653 700H803ZM394 250Q394 318 368.5 346.5Q343 375 303 375Q264 375 241.5 346Q219 317 219 249Q219 128 304 128Q344 128 369 157.5Q394 187 394 250ZM423 0 413 73Q388 31 346.5 8Q305 -15 245 -15Q198 -15 159 1.5Q120 18 92 50Q64 82 48.5 130.5Q33 179 33 243Q33 311 49.5 362Q66 413 95 447.5Q124 482 165 499Q206 516 254 516Q300 516 334 500Q368 484 391 455V700H585V0Z" glyph-name="dcaron" horiz-adv-x="793" unicode="&#271;" /><glyph d="M395 249Q395 313 370 341Q345 369 306 369Q266 369 242.5 340.5Q219 312 219 249Q219 128 306 128Q346 128 370.5 158.5Q395 189 395 249ZM640 636V541H585V0H423L412 77Q387 34 346 9.5Q305 -15 245 -15Q198 -15 159 1Q120 17 92 49.5Q64 82 48.5 129.5Q33 177 33 240Q33 306 49.5 356Q66 406 95 439.5Q124 473 165 490Q206 507 254 507Q343 507 390 449V541H270V636H390V700H585V636Z" glyph-name="dcroat" horiz-adv-x="653" unicode="&#273;" /><glyph d="M236 349Q147 349 99 399.5Q51 450 51 532Q51 616 99 665.5Q147 715 236 715Q324 715 372.5 665.5Q421 616 421 532Q421 450 372.5 399.5Q324 349 236 349ZM236 617Q202 617 181 595.5Q160 574 160 532Q160 490 181 469Q202 448 236 448Q269 448 290.5 469Q312 490 312 532Q312 574 290.5 595.5Q269 617 236 617Z" glyph-name="degree" horiz-adv-x="471" unicode="&#176;" /><glyph d="M326 649Q326 692 351 712Q376 732 422 732Q468 732 492.5 712Q517 692 517 649Q517 604 492.5 584.5Q468 565 422 565Q376 565 351 584.5Q326 604 326 649ZM97 649Q97 692 122 712Q147 732 192 732Q238 732 262.5 712Q287 692 287 649Q287 604 262.5 584.5Q238 565 192 565Q147 565 122 584.5Q97 604 97 649Z" glyph-name="dieresis" horiz-adv-x="600" unicode="&#168;" /><glyph d="M171 495Q171 531 195 554.5Q219 578 255 578Q292 578 316 554.5Q340 531 340 495Q340 460 316 436.5Q292 413 255 413Q219 413 195 436.5Q171 460 171 495ZM462 363V259H50V363ZM171 127Q171 163 195 186.5Q219 210 255 210Q292 210 316 186.5Q340 163 340 127Q340 92 316 68.5Q292 45 255 45Q219 45 195 68.5Q171 92 171 127Z" glyph-name="divide" horiz-adv-x="512" unicode="&#247;" /><glyph d="M210 503Q210 480 224 466Q238 452 267 442V556Q235 551 222.5 537Q210 523 210 503ZM408 196Q408 214 395 227Q382 240 350 251V141Q408 152 408 196ZM267 -62V0Q191 5 128.5 34.5Q66 64 26 130L147 224Q190 153 267 141V271L256 274Q154 297 97 351.5Q40 406 40 496Q40 582 96.5 637.5Q153 693 267 701V766H350V699Q419 692 473.5 663Q528 634 562 574L438 488Q419 514 399 530Q379 546 350 553V420L370 415Q433 400 474.5 380Q516 360 540.5 334.5Q565 309 575 278Q585 247 585 212Q585 117 526.5 62.5Q468 8 350 0V-62Z" glyph-name="dollar" horiz-adv-x="609" unicode="$" /><glyph d="M199 649Q199 694 225.5 714Q252 734 300 734Q348 734 374 714Q400 694 400 649Q400 605 374 585Q348 565 300 565Q252 565 225.5 585Q199 605 199 649Z" glyph-name="dotaccent" horiz-adv-x="600" unicode="&#729;" /><glyph d="M58 502H252V0H58Z" glyph-name="dotlessi" horiz-adv-x="309" unicode="&#305;" /><glyph d="M58 -13V502H252V-23Q252 -74 236.5 -111.5Q221 -149 192.5 -174Q164 -199 125 -211Q86 -223 39 -223Q10 -223 -23 -217Q-56 -211 -83 -197L-52 -75Q-31 -86 -2 -86Q30 -86 44 -69.5Q58 -53 58 -13Z" glyph-name="dotlessj" horiz-adv-x="309" unicode="&#567;" /><glyph d="M313 -65V766H487V-65ZM75 -65V766H250V-65Z" glyph-name="doublebar" horiz-adv-x="562" /><glyph d="M305 -15Q243 -15 193 1Q143 17 107.5 49.5Q72 82 52.5 131Q33 180 33 246Q33 309 51 359Q69 409 103 444Q137 479 186 497.5Q235 516 298 516Q364 516 411 495.5Q458 475 488 440Q518 405 531.5 358Q545 311 545 257Q545 243 544 229Q543 215 541 199H215Q222 153 249.5 133Q277 113 322 113Q357 113 381.5 125Q406 137 422 165L534 94Q502 39 443.5 12Q385 -15 305 -15ZM296 384Q262 384 240.5 363.5Q219 343 214 302H370Q368 341 349.5 362.5Q331 384 296 384Z" glyph-name="e" horiz-adv-x="580" unicode="e" /><glyph d="M33 0ZM486 704 350 570H203V575L287 711H486ZM305 -15Q243 -15 193 1Q143 17 107.5 49.5Q72 82 52.5 131Q33 180 33 246Q33 309 51 359Q69 409 103 444Q137 479 186 497.5Q235 516 298 516Q364 516 411 495.5Q458 475 488 440Q518 405 531.5 358Q545 311 545 257Q545 243 544 229Q543 215 541 199H215Q222 153 249.5 133Q277 113 322 113Q357 113 381.5 125Q406 137 422 165L534 94Q502 39 443.5 12Q385 -15 305 -15ZM296 384Q262 384 240.5 363.5Q219 343 214 302H370Q368 341 349.5 362.5Q331 384 296 384Z" glyph-name="eacute" horiz-adv-x="580" unicode="&#233;" /><glyph d="M33 0ZM305 -15Q243 -15 193 1Q143 17 107.5 49.5Q72 82 52.5 131Q33 180 33 246Q33 309 51 359Q69 409 103 444Q137 479 186 497.5Q235 516 298 516Q364 516 411 495.5Q458 475 488 440Q518 405 531.5 358Q545 311 545 257Q545 243 544 229Q543 215 541 199H215Q222 153 249.5 133Q277 113 322 113Q357 113 381.5 125Q406 137 422 165L534 94Q502 39 443.5 12Q385 -15 305 -15ZM296 384Q262 384 240.5 363.5Q219 343 214 302H370Q368 341 349.5 362.5Q331 384 296 384ZM364 710H477Q477 668 464.5 639.5Q452 611 428 593.5Q404 576 369.5 569Q335 562 291 562Q247 562 212.5 569Q178 576 154.5 593.5Q131 611 118.5 639.5Q106 668 106 710H218Q218 675 235.5 663Q253 651 291 651Q329 651 346.5 663Q364 675 364 710Z" glyph-name="ebreve" horiz-adv-x="580" unicode="&#277;" /><glyph d="M33 0ZM298 659 355 711H495V708L371 570H215L91 708V711H239ZM305 -15Q243 -15 193 1Q143 17 107.5 49.5Q72 82 52.5 131Q33 180 33 246Q33 309 51 359Q69 409 103 444Q137 479 186 497.5Q235 516 298 516Q364 516 411 495.5Q458 475 488 440Q518 405 531.5 358Q545 311 545 257Q545 243 544 229Q543 215 541 199H215Q222 153 249.5 133Q277 113 322 113Q357 113 381.5 125Q406 137 422 165L534 94Q502 39 443.5 12Q385 -15 305 -15ZM296 384Q262 384 240.5 363.5Q219 343 214 302H370Q368 341 349.5 362.5Q331 384 296 384Z" glyph-name="ecaron" horiz-adv-x="580" unicode="&#283;" /><glyph d="M33 0ZM288 622 232 570H91V574L215 711H370L495 574V570H346ZM305 -15Q243 -15 193 1Q143 17 107.5 49.5Q72 82 52.5 131Q33 180 33 246Q33 309 51 359Q69 409 103 444Q137 479 186 497.5Q235 516 298 516Q364 516 411 495.5Q458 475 488 440Q518 405 531.5 358Q545 311 545 257Q545 243 544 229Q543 215 541 199H215Q222 153 249.5 133Q277 113 322 113Q357 113 381.5 125Q406 137 422 165L534 94Q502 39 443.5 12Q385 -15 305 -15ZM296 384Q262 384 240.5 363.5Q219 343 214 302H370Q368 341 349.5 362.5Q331 384 296 384Z" glyph-name="ecircumflex" horiz-adv-x="580" unicode="&#234;" /><glyph d="M33 0ZM309 649Q309 692 334 712Q359 732 405 732Q451 732 475.5 712Q500 692 500 649Q500 604 475.5 584.5Q451 565 405 565Q359 565 334 584.5Q309 604 309 649ZM80 649Q80 692 105 712Q130 732 175 732Q221 732 245.5 712Q270 692 270 649Q270 604 245.5 584.5Q221 565 175 565Q130 565 105 584.5Q80 604 80 649ZM305 -15Q243 -15 193 1Q143 17 107.5 49.5Q72 82 52.5 131Q33 180 33 246Q33 309 51 359Q69 409 103 444Q137 479 186 497.5Q235 516 298 516Q364 516 411 495.5Q458 475 488 440Q518 405 531.5 358Q545 311 545 257Q545 243 544 229Q543 215 541 199H215Q222 153 249.5 133Q277 113 322 113Q357 113 381.5 125Q406 137 422 165L534 94Q502 39 443.5 12Q385 -15 305 -15ZM296 384Q262 384 240.5 363.5Q219 343 214 302H370Q368 341 349.5 362.5Q331 384 296 384Z" glyph-name="edieresis" horiz-adv-x="580" unicode="&#235;" /><glyph d="M33 0ZM305 -15Q243 -15 193 1Q143 17 107.5 49.5Q72 82 52.5 131Q33 180 33 246Q33 309 51 359Q69 409 103 444Q137 479 186 497.5Q235 516 298 516Q364 516 411 495.5Q458 475 488 440Q518 405 531.5 358Q545 311 545 257Q545 243 544 229Q543 215 541 199H215Q222 153 249.5 133Q277 113 322 113Q357 113 381.5 125Q406 137 422 165L534 94Q502 39 443.5 12Q385 -15 305 -15ZM296 384Q262 384 240.5 363.5Q219 343 214 302H370Q368 341 349.5 362.5Q331 384 296 384ZM190 649Q190 694 216.5 714Q243 734 291 734Q339 734 365 714Q391 694 391 649Q391 605 365 585Q339 565 291 565Q243 565 216.5 585Q190 605 190 649Z" glyph-name="edotaccent" horiz-adv-x="580" unicode="&#279;" /><glyph d="M33 0ZM305 -15Q243 -15 193 1Q143 17 107.5 49.5Q72 82 52.5 131Q33 180 33 246Q33 309 51 359Q69 409 103 444Q137 479 186 497.5Q235 516 298 516Q364 516 411 495.5Q458 475 488 440Q518 405 531.5 358Q545 311 545 257Q545 243 544 229Q543 215 541 199H215Q222 153 249.5 133Q277 113 322 113Q357 113 381.5 125Q406 137 422 165L534 94Q502 39 443.5 12Q385 -15 305 -15ZM296 384Q262 384 240.5 363.5Q219 343 214 302H370Q368 341 349.5 362.5Q331 384 296 384ZM230 570 94 704V711H300L381 575V570Z" glyph-name="egrave" horiz-adv-x="580" unicode="&#232;" /><glyph d="M311 -15Q171 -15 99.5 38Q28 91 28 197Q28 262 57.5 304Q87 346 142 366Q100 388 77 425Q54 462 54 515Q54 620 119 667.5Q184 715 312 715Q440 715 505 667.5Q570 620 570 515Q570 462 547 425Q524 388 482 366Q536 346 566 304.5Q596 263 596 197Q596 -15 311 -15ZM401 504Q401 539 377.5 558Q354 577 314 577Q271 577 247 558Q223 539 223 504Q223 469 247 450Q271 431 313 431Q353 431 377 450Q401 469 401 504ZM409 200Q409 238 382.5 259.5Q356 281 314 281Q269 281 242 259.5Q215 238 215 200Q215 159 241.5 139Q268 119 313 119Q356 119 382.5 139Q409 159 409 200Z" glyph-name="eight" horiz-adv-x="625" unicode="8" /><glyph d="M338 -15Q195 -15 121 38Q47 91 47 193Q47 259 78 302Q109 345 166 366Q122 388 97.5 425Q73 462 73 515Q73 617 140.5 666Q208 715 339 715Q470 715 537.5 666Q605 617 605 515Q605 462 580 425Q555 388 511 366Q568 345 599.5 302.5Q631 260 631 193Q631 91 557.5 38Q484 -15 338 -15ZM429 504Q429 539 405 558Q381 577 341 577Q298 577 273.5 558Q249 539 249 504Q249 469 273.5 450Q298 431 340 431Q381 431 405 450Q429 469 429 504ZM437 200Q437 238 410.5 259.5Q384 281 341 281Q295 281 268 259.5Q241 238 241 200Q241 159 268 139Q295 119 340 119Q383 119 410 139Q437 159 437 200Z" glyph-name="eight.LP" horiz-adv-x="678" /><glyph d="M330 -15Q190 -15 118 38Q46 91 46 197Q46 262 75.5 304Q105 346 160 366Q118 388 95 425Q72 462 72 515Q72 620 137 667.5Q202 715 330 715Q459 715 524.5 667.5Q590 620 590 515Q590 462 566.5 425Q543 388 501 366Q555 346 585 304.5Q615 263 615 197Q615 -15 330 -15ZM417 504Q417 539 394 558Q371 577 333 577Q291 577 267.5 558Q244 539 244 504Q244 469 267 450Q290 431 331 431Q371 431 394 450Q417 469 417 504ZM425 200Q425 238 400 259.5Q375 281 333 281Q288 281 262 259.5Q236 238 236 200Q236 159 262 139Q288 119 331 119Q373 119 399 139Q425 159 425 200Z" glyph-name="eight.OP" horiz-adv-x="661" /><glyph d="M303 -15Q163 -15 91.5 38Q20 91 20 197Q20 262 49.5 304Q79 346 134 366Q92 388 69 425Q46 462 46 515Q46 620 111 667.5Q176 715 304 715Q432 715 497 667.5Q562 620 562 515Q562 462 538.5 425Q515 388 473 366Q528 346 558 304.5Q588 263 588 197Q588 -15 303 -15ZM393 504Q393 539 369 558Q345 577 306 577Q263 577 239 558Q215 539 215 504Q215 469 239 450Q263 431 304 431Q345 431 369 450Q393 469 393 504ZM401 200Q401 238 374.5 259.5Q348 281 306 281Q261 281 234 259.5Q207 238 207 200Q207 159 233.5 139Q260 119 304 119Q347 119 374 139Q401 159 401 200Z" glyph-name="eight.OT" horiz-adv-x="625" /><glyph d="M26 0ZM206 -213Q117 -213 71.5 -182Q26 -151 26 -86Q26 -12 90 13Q68 27 54.5 49Q41 71 41 100Q41 163 83.5 192Q126 221 207 221Q288 221 330.5 192Q373 163 373 100Q373 71 359 49Q345 27 322 13Q387 -12 387 -86Q387 -213 206 -213ZM251 92Q251 108 239 117.5Q227 127 208 127Q187 127 175 117.5Q163 108 163 92Q163 75 175 66Q187 57 207 57Q227 57 239 66Q251 75 251 92ZM254 -84Q254 -66 242 -55.5Q230 -45 209 -45Q185 -45 172 -55.5Q159 -66 159 -84Q159 -102 172 -112.5Q185 -123 207 -123Q230 -123 242 -112.5Q254 -102 254 -84Z" glyph-name="eight.inf" horiz-adv-x="416" /><glyph d="M574 86Q574 134 600.5 157.5Q627 181 676 181Q725 181 751 157.5Q777 134 777 86Q777 40 751 16Q725 -8 676 -8Q627 -8 600.5 15.5Q574 39 574 86ZM303 86Q303 134 329.5 157.5Q356 181 405 181Q455 181 481 157.5Q507 134 507 86Q507 40 481 16Q455 -8 405 -8Q356 -8 329.5 15.5Q303 39 303 86ZM33 86Q33 134 59.5 157.5Q86 181 135 181Q184 181 210.5 157.5Q237 134 237 86Q237 40 210.5 16Q184 -8 135 -8Q86 -8 59.5 15.5Q33 39 33 86Z" glyph-name="ellipsis" horiz-adv-x="811" unicode="&#8230;" /><glyph d="M33 0ZM305 -15Q243 -15 193 1Q143 17 107.5 49.5Q72 82 52.5 131Q33 180 33 246Q33 309 51 359Q69 409 103 444Q137 479 186 497.5Q235 516 298 516Q364 516 411 495.5Q458 475 488 440Q518 405 531.5 358Q545 311 545 257Q545 243 544 229Q543 215 541 199H215Q222 153 249.5 133Q277 113 322 113Q357 113 381.5 125Q406 137 422 165L534 94Q502 39 443.5 12Q385 -15 305 -15ZM296 384Q262 384 240.5 363.5Q219 343 214 302H370Q368 341 349.5 362.5Q331 384 296 384ZM445 685V584H139V685Z" glyph-name="emacron" horiz-adv-x="580" unicode="&#275;" /><glyph d="M740 345V197H50V345Z" glyph-name="emdash" horiz-adv-x="789" unicode="&#8212;" /><glyph d="M740 423V275H50V423Z" glyph-name="emdash.cap" horiz-adv-x="790" /><glyph glyph-name="emspace" horiz-adv-x="1000" unicode="&#8195;" /><glyph d="M541 345V197H50V345Z" glyph-name="endash" horiz-adv-x="590" unicode="&#8211;" /><glyph d="M541 423V275H50V423Z" glyph-name="endash.cap" horiz-adv-x="590" /><glyph d="M407 -13V247Q407 305 389 326Q371 347 335 347Q299 347 275.5 322Q252 297 251 244V0H57V502H216L232 414Q260 465 307 490.5Q354 516 414 516Q464 516 499.5 501Q535 486 557.5 459Q580 432 590.5 395.5Q601 359 601 316V-23Q601 -74 585.5 -111.5Q570 -149 542 -174Q514 -199 475 -211Q436 -223 389 -223Q360 -223 327 -217Q294 -211 267 -197L298 -75Q319 -86 348 -86Q380 -86 393.5 -69.5Q407 -53 407 -13Z" glyph-name="eng" horiz-adv-x="654" unicode="&#331;" /><glyph glyph-name="enspace" horiz-adv-x="500" unicode="&#8194;" /><glyph d="M239 -104Q239 -50 267 -13Q160 -4 96.5 60Q33 124 33 246Q33 309 51 359Q69 409 103 444Q137 479 186 497.5Q235 516 298 516Q364 516 411 495.5Q458 475 488 440Q518 405 531.5 358Q545 311 545 257Q545 243 544 229Q543 215 541 199H215Q222 153 249.5 133Q277 113 322 113Q357 113 381.5 125Q406 137 422 165L534 94Q512 56 477 31Q442 6 396 -5Q373 -16 359.5 -34.5Q346 -53 346 -81Q346 -114 366 -125Q386 -136 412 -136Q429 -136 446.5 -132Q464 -128 481 -119L506 -209Q460 -238 399 -238Q369 -238 340.5 -231Q312 -224 289.5 -208.5Q267 -193 253 -167.5Q239 -142 239 -104ZM296 384Q262 384 240.5 363.5Q219 343 214 302H370Q368 341 349.5 362.5Q331 384 296 384Z" glyph-name="eogonek" horiz-adv-x="580" unicode="&#281;" /><glyph d="M462 437V333H50V437ZM462 285V181H50V285Z" glyph-name="equal" horiz-adv-x="512" unicode="=" /><glyph d="M26 0ZM292 70V-9H26V70ZM292 -32V-111H26V-32Z" glyph-name="equal.inf" horiz-adv-x="318" /><glyph d="M485 742 522 688 459 648Q520 588 551.5 497.5Q583 407 583 297V266Q583 117 513 51Q443 -15 309 -15Q172 -15 102.5 49.5Q33 114 33 240Q33 306 51 354Q69 402 101.5 433Q134 464 180 479Q226 494 283 494Q344 494 385 465Q365 523 327 562L252 514L215 567L269 603Q248 615 223.5 623.5Q199 632 171 638L212 756Q325 747 407 691ZM399 239Q399 302 377.5 330.5Q356 359 308 359Q260 359 238 330.5Q216 302 216 239Q216 178 239 150.5Q262 123 308 123Q354 123 376.5 150.5Q399 178 399 239Z" glyph-name="eth" horiz-adv-x="613" unicode="&#240;" /><glyph d="M232 701 203 229H67L38 701ZM33 86Q33 134 59 157.5Q85 181 135 181Q184 181 210.5 157.5Q237 134 237 86Q237 40 210.5 16Q184 -8 135 -8Q85 -8 59 15.5Q33 39 33 86Z" glyph-name="exclam" horiz-adv-x="270" unicode="!" /><glyph d="M38 -189 67 283H203L232 -189ZM237 426Q237 378 211 354.5Q185 331 135 331Q86 331 59.5 354.5Q33 378 33 426Q33 472 59.5 496Q86 520 135 520Q185 520 211 496.5Q237 473 237 426Z" glyph-name="exclamdown" horiz-adv-x="270" unicode="&#161;" /><glyph d="M39 -1 68 471H204L233 -1ZM238 614Q238 566 212 542.5Q186 519 136 519Q87 519 60.5 542.5Q34 566 34 614Q34 660 60.5 684Q87 708 136 708Q186 708 212 684.5Q238 661 238 614Z" glyph-name="exclamdown.cap" horiz-adv-x="271" /><glyph d="M11 502H87V529Q87 583 102 622Q117 661 144.5 686.5Q172 712 209.5 724Q247 736 292 736Q308 736 327 734Q346 732 364.5 728.5Q383 725 399.5 718.5Q416 712 428 703L394 584Q382 592 367.5 595.5Q353 599 339 599Q277 599 277 528V502H402V362H277V0H87V362H11Z" glyph-name="f" horiz-adv-x="412" unicode="f" /><glyph d="M460 646Q460 696 488 718.5Q516 741 567 741Q618 741 646 718.5Q674 696 674 646Q674 598 646 575.5Q618 553 567 553Q516 553 488 575.5Q460 598 460 646ZM87 0V362H11V502H87V529Q87 583 102 622Q117 661 143.5 686.5Q170 712 207 724Q244 736 289 736Q322 736 361.5 728.5Q401 721 425 703L391 584Q378 592 364 595.5Q350 599 335 599Q277 599 277 528V502H402V362H277V0ZM470 502H664V0H470Z" glyph-name="fi" horiz-adv-x="722" unicode="&#64257;" /><glyph d="M541 411V263H50V411Z" glyph-name="figuredash" horiz-adv-x="590" unicode="&#8210;" /><glyph d="M541 423V275H50V423Z" glyph-name="figuredash.cap" horiz-adv-x="590" /><glyph glyph-name="figurespace" horiz-adv-x="625" unicode="&#8199;" /><glyph d="M246 548 236 436Q260 447 290 452Q320 457 353 457Q470 457 532.5 399.5Q595 342 595 233Q595 113 522.5 49Q450 -15 308 -15Q220 -15 147.5 13.5Q75 42 30 111L160 208Q186 168 218 148.5Q250 129 295 129Q349 129 377.5 155Q406 181 406 227Q406 277 376.5 298Q347 319 302 319Q264 319 237.5 309.5Q211 300 191 279L66 338L97 700H569V548Z" glyph-name="five" horiz-adv-x="625" unicode="5" /><glyph d="M234 548 224 436Q275 457 344 457Q465 457 528.5 399.5Q592 342 592 233Q592 113 518 49Q444 -15 298 -15Q207 -15 132 14Q57 43 11 111L145 208Q171 170 204.5 151Q238 132 284 132Q340 132 368.5 157Q397 182 397 227Q397 276 366 297.5Q335 319 291 319Q214 319 178 279L48 338L79 700H567V548Z" glyph-name="five.LP" horiz-adv-x="619" /><glyph d="M229 449 219 336Q267 357 335 357Q452 357 514 300Q576 243 576 132Q576 13 503.5 -51Q431 -115 290 -115Q201 -115 127.5 -86Q54 -57 9 11L141 108Q167 67 198.5 48.5Q230 30 276 30Q329 30 357 56Q385 82 385 127Q385 177 355 198.5Q325 220 281 220Q210 220 173 179L46 238L77 600H551V449Z" glyph-name="five.OP" horiz-adv-x="601" /><glyph d="M238 448 228 336Q252 347 282 352Q312 357 345 357Q462 357 524 299.5Q586 242 586 133Q586 13 514 -51Q442 -115 300 -115Q212 -115 139 -86Q66 -57 21 11L151 108Q177 68 209 48.5Q241 29 286 29Q340 29 369 55Q398 81 398 127Q398 152 390 169.5Q382 187 368 198Q354 209 335 214Q316 219 294 219Q219 219 183 179L58 238L89 600H560V448Z" glyph-name="five.OT" horiz-adv-x="625" /><glyph d="M3 0ZM155 108 149 60Q163 64 179.5 66.5Q196 69 213 69Q291 69 329.5 34Q368 -1 368 -66Q368 -138 321.5 -175.5Q275 -213 185 -213Q128 -213 80.5 -196Q33 -179 3 -137L97 -71Q127 -111 175 -111Q202 -111 216.5 -99Q231 -87 231 -67Q231 -43 214 -32.5Q197 -22 175 -22Q139 -22 119 -45L28 -5L46 208H352V107Z" glyph-name="five.inf" horiz-adv-x="384" /><glyph d="M87 0V362H11V502H87V529Q87 583 102 622Q117 661 144.5 686.5Q172 712 210 724Q248 736 293 736Q336 736 368.5 725Q401 714 420 700L386 581Q375 587 362 591.5Q349 596 335 596Q305 596 291 580Q277 564 277 528V502H402V362H277V0ZM628 0Q545 0 507 38.5Q469 77 469 155V700H663V174Q663 153 670.5 144Q678 135 694 135H727V0Z" glyph-name="fl" horiz-adv-x="741" unicode="&#64258;" /><glyph d="M87 0V362H11V502H87V529Q87 583 102 622Q117 661 144.5 686.5Q172 712 210 724Q248 736 293 736Q336 736 368.5 725Q401 714 420 700L386 581Q375 587 362 591.5Q349 596 335 596Q305 596 291 580Q277 564 277 528V502H402V362H277V0ZM664 700V0H470V700Z" glyph-name="fl.alt" horiz-adv-x="741" /><glyph d="M41 -14 81 243H8L29 382H103L110 420Q127 526 188.5 576.5Q250 627 339 627Q355 627 373.5 625Q392 623 409.5 619.5Q427 616 442.5 609.5Q458 603 469 594L421 475Q410 483 396 486.5Q382 490 368 490Q308 490 296 419L289 382H413L391 243H267L227 -23Q210 -125 149 -174Q88 -223 -3 -223Q-31 -223 -64 -217Q-97 -211 -120 -197L-76 -75Q-57 -86 -29 -86Q1 -86 18 -69.5Q35 -53 41 -14Z" glyph-name="florin" horiz-adv-x="433" unicode="&#402;" /><glyph d="M19 136V290L245 700H428L210 298H355V418H536V298H603V136H536V0H355V136Z" glyph-name="four" horiz-adv-x="625" unicode="4" /><glyph d="M32 136V270L233 700H428L231 298H413V541H598V298H681V136H598V0H413V136Z" glyph-name="four.LP" horiz-adv-x="701" /><glyph d="M32 36V169L226 600H416L226 196H404V441H585V196H662V36H585V-100H404V36Z" glyph-name="four.OP" horiz-adv-x="682" /><glyph d="M19 36V190L245 600H428L210 198H355V318H536V198H603V36H536V-100H355V36Z" glyph-name="four.OT" horiz-adv-x="625" /><glyph d="M21 0ZM21 -127V-38L138 209H272L158 -19H250V101H379V-19H421V-127H379V-200H250V-127Z" glyph-name="four.inf" horiz-adv-x="438" /><glyph glyph-name="fourperemspace" horiz-adv-x="250" unicode="&#8197;" /><glyph d="M536 700 186 0H20L372 700Z" glyph-name="fraction" horiz-adv-x="584" unicode="&#8260;" /><glyph d="M390 263Q390 318 365.5 346.5Q341 375 301 375Q260 375 238 347Q216 319 216 262Q216 202 237.5 174Q259 146 301 146Q343 146 366.5 176Q390 206 390 263ZM582 502V28Q582 -36 560 -83Q538 -130 498.5 -161Q459 -192 404.5 -207.5Q350 -223 286 -223Q249 -223 213 -217.5Q177 -212 146 -199Q115 -186 90 -166.5Q65 -147 50 -118L152 -24Q174 -59 206.5 -74Q239 -89 277 -89Q331 -89 359.5 -61Q388 -33 388 24V86Q365 48 329 28Q293 8 240 8Q194 8 155.5 23.5Q117 39 89.5 70Q62 101 47 148.5Q32 196 32 259Q32 323 48 371.5Q64 420 93.5 452Q123 484 163.5 500Q204 516 253 516Q307 516 347.5 495.5Q388 475 412 433L426 502Z" glyph-name="g" horiz-adv-x="638" unicode="g" /><glyph d="M32 0ZM390 263Q390 318 365.5 346.5Q341 375 301 375Q260 375 238 347Q216 319 216 262Q216 202 237.5 174Q259 146 301 146Q343 146 366.5 176Q390 206 390 263ZM582 502V28Q582 -36 560 -83Q538 -130 498.5 -161Q459 -192 404.5 -207.5Q350 -223 286 -223Q249 -223 213 -217.5Q177 -212 146 -199Q115 -186 90 -166.5Q65 -147 50 -118L152 -24Q174 -59 206.5 -74Q239 -89 277 -89Q331 -89 359.5 -61Q388 -33 388 24V86Q365 48 329 28Q293 8 240 8Q194 8 155.5 23.5Q117 39 89.5 70Q62 101 47 148.5Q32 196 32 259Q32 323 48 371.5Q64 420 93.5 452Q123 484 163.5 500Q204 516 253 516Q307 516 347.5 495.5Q388 475 412 433L426 502ZM372 710H485Q485 668 472.5 639.5Q460 611 436 593.5Q412 576 377.5 569Q343 562 299 562Q255 562 220.5 569Q186 576 162.5 593.5Q139 611 126.5 639.5Q114 668 114 710H226Q226 675 243.5 663Q261 651 299 651Q337 651 354.5 663Q372 675 372 710Z" glyph-name="gbreve" horiz-adv-x="638" unicode="&#287;" /><glyph d="M32 0ZM296 622 240 570H99V574L223 711H378L503 574V570H354ZM390 263Q390 318 365.5 346.5Q341 375 301 375Q260 375 238 347Q216 319 216 262Q216 202 237.5 174Q259 146 301 146Q343 146 366.5 176Q390 206 390 263ZM582 502V28Q582 -36 560 -83Q538 -130 498.5 -161Q459 -192 404.5 -207.5Q350 -223 286 -223Q249 -223 213 -217.5Q177 -212 146 -199Q115 -186 90 -166.5Q65 -147 50 -118L152 -24Q174 -59 206.5 -74Q239 -89 277 -89Q331 -89 359.5 -61Q388 -33 388 24V86Q365 48 329 28Q293 8 240 8Q194 8 155.5 23.5Q117 39 89.5 70Q62 101 47 148.5Q32 196 32 259Q32 323 48 371.5Q64 420 93.5 452Q123 484 163.5 500Q204 516 253 516Q307 516 347.5 495.5Q388 475 412 433L426 502Z" glyph-name="gcircumflex" horiz-adv-x="638" unicode="&#285;" /><glyph d="M359 862 392 795Q359 787 335 768.5Q311 750 303 724Q347 724 372 703.5Q397 683 397 644Q397 601 372 579.5Q347 558 299 558Q252 558 225.5 585Q199 612 199 666Q199 705 210.5 738Q222 771 243 797Q264 823 293.5 839.5Q323 856 359 862ZM390 263Q390 318 365.5 346.5Q341 375 301 375Q260 375 238 347Q216 319 216 262Q216 202 237.5 174Q259 146 301 146Q343 146 366.5 176Q390 206 390 263ZM582 502V28Q582 -36 560 -83Q538 -130 498.5 -161Q459 -192 404.5 -207.5Q350 -223 286 -223Q249 -223 213 -217.5Q177 -212 146 -199Q115 -186 90 -166.5Q65 -147 50 -118L152 -24Q174 -59 206.5 -74Q239 -89 277 -89Q331 -89 359.5 -61Q388 -33 388 24V86Q365 48 329 28Q293 8 240 8Q194 8 155.5 23.5Q117 39 89.5 70Q62 101 47 148.5Q32 196 32 259Q32 323 48 371.5Q64 420 93.5 452Q123 484 163.5 500Q204 516 253 516Q307 516 347.5 495.5Q388 475 412 433L426 502Z" glyph-name="gcommaaccent" horiz-adv-x="638" unicode="&#291;" /><glyph d="M32 0ZM390 263Q390 318 365.5 346.5Q341 375 301 375Q260 375 238 347Q216 319 216 262Q216 202 237.5 174Q259 146 301 146Q343 146 366.5 176Q390 206 390 263ZM582 502V28Q582 -36 560 -83Q538 -130 498.5 -161Q459 -192 404.5 -207.5Q350 -223 286 -223Q249 -223 213 -217.5Q177 -212 146 -199Q115 -186 90 -166.5Q65 -147 50 -118L152 -24Q174 -59 206.5 -74Q239 -89 277 -89Q331 -89 359.5 -61Q388 -33 388 24V86Q365 48 329 28Q293 8 240 8Q194 8 155.5 23.5Q117 39 89.5 70Q62 101 47 148.5Q32 196 32 259Q32 323 48 371.5Q64 420 93.5 452Q123 484 163.5 500Q204 516 253 516Q307 516 347.5 495.5Q388 475 412 433L426 502ZM198 649Q198 694 224.5 714Q251 734 299 734Q347 734 373 714Q399 694 399 649Q399 605 373 585Q347 565 299 565Q251 565 224.5 585Q198 605 198 649Z" glyph-name="gdotaccent" horiz-adv-x="638" unicode="&#289;" /><glyph d="M368 294H315V438H354Q392 438 414 458.5Q436 479 436 512Q436 550 410 567.5Q384 585 346 585Q246 585 246 479V0H56V481Q56 599 127.5 665Q199 731 345 731Q419 731 470.5 715.5Q522 700 554.5 673Q587 646 601.5 610Q616 574 616 533Q616 478 592.5 441.5Q569 405 531 383Q594 363 621.5 314.5Q649 266 649 204Q649 153 631 113.5Q613 74 581.5 47Q550 20 506.5 6Q463 -8 412 -8Q382 -8 352.5 -4Q323 0 300 10L313 143Q336 132 368 132Q408 132 435.5 152.5Q463 173 463 215Q463 254 437 274Q411 294 368 294Z" glyph-name="germandbls" horiz-adv-x="679" unicode="&#223;" /><glyph d="M243 570 107 704V711H313L394 575V570Z" glyph-name="grave" horiz-adv-x="600" unicode="`" /><glyph d="M145 68 77 157 289 306 74 457 145 550 436 343V275Z" glyph-name="greater" horiz-adv-x="507" unicode="&gt;" /><glyph d="M147 148 93 232 274 343 92 453 147 542 421 376V315ZM424 104V0H86V104Z" glyph-name="greaterequal" horiz-adv-x="513" unicode="&#8805;" /><glyph d="M496 0 290 252V255L488 502H674L474 256L685 0ZM232 0 34 249V252L231 502H417L218 253L421 0Z" glyph-name="guillemotleft" horiz-adv-x="700" unicode="&#171;" /><glyph d="M204 502 410 250V247L212 0H26L226 246L15 502ZM468 502 666 253V250L469 0H283L482 249L279 502Z" glyph-name="guillemotright" horiz-adv-x="700" unicode="&#187;" /><glyph d="M231 0 34 249V252L229 502H415L218 253L420 0Z" glyph-name="guilsinglleft" horiz-adv-x="435" unicode="&#8249;" /><glyph d="M204 502 401 253V250L206 0H20L217 249L15 502Z" glyph-name="guilsinglright" horiz-adv-x="435" unicode="&#8250;" /><glyph d="M251 700V413Q277 463 321.5 489.5Q366 516 421 516Q468 516 502 501Q536 486 558 459Q580 432 590.5 395.5Q601 359 601 316V0H407V247Q407 305 389 326Q371 347 335 347Q299 347 275.5 322Q252 297 251 244V0H57V700Z" glyph-name="h" horiz-adv-x="654" unicode="h" /><glyph glyph-name="hairspace" horiz-adv-x="100" unicode="&#8202;" /><glyph d="M13 541V636H69V700H262V636H382V541H262V404Q288 455 333 482.5Q378 510 433 510Q515 510 563.5 459Q612 408 612 307V0H418V234Q418 293 400 315Q382 337 347 337Q311 337 287 312Q263 287 262 231V0H69V541Z" glyph-name="hbar" horiz-adv-x="666" unicode="&#295;" /><glyph d="M0 0ZM150 810 94 758H-47V762L77 899H232L357 762V758H208ZM251 700V413Q277 463 321.5 489.5Q366 516 421 516Q468 516 502 501Q536 486 558 459Q580 432 590.5 395.5Q601 359 601 316V0H407V247Q407 305 389 326Q371 347 335 347Q299 347 275.5 322Q252 297 251 244V0H57V700Z" glyph-name="hcircumflex" horiz-adv-x="654" unicode="&#293;" /><glyph d="M598 706 464 570H327V575L406 711H598ZM371 704 248 570H124V575L194 711H371Z" glyph-name="hungarumlaut" horiz-adv-x="600" unicode="&#733;" /><glyph d="M451 345V197H50V345Z" glyph-name="hyphen" horiz-adv-x="500" unicode="-" /><glyph d="M451 423V275H50V423Z" glyph-name="hyphen.cap" horiz-adv-x="500" /><glyph d="M47 646Q47 696 75 718.5Q103 741 155 741Q206 741 233.5 718.5Q261 696 261 646Q261 598 233.5 575.5Q206 553 155 553Q103 553 75 575.5Q47 598 47 646ZM58 502H252V0H58Z" glyph-name="i" horiz-adv-x="309" unicode="i" /><glyph d="M58 0ZM349 704 213 570H66V575L150 711H349ZM58 502H252V0H58Z" glyph-name="iacute" horiz-adv-x="309" unicode="&#237;" /><glyph d="M0 0ZM58 502H252V0H58ZM227 710H340Q340 668 327.5 639.5Q315 611 291 593.5Q267 576 232.5 569Q198 562 154 562Q110 562 75.5 569Q41 576 17.5 593.5Q-6 611 -18.5 639.5Q-31 668 -31 710H81Q81 675 98.5 663Q116 651 154 651Q192 651 209.5 663Q227 675 227 710Z" glyph-name="ibreve" horiz-adv-x="309" unicode="&#301;" /><glyph d="M0 0ZM150 622 94 570H-47V574L77 711H232L357 574V570H208ZM58 502H252V0H58Z" glyph-name="icircumflex" horiz-adv-x="309" unicode="&#238;" /><glyph d="M0 0ZM174 649Q174 692 199 712Q224 732 270 732Q316 732 340.5 712Q365 692 365 649Q365 604 340.5 584.5Q316 565 270 565Q224 565 199 584.5Q174 604 174 649ZM-55 649Q-55 692 -30 712Q-5 732 40 732Q86 732 110.5 712Q135 692 135 649Q135 604 110.5 584.5Q86 565 40 565Q-5 565 -30 584.5Q-55 604 -55 649ZM58 502H252V0H58Z" glyph-name="idieresis" horiz-adv-x="309" unicode="&#239;" /><glyph d="M47 646Q47 696 75 718.5Q103 741 155 741Q206 741 233.5 718.5Q261 696 261 646Q261 598 233.5 575.5Q206 553 155 553Q103 553 75 575.5Q47 598 47 646ZM58 502H252V0H58Z" glyph-name="idotaccent" horiz-adv-x="309" /><glyph d="M0 0ZM58 502H252V0H58ZM92 570 -44 704V711H162L243 575V570Z" glyph-name="igrave" horiz-adv-x="309" unicode="&#236;" /><glyph d="M47 0ZM47 646Q47 696 75 718.5Q103 741 155 741Q206 741 233.5 718.5Q261 696 261 646Q261 598 233.5 575.5Q206 553 155 553Q103 553 75 575.5Q47 598 47 646ZM58 502H252V0H58ZM356 646Q356 696 384 718.5Q412 741 464 741Q515 741 542.5 718.5Q570 696 570 646Q570 598 542.5 575.5Q515 553 464 553Q412 553 384 575.5Q356 598 356 646ZM367 -13V502H561V-23Q561 -74 545.5 -111.5Q530 -149 501.5 -174Q473 -199 434 -211Q395 -223 348 -223Q319 -223 286 -217Q253 -211 226 -197L257 -75Q278 -86 307 -86Q339 -86 353 -69.5Q367 -53 367 -13Z" glyph-name="ij" horiz-adv-x="618" unicode="&#307;" /><glyph d="M1 0ZM58 502H252V0H58ZM307 685V584H1V685Z" glyph-name="imacron" horiz-adv-x="309" unicode="&#299;" /><glyph d="M47 646Q47 696 75 718.5Q103 741 155 741Q206 741 233.5 718.5Q261 696 261 646Q261 598 233.5 575.5Q206 553 155 553Q103 553 75 575.5Q47 598 47 646ZM119 -238Q90 -238 62 -231Q34 -224 11.5 -208.5Q-11 -193 -25 -167Q-39 -141 -39 -102Q-39 -50 -11.5 -14Q16 22 58 40V502H252V0H156Q108 -4 88 -29Q68 -54 68 -85Q68 -114 88 -125Q108 -136 134 -136Q151 -136 168.5 -132Q186 -128 202 -119L228 -209Q181 -238 119 -238Z" glyph-name="iogonek" horiz-adv-x="309" unicode="&#303;" /><glyph d="M0 0ZM58 502H252V0H58ZM239 708H348Q351 670 342 644.5Q333 619 317 603.5Q301 588 280 581.5Q259 575 239 575Q216 575 196.5 580Q177 585 159.5 590.5Q142 596 127 601Q112 606 97 606Q80 606 74.5 595.5Q69 585 69 574H-40Q-43 612 -34 637.5Q-25 663 -9 678.5Q7 694 27.5 700.5Q48 707 69 707Q92 707 111.5 702Q131 697 148.5 691.5Q166 686 181 681Q196 676 211 676Q229 676 234 685.5Q239 695 239 708Z" glyph-name="itilde" horiz-adv-x="309" unicode="&#297;" /><glyph d="M47 646Q47 696 75 718.5Q103 741 155 741Q206 741 233.5 718.5Q261 696 261 646Q261 598 233.5 575.5Q206 553 155 553Q103 553 75 575.5Q47 598 47 646ZM58 -13V502H252V-23Q252 -74 236.5 -111.5Q221 -149 192.5 -174Q164 -199 125 -211Q86 -223 39 -223Q10 -223 -23 -217Q-56 -211 -83 -197L-52 -75Q-31 -86 -2 -86Q30 -86 44 -69.5Q58 -53 58 -13Z" glyph-name="j" horiz-adv-x="309" unicode="j" /><glyph d="M0 0ZM58 -13V502H252V-23Q252 -74 236.5 -111.5Q221 -149 192.5 -174Q164 -199 125 -211Q86 -223 39 -223Q10 -223 -23 -217Q-56 -211 -83 -197L-52 -75Q-31 -86 -2 -86Q30 -86 44 -69.5Q58 -53 58 -13ZM151 622 95 570H-46V574L78 711H233L358 574V570H209Z" glyph-name="jcircumflex" horiz-adv-x="309" unicode="&#309;" /><glyph d="M57 0V700H251L245 293L403 502H608L425 280L611 0H400L299 156L248 98V0Z" glyph-name="k" horiz-adv-x="614" unicode="k" /><glyph d="M56 0V700H251L244 284L402 502H598L409 254L612 0H400L248 195V0Z" glyph-name="k.alt" horiz-adv-x="617" /><glyph d="M57 0ZM265 -354 232 -287Q265 -279 289 -260.5Q313 -242 321 -216Q277 -216 252 -195.5Q227 -175 227 -136Q227 -93 252 -71.5Q277 -50 325 -50Q372 -50 398.5 -77Q425 -104 425 -158Q425 -197 413.5 -230Q402 -263 381 -289Q360 -315 330.5 -331.5Q301 -348 265 -354ZM57 0V700H251L245 293L403 502H608L425 280L611 0H400L299 156L248 98V0Z" glyph-name="kcommaaccent" horiz-adv-x="614" unicode="&#311;" /><glyph d="M56 0ZM266 -354 233 -287Q266 -279 290 -260.5Q314 -242 322 -216Q278 -216 253 -195.5Q228 -175 228 -136Q228 -93 253 -71.5Q278 -50 326 -50Q373 -50 399.5 -77Q426 -104 426 -158Q426 -197 414.5 -230Q403 -263 382 -289Q361 -315 331.5 -331.5Q302 -348 266 -354ZM56 0V700H251L244 284L402 502H598L409 254L612 0H400L248 195V0Z" glyph-name="kcommaaccent.alt" horiz-adv-x="617" /><glyph d="M57 0V502H247L245 292L403 502H608L425 280L611 0H400L299 155L248 98V0Z" glyph-name="kgreenlandic" horiz-adv-x="614" unicode="&#312;" /><glyph d="M216 0Q133 0 95 38.5Q57 77 57 155V700H251V174Q251 153 258.5 144Q266 135 282 135H315V0Z" glyph-name="l" horiz-adv-x="328" unicode="l" /><glyph d="M252 700V0H58V700Z" glyph-name="l.alt" horiz-adv-x="309" /><glyph d="M57 0ZM346 902 210 768H63V773L147 909H346ZM216 0Q133 0 95 38.5Q57 77 57 155V700H251V174Q251 153 258.5 144Q266 135 282 135H315V0Z" glyph-name="lacute" horiz-adv-x="328" unicode="&#314;" /><glyph d="M57 0ZM439 421H316L323 700H473ZM216 0Q133 0 95 38.5Q57 77 57 155V700H251V174Q251 153 258.5 144Q266 135 282 135H315V0Z" glyph-name="lcaron" horiz-adv-x="463" unicode="&#318;" /><glyph d="M57 0ZM127 -354 94 -287Q127 -279 151 -260.5Q175 -242 183 -216Q139 -216 114 -195.5Q89 -175 89 -136Q89 -93 114 -71.5Q139 -50 187 -50Q234 -50 260.5 -77Q287 -104 287 -158Q287 -197 275.5 -230Q264 -263 243 -289Q222 -315 192.5 -331.5Q163 -348 127 -354ZM216 0Q133 0 95 38.5Q57 77 57 155V700H251V174Q251 153 258.5 144Q266 135 282 135H315V0Z" glyph-name="lcommaaccent" horiz-adv-x="328" unicode="&#316;" /><glyph d="M57 0ZM216 0Q133 0 95 38.5Q57 77 57 155V700H251V174Q251 153 258.5 144Q266 135 282 135H315V0ZM291 303Q291 348 317.5 368Q344 388 392 388Q440 388 466 368Q492 348 492 303Q492 259 466 239Q440 219 392 219Q344 219 317.5 239Q291 259 291 303Z" glyph-name="ldot" horiz-adv-x="476" unicode="&#320;" /><glyph d="M364 550 432 461 221 311 435 161 364 68 73 274V343Z" glyph-name="less" horiz-adv-x="507" unicode="&lt;" /><glyph d="M365 542 420 458 238 346 420 237 365 148 92 313V375ZM86 0V104H424V0Z" glyph-name="lessequal" horiz-adv-x="513" unicode="&#8804;" /><glyph d="M331 0H232Q149 0 111 38.5Q73 77 73 155V203L1 152V303L73 354V700H267V470L344 525V374L267 320V174Q267 153 274.5 144Q282 135 298 135H331Z" glyph-name="lslash" horiz-adv-x="339" unicode="&#322;" /><glyph d="M57 0V502H215L231 417Q259 465 304 490.5Q349 516 403 516Q468 516 505.5 483.5Q543 451 557 403Q582 457 628 486.5Q674 516 735 516Q781 516 814.5 501Q848 486 869 459.5Q890 433 900 397Q910 361 910 318V0H716V255Q716 303 702.5 324.5Q689 346 657 346Q625 346 603 323.5Q581 301 581 250V0H387V254Q387 303 372 324.5Q357 346 325 346Q293 346 272.5 323.5Q252 301 251 250V0Z" glyph-name="m" horiz-adv-x="964" unicode="m" /><glyph d="M444 685V584H138V685Z" glyph-name="macron" horiz-adv-x="600" unicode="&#175;" /><glyph d="M462 363V259H50V363Z" glyph-name="minus" horiz-adv-x="512" unicode="&#8722;" /><glyph d="M26 0ZM292 20V-58H26V20Z" glyph-name="minus.inf" horiz-adv-x="318" /><glyph d="M131 119 59 192 177 310 57 431 134 509 255 388 375 508 447 435 327 316 450 193 372 115 250 238Z" glyph-name="multiply" horiz-adv-x="508" unicode="&#215;" /><glyph d="M57 502H216L231 413Q260 462 307 489Q354 516 414 516Q464 516 499.5 501Q535 486 557.5 459Q580 432 590.5 395.5Q601 359 601 316V0H407V247Q407 305 389 326Q371 347 335 347Q299 347 275.5 322Q252 297 251 244V0H57Z" glyph-name="n" horiz-adv-x="654" unicode="n" /><glyph d="M57 0ZM545 704 409 570H262V575L346 711H545ZM57 502H216L231 413Q260 462 307 489Q354 516 414 516Q464 516 499.5 501Q535 486 557.5 459Q580 432 590.5 395.5Q601 359 601 316V0H407V247Q407 305 389 326Q371 347 335 347Q299 347 275.5 322Q252 297 251 244V0H57Z" glyph-name="nacute" horiz-adv-x="654" unicode="&#324;" /><glyph d="M57 0ZM356 659 413 711H553V708L429 570H273L149 708V711H297ZM57 502H216L231 413Q260 462 307 489Q354 516 414 516Q464 516 499.5 501Q535 486 557.5 459Q580 432 590.5 395.5Q601 359 601 316V0H407V247Q407 305 389 326Q371 347 335 347Q299 347 275.5 322Q252 297 251 244V0H57Z" glyph-name="ncaron" horiz-adv-x="654" unicode="&#328;" /><glyph d="M57 0ZM275 -354 242 -287Q275 -279 299 -260.5Q323 -242 331 -216Q287 -216 262 -195.5Q237 -175 237 -136Q237 -93 262 -71.5Q287 -50 335 -50Q382 -50 408.5 -77Q435 -104 435 -158Q435 -197 423.5 -230Q412 -263 391 -289Q370 -315 340.5 -331.5Q311 -348 275 -354ZM57 502H216L231 413Q260 462 307 489Q354 516 414 516Q464 516 499.5 501Q535 486 557.5 459Q580 432 590.5 395.5Q601 359 601 316V0H407V247Q407 305 389 326Q371 347 335 347Q299 347 275.5 322Q252 297 251 244V0H57Z" glyph-name="ncommaaccent" horiz-adv-x="654" unicode="&#326;" /><glyph d="M393 478Q393 517 369 541.5Q345 566 303 566Q259 566 234.5 542.5Q210 519 210 476Q210 437 231 412.5Q252 388 299 388Q338 388 365.5 410.5Q393 433 393 478ZM288 -15Q243 -15 202.5 -8.5Q162 -2 128.5 11Q95 24 68.5 44Q42 64 26 92L138 196Q156 167 190.5 150Q225 133 273 133Q348 133 382.5 181.5Q417 230 417 340V359Q398 312 355 283.5Q312 255 249 255Q200 255 160 269Q120 283 91 311Q62 339 46 381Q30 423 30 478Q30 530 45.5 573.5Q61 617 93.5 648.5Q126 680 174.5 697.5Q223 715 289 715Q439 715 520.5 626.5Q602 538 602 353Q602 178 525.5 81.5Q449 -15 288 -15Z" glyph-name="nine" horiz-adv-x="625" unicode="9" /><glyph d="M419 478Q419 517 394 541.5Q369 566 324 566Q279 566 254.5 542.5Q230 519 230 476Q230 437 251.5 413Q273 389 320 389Q360 389 389.5 411Q419 433 419 478ZM310 -15Q218 -15 145.5 10.5Q73 36 40 92L154 196Q173 167 208.5 150Q244 133 294 133Q372 133 407.5 181.5Q443 230 443 340V359Q423 311 378 281Q333 251 266 251Q216 251 174.5 265.5Q133 280 103 308.5Q73 337 56.5 379.5Q40 422 40 478Q40 530 56.5 573.5Q73 617 107 648.5Q141 680 191.5 697.5Q242 715 311 715Q468 715 553.5 626.5Q639 538 639 353Q639 178 559 81.5Q479 -15 310 -15Z" glyph-name="nine.LP" horiz-adv-x="688" /><glyph d="M411 378Q411 417 386.5 441.5Q362 466 320 466Q277 466 252.5 442.5Q228 419 228 376Q228 337 249 313Q270 289 315 289Q354 289 382.5 311Q411 333 411 378ZM305 -115Q260 -115 218.5 -108.5Q177 -102 142.5 -89Q108 -76 81.5 -56Q55 -36 39 -8L152 96Q171 67 205.5 50Q240 33 289 33Q366 33 401 81.5Q436 130 436 240V259Q416 211 372 181Q328 151 262 151Q213 151 172.5 165.5Q132 180 103 208.5Q74 237 58 279.5Q42 322 42 378Q42 430 58 473.5Q74 517 107 548.5Q140 580 189.5 597.5Q239 615 306 615Q458 615 541 526.5Q624 438 624 253Q624 78 546.5 -18.5Q469 -115 305 -115Z" glyph-name="nine.OP" horiz-adv-x="670" /><glyph d="M387 378Q387 417 362.5 441.5Q338 466 296 466Q252 466 227.5 442.5Q203 419 203 376Q203 337 224 312.5Q245 288 292 288Q331 288 359 310.5Q387 333 387 378ZM281 -115Q236 -115 195.5 -108.5Q155 -102 121.5 -89Q88 -76 61.5 -56Q35 -36 19 -8L131 96Q149 67 183.5 50Q218 33 266 33Q341 33 375.5 81.5Q410 130 410 240V259Q391 212 348 183.5Q305 155 242 155Q193 155 153 169Q113 183 84 211Q55 239 39 281Q23 323 23 378Q23 430 38.5 473.5Q54 517 86.5 548.5Q119 580 168 597.5Q217 615 283 615Q432 615 513.5 526.5Q595 438 595 253Q595 78 518.5 -18.5Q442 -115 281 -115Z" glyph-name="nine.OT" horiz-adv-x="625" /><glyph d="M17 0ZM243 77Q243 97 230.5 108Q218 119 195 119Q151 119 151 78Q151 60 161 48Q171 36 195 36Q213 36 228 46Q243 56 243 77ZM184 -213Q159 -213 133.5 -209.5Q108 -206 85.5 -198Q63 -190 45 -178.5Q27 -167 17 -150L95 -77Q106 -94 126.5 -103.5Q147 -113 175 -113Q221 -113 239 -84.5Q257 -56 256 -5Q228 -57 156 -57Q96 -57 58.5 -23Q21 11 21 77Q21 140 61 180.5Q101 221 190 221Q285 221 336.5 168.5Q388 116 388 6Q388 -96 340 -154.5Q292 -213 184 -213Z" glyph-name="nine.inf" horiz-adv-x="417" /><glyph d="M50 333V437H294L340 503H443L397 437H462V333H325L291 285H462V181H219L174 116H70L116 181H50V285H187L221 333Z" glyph-name="notequal" horiz-adv-x="512" unicode="&#8800;" /><glyph d="M57 0ZM57 502H216L231 413Q260 462 307 489Q354 516 414 516Q464 516 499.5 501Q535 486 557.5 459Q580 432 590.5 395.5Q601 359 601 316V0H407V247Q407 305 389 326Q371 347 335 347Q299 347 275.5 322Q252 297 251 244V0H57ZM434 708H543Q546 670 537 644.5Q528 619 512 603.5Q496 588 475 581.5Q454 575 434 575Q411 575 391.5 580Q372 585 354.5 590.5Q337 596 322 601Q307 606 292 606Q275 606 269.5 595.5Q264 585 264 574H155Q152 612 161 637.5Q170 663 186 678.5Q202 694 222.5 700.5Q243 707 264 707Q287 707 306.5 702Q326 697 343.5 691.5Q361 686 376 681Q391 676 406 676Q424 676 429 685.5Q434 695 434 708Z" glyph-name="ntilde" horiz-adv-x="654" unicode="&#241;" /><glyph d="M364 402 335 305H435L463 402ZM71 402 106 530H213L261 700H446L398 530H498L546 700H732L684 530H792L757 402H649L621 305H731L696 177H586L536 0H350L399 177H301L252 0H65L115 177H9L45 305H150L178 402Z" glyph-name="numbersign" horiz-adv-x="792" unicode="#" /><glyph d="M34 251Q34 319 53 369Q72 419 107.5 451.5Q143 484 193.5 500Q244 516 308 516Q446 516 514 452Q582 388 582 251Q582 119 512.5 52Q443 -15 308 -15Q34 -15 34 251ZM399 250Q399 314 378 343.5Q357 373 308 373Q258 373 237 343.5Q216 314 216 250Q216 184 238 154.5Q260 125 308 125Q356 125 377.5 154.5Q399 184 399 250Z" glyph-name="o" horiz-adv-x="616" unicode="o" /><glyph d="M34 0ZM503 704 367 570H220V575L304 711H503ZM34 251Q34 319 53 369Q72 419 107.5 451.5Q143 484 193.5 500Q244 516 308 516Q446 516 514 452Q582 388 582 251Q582 119 512.5 52Q443 -15 308 -15Q34 -15 34 251ZM399 250Q399 314 378 343.5Q357 373 308 373Q258 373 237 343.5Q216 314 216 250Q216 184 238 154.5Q260 125 308 125Q356 125 377.5 154.5Q399 184 399 250Z" glyph-name="oacute" horiz-adv-x="616" unicode="&#243;" /><glyph d="M34 0ZM34 251Q34 319 53 369Q72 419 107.5 451.5Q143 484 193.5 500Q244 516 308 516Q446 516 514 452Q582 388 582 251Q582 119 512.5 52Q443 -15 308 -15Q34 -15 34 251ZM399 250Q399 314 378 343.5Q357 373 308 373Q258 373 237 343.5Q216 314 216 250Q216 184 238 154.5Q260 125 308 125Q356 125 377.5 154.5Q399 184 399 250ZM381 710H494Q494 668 481.5 639.5Q469 611 445 593.5Q421 576 386.5 569Q352 562 308 562Q264 562 229.5 569Q195 576 171.5 593.5Q148 611 135.5 639.5Q123 668 123 710H235Q235 675 252.5 663Q270 651 308 651Q346 651 363.5 663Q381 675 381 710Z" glyph-name="obreve" horiz-adv-x="616" unicode="&#335;" /><glyph d="M34 0ZM304 622 248 570H107V574L231 711H386L511 574V570H362ZM34 251Q34 319 53 369Q72 419 107.5 451.5Q143 484 193.5 500Q244 516 308 516Q446 516 514 452Q582 388 582 251Q582 119 512.5 52Q443 -15 308 -15Q34 -15 34 251ZM399 250Q399 314 378 343.5Q357 373 308 373Q258 373 237 343.5Q216 314 216 250Q216 184 238 154.5Q260 125 308 125Q356 125 377.5 154.5Q399 184 399 250Z" glyph-name="ocircumflex" horiz-adv-x="616" unicode="&#244;" /><glyph d="M34 0ZM327 649Q327 692 352 712Q377 732 423 732Q469 732 493.5 712Q518 692 518 649Q518 604 493.5 584.5Q469 565 423 565Q377 565 352 584.5Q327 604 327 649ZM98 649Q98 692 123 712Q148 732 193 732Q239 732 263.5 712Q288 692 288 649Q288 604 263.5 584.5Q239 565 193 565Q148 565 123 584.5Q98 604 98 649ZM34 251Q34 319 53 369Q72 419 107.5 451.5Q143 484 193.5 500Q244 516 308 516Q446 516 514 452Q582 388 582 251Q582 119 512.5 52Q443 -15 308 -15Q34 -15 34 251ZM399 250Q399 314 378 343.5Q357 373 308 373Q258 373 237 343.5Q216 314 216 250Q216 184 238 154.5Q260 125 308 125Q356 125 377.5 154.5Q399 184 399 250Z" glyph-name="odieresis" horiz-adv-x="616" unicode="&#246;" /><glyph d="M33 251Q33 387 106.5 451.5Q180 516 308 516Q428 516 490 460Q558 516 667 516Q733 516 780 495.5Q827 475 857 440Q887 405 900.5 358Q914 311 914 257Q914 243 913 229Q912 215 910 199H584Q591 153 618.5 133Q646 113 691 113Q726 113 750.5 125Q775 137 791 165L903 94Q871 39 812.5 12Q754 -15 674 -15Q616 -15 568.5 -1.5Q521 12 486 41Q422 -15 308 -15Q33 -15 33 251ZM665 384Q631 384 609.5 363.5Q588 343 583 302H739Q737 341 718.5 362.5Q700 384 665 384ZM399 250Q399 314 378 343.5Q357 373 307 373Q258 373 237 343.5Q216 314 216 250Q216 184 237.5 154.5Q259 125 307 125Q355 125 377 154.5Q399 184 399 250Z" glyph-name="oe" horiz-adv-x="949" unicode="&#339;" /><glyph d="M329 -238Q300 -238 271.5 -231Q243 -224 220.5 -208.5Q198 -193 184 -167Q170 -141 170 -102Q170 -63 187 -32Q204 -1 231 19.5Q258 40 293 49.5Q328 59 364 56L365 0Q317 -4 297 -29Q277 -54 277 -85Q277 -114 297 -125Q317 -136 343 -136Q360 -136 377.5 -132Q395 -128 411 -119L437 -209Q390 -238 329 -238Z" glyph-name="ogonek" horiz-adv-x="600" unicode="&#731;" /><glyph d="M34 0ZM34 251Q34 319 53 369Q72 419 107.5 451.5Q143 484 193.5 500Q244 516 308 516Q446 516 514 452Q582 388 582 251Q582 119 512.5 52Q443 -15 308 -15Q34 -15 34 251ZM399 250Q399 314 378 343.5Q357 373 308 373Q258 373 237 343.5Q216 314 216 250Q216 184 238 154.5Q260 125 308 125Q356 125 377.5 154.5Q399 184 399 250ZM247 570 111 704V711H317L398 575V570Z" glyph-name="ograve" horiz-adv-x="616" unicode="&#242;" /><glyph d="M34 0ZM602 706 468 570H331V575L410 711H602ZM375 704 252 570H128V575L198 711H375ZM34 251Q34 319 53 369Q72 419 107.5 451.5Q143 484 193.5 500Q244 516 308 516Q446 516 514 452Q582 388 582 251Q582 119 512.5 52Q443 -15 308 -15Q34 -15 34 251ZM399 250Q399 314 378 343.5Q357 373 308 373Q258 373 237 343.5Q216 314 216 250Q216 184 238 154.5Q260 125 308 125Q356 125 377.5 154.5Q399 184 399 250Z" glyph-name="ohungarumlaut" horiz-adv-x="616" unicode="&#337;" /><glyph d="M34 0ZM461 685V584H155V685ZM34 251Q34 319 53 369Q72 419 107.5 451.5Q143 484 193.5 500Q244 516 308 516Q446 516 514 452Q582 388 582 251Q582 119 512.5 52Q443 -15 308 -15Q34 -15 34 251ZM399 250Q399 314 378 343.5Q357 373 308 373Q258 373 237 343.5Q216 314 216 250Q216 184 238 154.5Q260 125 308 125Q356 125 377.5 154.5Q399 184 399 250Z" glyph-name="omacron" horiz-adv-x="616" unicode="&#333;" /><glyph d="M67 0V162H221V480L147 434L77 588L286 709H411V162H560V0Z" glyph-name="one" horiz-adv-x="625" unicode="1" /><glyph d="M354 0H155V480L79 434L6 588L223 709H354Z" glyph-name="one.LP" horiz-adv-x="438" /><glyph d="M338 0H144V380L70 334L-1 488L210 610H338Z" glyph-name="one.OP" horiz-adv-x="405" /><glyph d="M64 0V162H220V380L147 334L75 488L287 610H415V162H561V0Z" glyph-name="one.OT" horiz-adv-x="625" /><glyph d="M5 0ZM234 -200H96V63L55 40L5 142L143 215H234Z" glyph-name="one.inf" horiz-adv-x="284" /><glyph d="M5 0ZM589 0V88L730 206Q751 225 766 242Q781 259 781 279Q781 299 768 306Q755 313 737 313Q709 313 693 301Q677 289 661 264L571 327Q602 381 647 401Q692 421 754 421Q787 421 817 415Q847 409 870 395Q893 381 907 357.5Q921 334 921 298Q921 253 897.5 217Q874 181 835 147L788 105L936 109V0ZM234 293H96V556L55 533L5 635L143 708H234ZM676 700 326 0H160L512 700Z" glyph-name="onehalf" horiz-adv-x="958" unicode="&#189;" /><glyph d="M5 0ZM234 293H96V556L55 533L5 635L143 708H234ZM676 700 326 0H160L512 700ZM526 73V162L643 409H777L663 181H755V301H884V181H926V73H884V0H755V73Z" glyph-name="onequarter" horiz-adv-x="943" unicode="&#188;" /><glyph d="M5 294ZM234 294H96V557L55 534L5 636L143 709H234Z" glyph-name="onesuperior" horiz-adv-x="284" unicode="&#185;" /><glyph d="M332 345V197H50V345Z" glyph-name="onethirdemdash" horiz-adv-x="381" /><glyph d="M191 422Q218 422 233 438Q248 454 248 483V493H205Q150 493 150 454Q150 422 191 422ZM144 337Q90 337 57.5 364Q25 391 25 442Q25 472 37.5 495Q50 518 72 533.5Q94 549 124 556.5Q154 564 189 564H248Q246 595 227.5 604.5Q209 614 183 614Q148 614 123 603.5Q98 593 80 574L32 652Q89 715 207 715Q245 715 277.5 707Q310 699 334 681Q358 663 372 633Q386 603 386 559V347H267L259 392Q242 366 213 351.5Q184 337 144 337Z" glyph-name="ordfeminine" horiz-adv-x="420" unicode="&#170;" /><glyph d="M283 525Q283 573 265.5 593Q248 613 220 613Q192 613 176.5 593Q161 573 161 525Q161 440 221 440Q249 440 266 461Q283 482 283 525ZM303 347 295 399Q276 368 246.5 352Q217 336 179 336Q110 336 68.5 382.5Q27 429 27 520Q27 621 70.5 668Q114 715 184 715Q266 715 298 656L308 704H420V347Z" glyph-name="ordfeminine.school" horiz-adv-x="458" /><glyph d="M27 526Q27 623 79.5 669Q132 715 223 715Q322 715 370.5 669.5Q419 624 419 526Q419 432 369.5 384Q320 336 223 336Q27 336 27 526ZM285 526Q285 570 270.5 590.5Q256 611 222 611Q189 611 175 590.5Q161 570 161 526Q161 481 175.5 460.5Q190 440 222 440Q285 440 285 526Z" glyph-name="ordmasculine" horiz-adv-x="434" unicode="&#186;" /><glyph d="M614 502 540 426Q587 361 587 251Q587 119 517.5 52Q448 -15 313 -15Q210 -15 144 25L119 0H14L88 75Q39 139 39 251Q39 319 58 369Q77 419 112.5 451.5Q148 484 198.5 500Q249 516 313 516Q419 516 485 477L509 502ZM222 210 372 363Q349 380 313 380Q261 380 239.5 348.5Q218 317 218 250Q218 240 219 228Q220 216 222 210ZM407 250Q407 258 406.5 270.5Q406 283 404 289L253 135Q274 118 313 118Q363 118 385 149.5Q407 181 407 250Z" glyph-name="oslash" horiz-adv-x="626" unicode="&#248;" /><glyph d="M34 0ZM34 251Q34 319 53 369Q72 419 107.5 451.5Q143 484 193.5 500Q244 516 308 516Q446 516 514 452Q582 388 582 251Q582 119 512.5 52Q443 -15 308 -15Q34 -15 34 251ZM399 250Q399 314 378 343.5Q357 373 308 373Q258 373 237 343.5Q216 314 216 250Q216 184 238 154.5Q260 125 308 125Q356 125 377.5 154.5Q399 184 399 250ZM393 708H502Q505 670 496 644.5Q487 619 471 603.5Q455 588 434 581.5Q413 575 393 575Q370 575 350.5 580Q331 585 313.5 590.5Q296 596 281 601Q266 606 251 606Q234 606 228.5 595.5Q223 585 223 574H114Q111 612 120 637.5Q129 663 145 678.5Q161 694 181.5 700.5Q202 707 223 707Q246 707 265.5 702Q285 697 302.5 691.5Q320 686 335 681Q350 676 365 676Q383 676 388 685.5Q393 695 393 708Z" glyph-name="otilde" horiz-adv-x="616" unicode="&#245;" /><glyph d="M247 247Q247 185 271.5 155Q296 125 334 125Q423 125 423 248Q423 316 400 344.5Q377 373 335 373Q297 373 272 344Q247 315 247 247ZM57 502H217L232 416Q261 465 307.5 490.5Q354 516 406 516Q504 516 556 450.5Q608 385 608 260Q608 198 594 147.5Q580 97 551.5 61Q523 25 480 5Q437 -15 379 -15Q297 -15 251 34V-186H57Z" glyph-name="p" horiz-adv-x="642" unicode="p" /><glyph d="M477 542H424V334H477ZM196 443Q196 396 220 366.5Q244 337 282 337V539Q261 539 245 531Q229 523 218 509.5Q207 496 201.5 478.5Q196 461 196 443ZM622 700V0H477V186H424V0H282V187Q228 191 181.5 209.5Q135 228 101 260Q67 292 48 337.5Q29 383 29 440Q29 497 46.5 544.5Q64 592 97 626.5Q130 661 177.5 680.5Q225 700 285 700Z" glyph-name="paragraph" horiz-adv-x="692" unicode="&#182;" /><glyph d="M355 -10 339 -167Q181 -156 105 -42Q29 72 29 280Q29 489 103.5 602Q178 715 334 726L355 570Q314 565 283 548.5Q252 532 231 498Q210 464 199 411Q188 358 188 280Q188 202 199 148.5Q210 95 231 61Q252 27 283 10.5Q314 -6 355 -10Z" glyph-name="parenleft" horiz-adv-x="376" unicode="(" /><glyph d="M22 0ZM223 -206 212 -307Q115 -299 68.5 -231Q22 -163 22 -42Q22 79 67.5 146.5Q113 214 208 222L223 121Q199 118 180.5 108.5Q162 99 149.5 80Q137 61 130.5 31Q124 1 124 -42Q124 -86 130.5 -116Q137 -146 149.5 -165Q162 -184 180.5 -193.5Q199 -203 223 -206Z" glyph-name="parenleft.inf" horiz-adv-x="240" /><glyph d="M21 -10Q62 -6 93 10.5Q124 27 145 61Q166 95 177 148.5Q188 202 188 280Q188 358 177 411Q166 464 145 498Q124 532 93 548.5Q62 565 21 570L42 726Q198 715 272.5 602Q347 489 347 280Q347 72 271 -42Q195 -156 37 -167Z" glyph-name="parenright" horiz-adv-x="376" unicode=")" /><glyph d="M16 0ZM28 -307 16 -206Q40 -203 59 -193.5Q78 -184 90.5 -165Q103 -146 109.5 -116Q116 -86 116 -42Q116 1 109.5 31Q103 61 90.5 80Q78 99 59 108.5Q40 118 16 121L31 222Q126 214 171.5 146.5Q217 79 217 -42Q217 -163 171 -231Q125 -299 28 -307Z" glyph-name="parenright.inf" horiz-adv-x="240" /><glyph d="M26 0ZM662 203Q662 312 709 367Q756 422 861 422Q965 422 1012.5 367Q1060 312 1060 203Q1060 94 1013 39.5Q966 -15 861 -15Q756 -15 709 39.5Q662 94 662 203ZM924 203Q924 268 907.5 293Q891 318 861 318Q831 318 814.5 293.5Q798 269 798 204Q798 139 814.5 114Q831 89 861 89Q891 89 907.5 113.5Q924 138 924 203ZM26 496Q26 605 73 660Q120 715 225 715Q329 715 376.5 660Q424 605 424 496Q424 387 377 332.5Q330 278 225 278Q120 278 73 332.5Q26 387 26 496ZM288 496Q288 561 271.5 586Q255 611 225 611Q195 611 178.5 586.5Q162 562 162 497Q162 432 178.5 407Q195 382 225 382Q255 382 271.5 406.5Q288 431 288 496ZM800 700 450 0H284L636 700Z" glyph-name="percent" horiz-adv-x="1087" unicode="%" /><glyph d="M33 86Q33 134 59.5 157.5Q86 181 135 181Q184 181 210.5 157.5Q237 134 237 86Q237 40 210.5 16Q184 -8 135 -8Q86 -8 59.5 15.5Q33 39 33 86Z" glyph-name="period" horiz-adv-x="270" unicode="." /><glyph d="M33 245ZM33 339Q33 387 59.5 410.5Q86 434 135 434Q184 434 210.5 410.5Q237 387 237 339Q237 293 210.5 269Q184 245 135 245Q86 245 59.5 268.5Q33 292 33 339Z" glyph-name="periodcentered" horiz-adv-x="270" unicode="&#183;" /><glyph d="M26 0ZM662 203Q662 312 709 367Q756 422 861 422Q965 422 1012.5 367Q1060 312 1060 203Q1060 94 1013 39.5Q966 -15 861 -15Q756 -15 709 39.5Q662 94 662 203ZM924 203Q924 268 907.5 293Q891 318 861 318Q831 318 814.5 293.5Q798 269 798 204Q798 139 814.5 114Q831 89 861 89Q891 89 907.5 113.5Q924 138 924 203ZM26 496Q26 605 73 660Q120 715 225 715Q329 715 376.5 660Q424 605 424 496Q424 387 377 332.5Q330 278 225 278Q120 278 73 332.5Q26 387 26 496ZM288 496Q288 561 271.5 586Q255 611 225 611Q195 611 178.5 586.5Q162 562 162 497Q162 432 178.5 407Q195 382 225 382Q255 382 271.5 406.5Q288 431 288 496ZM1102 203Q1102 312 1149 367Q1196 422 1301 422Q1405 422 1452.5 367Q1500 312 1500 203Q1500 94 1453 39.5Q1406 -15 1301 -15Q1196 -15 1149 39.5Q1102 94 1102 203ZM1364 203Q1364 268 1347.5 293Q1331 318 1301 318Q1271 318 1254.5 293.5Q1238 269 1238 204Q1238 139 1254.5 114Q1271 89 1301 89Q1331 89 1347.5 113.5Q1364 138 1364 203ZM800 700 450 0H284L636 700Z" glyph-name="perthousand" horiz-adv-x="1528" unicode="&#8240;" /><glyph d="M317 110H195V259H50V363H195V515H317V363H462V259H317Z" glyph-name="plus" horiz-adv-x="512" unicode="+" /><glyph d="M26 0ZM208 -143H110V-58H26V20H110V107H208V20H292V-58H208Z" glyph-name="plus.inf" horiz-adv-x="318" /><glyph d="M317 153H195V280H50V384H195V515H317V384H462V280H317ZM462 104V0H50V104Z" glyph-name="plusminus" horiz-adv-x="512" unicode="&#177;" /><glyph glyph-name="punctuationspace" horiz-adv-x="270" unicode="&#8200;" /><glyph d="M585 -186H391V50Q340 -15 248 -15Q152 -15 93 49.5Q34 114 34 242Q34 312 50.5 364Q67 416 96.5 449.5Q126 483 166.5 499.5Q207 516 256 516Q311 516 351.5 495.5Q392 475 416 433L429 502H585ZM395 250Q395 318 369.5 346.5Q344 375 304 375Q265 375 242.5 346Q220 317 220 250Q220 128 304 128Q345 128 370 157.5Q395 187 395 250Z" glyph-name="q" horiz-adv-x="642" unicode="q" /><glyph d="M176 229 167 414H232Q283 414 309 435Q335 456 335 502Q335 536 310.5 558.5Q286 581 232 581Q192 581 162.5 563Q133 545 111 496L-4 570Q33 645 98 684.5Q163 724 257 724Q381 724 444 672Q507 620 507 513Q507 464 493.5 427Q480 390 456 364.5Q432 339 398.5 324Q365 309 326 305L319 229ZM141 86Q141 134 167.5 157.5Q194 181 243 181Q292 181 318.5 157.5Q345 134 345 86Q345 40 318.5 16Q292 -8 243 -8Q194 -8 167.5 15.5Q141 39 141 86Z" glyph-name="question" horiz-adv-x="524" unicode="?" /><glyph d="M348 282 357 97H292Q241 97 215 76Q189 55 189 9Q189 -25 213.5 -47.5Q238 -70 292 -70Q332 -70 361.5 -52Q391 -34 413 15L528 -59Q491 -134 426 -173.5Q361 -213 267 -213Q143 -213 80 -161Q17 -109 17 -2Q17 47 30.5 84Q44 121 68 146.5Q92 172 125.5 186.5Q159 201 198 206L205 282ZM383 425Q383 377 356.5 353.5Q330 330 281 330Q232 330 205.5 353.5Q179 377 179 425Q179 471 205.5 495Q232 519 281 519Q330 519 356.5 495.5Q383 472 383 425Z" glyph-name="questiondown" horiz-adv-x="524" unicode="&#191;" /><glyph d="M345 476 354 291H289Q238 291 212 270Q186 249 186 203Q186 169 210.5 146.5Q235 124 289 124Q329 124 358.5 142Q388 160 410 209L525 135Q488 60 423 20.5Q358 -19 264 -19Q140 -19 77 33Q14 85 14 192Q14 241 27.5 278Q41 315 65 340.5Q89 366 122.5 380.5Q156 395 195 400L202 476ZM380 619Q380 571 353.5 547.5Q327 524 278 524Q229 524 202.5 547.5Q176 571 176 619Q176 665 202.5 689Q229 713 278 713Q327 713 353.5 689.5Q380 666 380 619Z" glyph-name="questiondown.cap" horiz-adv-x="523" /><glyph d="M248 413 236 715H394L369 413ZM190 413H69L44 715H201Z" glyph-name="quotedbl" horiz-adv-x="437" unicode="&quot;" /><glyph d="M70 -149 34 -77Q63 -68 84 -51Q105 -34 115 -6Q73 -3 52.5 19.5Q32 42 32 80Q32 125 57 147Q82 169 128 169Q174 169 200 143Q226 117 226 62Q226 -23 185.5 -77Q145 -131 70 -149ZM293 -149 257 -77Q286 -68 307 -51Q328 -34 338 -6Q296 -3 275.5 19.5Q255 42 255 80Q255 125 280 147Q305 169 351 169Q397 169 423 143Q449 117 449 62Q449 -23 408.5 -77Q368 -131 293 -149Z" glyph-name="quotedblbase" horiz-adv-x="479" unicode="&#8222;" /><glyph d="M187 758 224 684Q195 676 173.5 658.5Q152 641 142 613Q184 610 205 587Q226 564 226 526Q226 481 200.5 459Q175 437 129 437Q83 437 56.5 463Q30 489 30 545Q30 631 71 685Q112 739 187 758ZM410 758 447 684Q418 676 396.5 658.5Q375 641 365 613Q407 610 428 587Q449 564 449 526Q449 481 423.5 459Q398 437 352 437Q306 437 279.5 463Q253 489 253 545Q253 631 294 685Q335 739 410 758Z" glyph-name="quotedblleft" horiz-adv-x="479" unicode="&#8220;" /><glyph d="M70 430 33 503Q62 511 83.5 528.5Q105 546 115 574Q73 577 52 600Q31 623 31 661Q31 706 56.5 728Q82 750 128 750Q174 750 200 724Q226 698 226 642Q226 556 185.5 502Q145 448 70 430ZM293 430 256 503Q285 511 306.5 528.5Q328 546 338 574Q296 577 275 600Q254 623 254 661Q254 706 279.5 728Q305 750 351 750Q397 750 423 724Q449 698 449 642Q449 556 408.5 502Q368 448 293 430Z" glyph-name="quotedblright" horiz-adv-x="479" unicode="&#8221;" /><glyph d="M187 758 224 684Q195 676 173.5 658.5Q152 641 142 613Q184 610 205 587Q226 564 226 526Q226 481 200.5 459Q175 437 129 437Q83 437 56.5 463Q30 489 30 545Q30 631 71 685Q112 739 187 758Z" glyph-name="quoteleft" horiz-adv-x="256" unicode="&#8216;" /><glyph d="M71 430 34 503Q63 511 84.5 528.5Q106 546 116 574Q74 577 53 600Q32 623 32 661Q32 706 57.5 728Q83 750 129 750Q175 750 201 724Q227 698 227 642Q227 556 186.5 502Q146 448 71 430Z" glyph-name="quoteright" horiz-adv-x="256" unicode="&#8217;" /><glyph d="M70 -150 34 -77Q63 -68 84 -51Q105 -34 115 -6Q73 -3 52.5 19.5Q32 42 32 80Q32 125 57 147Q82 169 128 169Q174 169 200 143Q226 117 226 62Q226 -23 185.5 -77Q145 -131 70 -150Z" glyph-name="quotesinglbase" horiz-adv-x="256" unicode="&#8218;" /><glyph d="M62 413 44 715H201L183 413Z" glyph-name="quotesingle" horiz-adv-x="244" unicode="'" /><glyph d="M57 0V502H216L232 405Q258 458 303 488Q348 518 406 518L408 334Q327 339 289.5 295.5Q252 252 251 179V0Z" glyph-name="r" horiz-adv-x="427" unicode="r" /><glyph d="M57 0ZM426 704 290 570H143V575L227 711H426ZM57 0V502H216L232 405Q258 458 303 488Q348 518 406 518L408 334Q327 339 289.5 295.5Q252 252 251 179V0Z" glyph-name="racute" horiz-adv-x="427" unicode="&#341;" /><glyph d="M40 0ZM247 659 304 711H444V708L320 570H164L40 708V711H188ZM57 0V502H216L232 405Q258 458 303 488Q348 518 406 518L408 334Q327 339 289.5 295.5Q252 252 251 179V0Z" glyph-name="rcaron" horiz-adv-x="427" unicode="&#345;" /><glyph d="M57 0ZM98 -354 65 -287Q98 -279 122 -260.5Q146 -242 154 -216Q110 -216 85 -195.5Q60 -175 60 -136Q60 -93 85 -71.5Q110 -50 158 -50Q205 -50 231.5 -77Q258 -104 258 -158Q258 -197 246.5 -230Q235 -263 214 -289Q193 -315 163.5 -331.5Q134 -348 98 -354ZM57 0V502H216L232 405Q258 458 303 488Q348 518 406 518L408 334Q327 339 289.5 295.5Q252 252 251 179V0Z" glyph-name="rcommaaccent" horiz-adv-x="427" unicode="&#343;" /><glyph d="M39 521Q39 610 90.5 662.5Q142 715 237 715Q331 715 382.5 662.5Q434 610 434 521Q434 434 382.5 380.5Q331 327 237 327Q190 327 153 341Q116 355 90.5 380.5Q65 406 52 441.5Q39 477 39 521ZM78 521Q78 441 123 400.5Q168 360 237 360Q271 360 300 370Q329 380 350 400.5Q371 421 383 451Q395 481 395 521Q395 561 383 591Q371 621 350 641.5Q329 662 300 672Q271 682 237 682Q168 682 123 641.5Q78 601 78 521ZM238 572H211V528H235Q265 528 265 551Q265 572 238 572ZM152 429V621H253Q288 621 305.5 601.5Q323 582 323 549Q323 528 315.5 514Q308 500 294 491L326 429H262L239 478H211V429Z" glyph-name="registered" horiz-adv-x="473" unicode="&#174;" /><glyph d="M185 429Q110 448 69.5 502Q29 556 29 642Q29 698 55 724Q81 750 127 750Q173 750 198.5 728Q224 706 224 661Q224 623 203 600Q182 577 140 574Q151 546 172 528.5Q193 511 222 503ZM409 429Q334 448 293.5 502Q253 556 253 642Q253 698 279 724Q305 750 351 750Q397 750 422.5 728Q448 706 448 661Q448 623 427 600Q406 577 364 574Q375 546 396 528.5Q417 511 446 503Z" glyph-name="reversequotedblleft" horiz-adv-x="479" /><glyph d="M186 429Q111 448 70.5 502Q30 556 30 642Q30 698 56 724Q82 750 128 750Q174 750 199.5 728Q225 706 225 661Q225 623 204 600Q183 577 141 574Q152 546 173 528.5Q194 511 223 503Z" glyph-name="reversequoteleft" horiz-adv-x="256" /><glyph d="M178 659Q178 712 213 739.5Q248 767 302 767Q356 767 390.5 739.5Q425 712 425 659Q425 605 390 577.5Q355 550 301 550Q247 550 212.5 577.5Q178 605 178 659ZM258 659Q258 639 270 627.5Q282 616 301 616Q321 616 333 627.5Q345 639 345 659Q345 679 333 689.5Q321 700 302 700Q282 700 270 689.5Q258 679 258 659Z" glyph-name="ring" horiz-adv-x="600" unicode="&#730;" /><glyph d="M242 103Q313 103 313 130Q313 146 296 153Q279 160 245 167L199 176Q165 183 135.5 196Q106 209 84 229Q62 249 49.5 275.5Q37 302 37 337Q37 375 50 408Q63 441 90 465Q117 489 158.5 502.5Q200 516 257 516Q329 516 384 495.5Q439 475 477 427L386 334Q366 357 337 374Q308 391 262 391Q233 391 216 383.5Q199 376 199 359Q199 347 211.5 337Q224 327 254 321L317 309Q403 292 441 252Q479 212 479 158Q479 125 466.5 94Q454 63 426.5 39Q399 15 354 0.5Q309 -14 244 -14Q163 -14 102.5 9Q42 32 10 78L93 170Q116 138 155 120.5Q194 103 242 103Z" glyph-name="s" horiz-adv-x="510" unicode="s" /><glyph d="M10 0ZM449 704 313 570H166V575L250 711H449ZM242 103Q313 103 313 130Q313 146 296 153Q279 160 245 167L199 176Q165 183 135.5 196Q106 209 84 229Q62 249 49.5 275.5Q37 302 37 337Q37 375 50 408Q63 441 90 465Q117 489 158.5 502.5Q200 516 257 516Q329 516 384 495.5Q439 475 477 427L386 334Q366 357 337 374Q308 391 262 391Q233 391 216 383.5Q199 376 199 359Q199 347 211.5 337Q224 327 254 321L317 309Q403 292 441 252Q479 212 479 158Q479 125 466.5 94Q454 63 426.5 39Q399 15 354 0.5Q309 -14 244 -14Q163 -14 102.5 9Q42 32 10 78L93 170Q116 138 155 120.5Q194 103 242 103Z" glyph-name="sacute" horiz-adv-x="510" unicode="&#347;" /><glyph d="M10 0ZM257 659 314 711H454V708L330 570H174L50 708V711H198ZM242 103Q313 103 313 130Q313 146 296 153Q279 160 245 167L199 176Q165 183 135.5 196Q106 209 84 229Q62 249 49.5 275.5Q37 302 37 337Q37 375 50 408Q63 441 90 465Q117 489 158.5 502.5Q200 516 257 516Q329 516 384 495.5Q439 475 477 427L386 334Q366 357 337 374Q308 391 262 391Q233 391 216 383.5Q199 376 199 359Q199 347 211.5 337Q224 327 254 321L317 309Q403 292 441 252Q479 212 479 158Q479 125 466.5 94Q454 63 426.5 39Q399 15 354 0.5Q309 -14 244 -14Q163 -14 102.5 9Q42 32 10 78L93 170Q116 138 155 120.5Q194 103 242 103Z" glyph-name="scaron" horiz-adv-x="510" unicode="&#353;" /><glyph d="M232 -258Q184 -258 143 -240Q102 -222 79 -184L139 -122Q155 -145 175.5 -157.5Q196 -170 225 -170Q245 -170 258.5 -162Q272 -154 272 -135Q272 -121 258.5 -111Q245 -101 220 -101Q214 -101 208.5 -102Q203 -103 197 -104L170 -89L198 -12Q134 -6 86 16.5Q38 39 10 78L93 170Q116 138 155 120.5Q194 103 242 103Q313 103 313 130Q313 146 296 153Q279 160 245 167L199 176Q165 183 135.5 196Q106 209 84 229Q62 249 49.5 275.5Q37 302 37 337Q37 375 50 408Q63 441 90 465Q117 489 158.5 502.5Q200 516 257 516Q329 516 384 495.5Q439 475 477 427L386 334Q366 357 337 374Q308 391 262 391Q233 391 216 383.5Q199 376 199 359Q199 347 211.5 337Q224 327 254 321L317 309Q403 292 441 252Q479 212 479 158Q479 128 468.5 99.5Q458 71 435.5 48Q413 25 376 9Q339 -7 287 -12L273 -45H274Q295 -47 314.5 -53.5Q334 -60 349.5 -72Q365 -84 374 -101.5Q383 -119 383 -141Q383 -171 371 -193Q359 -215 338 -229.5Q317 -244 289.5 -251Q262 -258 232 -258Z" glyph-name="scedilla" horiz-adv-x="510" unicode="&#351;" /><glyph d="M10 0ZM247 622 191 570H50V574L174 711H329L454 574V570H305ZM242 103Q313 103 313 130Q313 146 296 153Q279 160 245 167L199 176Q165 183 135.5 196Q106 209 84 229Q62 249 49.5 275.5Q37 302 37 337Q37 375 50 408Q63 441 90 465Q117 489 158.5 502.5Q200 516 257 516Q329 516 384 495.5Q439 475 477 427L386 334Q366 357 337 374Q308 391 262 391Q233 391 216 383.5Q199 376 199 359Q199 347 211.5 337Q224 327 254 321L317 309Q403 292 441 252Q479 212 479 158Q479 125 466.5 94Q454 63 426.5 39Q399 15 354 0.5Q309 -14 244 -14Q163 -14 102.5 9Q42 32 10 78L93 170Q116 138 155 120.5Q194 103 242 103Z" glyph-name="scircumflex" horiz-adv-x="510" unicode="&#349;" /><glyph d="M10 0ZM180 -354 147 -287Q180 -279 204 -260.5Q228 -242 236 -216Q192 -216 167 -195.5Q142 -175 142 -136Q142 -93 167 -71.5Q192 -50 240 -50Q287 -50 313.5 -77Q340 -104 340 -158Q340 -197 328.5 -230Q317 -263 296 -289Q275 -315 245.5 -331.5Q216 -348 180 -354ZM242 103Q313 103 313 130Q313 146 296 153Q279 160 245 167L199 176Q165 183 135.5 196Q106 209 84 229Q62 249 49.5 275.5Q37 302 37 337Q37 375 50 408Q63 441 90 465Q117 489 158.5 502.5Q200 516 257 516Q329 516 384 495.5Q439 475 477 427L386 334Q366 357 337 374Q308 391 262 391Q233 391 216 383.5Q199 376 199 359Q199 347 211.5 337Q224 327 254 321L317 309Q403 292 441 252Q479 212 479 158Q479 125 466.5 94Q454 63 426.5 39Q399 15 354 0.5Q309 -14 244 -14Q163 -14 102.5 9Q42 32 10 78L93 170Q116 138 155 120.5Q194 103 242 103Z" glyph-name="scommaaccent" horiz-adv-x="510" unicode="&#537;" /><glyph d="M329 327Q329 347 314.5 359.5Q300 372 266 380L252 383Q218 391 202 378.5Q186 366 186 346Q186 328 200.5 314.5Q215 301 249 293L263 290Q297 282 313 294.5Q329 307 329 327ZM247 -37Q172 -37 118 -17Q64 3 31 47L121 135Q141 111 169.5 96Q198 81 243 81Q311 81 311 120Q311 137 294.5 146.5Q278 156 246 163L213 171Q120 194 81 237Q42 280 42 339Q42 371 55.5 399.5Q69 428 99 446Q73 467 62 493.5Q51 520 51 550Q51 622 103.5 668.5Q156 715 263 715Q396 715 458 637L370 547Q347 569 323 580.5Q299 592 265 592Q204 592 204 553Q204 541 215.5 530Q227 519 262 511L315 499Q398 480 437.5 441.5Q477 403 477 338Q477 307 464 279Q451 251 419 232Q472 194 472 127Q472 95 460.5 65Q449 35 422.5 12.5Q396 -10 353 -23.5Q310 -37 247 -37Z" glyph-name="section" horiz-adv-x="519" unicode="&#167;" /><glyph d="M32 0ZM73 -160 34 -82Q65 -73 87.5 -54.5Q110 -36 121 -6Q76 -3 54 21Q32 45 32 86Q32 134 59 157.5Q86 181 135 181Q184 181 212 153.5Q240 126 240 66Q240 -25 197 -82.5Q154 -140 73 -160ZM33 408Q33 456 59.5 479.5Q86 503 135 503Q184 503 210.5 479.5Q237 456 237 408Q237 362 210.5 338Q184 314 135 314Q86 314 59.5 337.5Q33 361 33 408Z" glyph-name="semicolon" horiz-adv-x="270" unicode=";" /><glyph d="M160 0Q160 85 176.5 162.5Q193 240 222 307.5Q251 375 291.5 432.5Q332 490 380 536L45 529V700H580V570Q532 510 494.5 451Q457 392 430.5 325.5Q404 259 390.5 179.5Q377 100 377 0Z" glyph-name="seven" horiz-adv-x="625" unicode="7" /><glyph d="M136 0Q136 85 152.5 162.5Q169 240 198.5 307.5Q228 375 269 432.5Q310 490 359 536L19 529V700H563V570Q514 510 475.5 451Q437 392 410.5 325.5Q384 259 370 179.5Q356 100 356 0Z" glyph-name="seven.LP" horiz-adv-x="565" /><glyph d="M132 -100Q132 -15 148 62.5Q164 140 193 207.5Q222 275 261.5 332.5Q301 390 348 436L19 429V600H547V470Q500 410 463 351Q426 292 400.5 225.5Q375 159 361 79.5Q347 0 347 -100Z" glyph-name="seven.OP" horiz-adv-x="549" /><glyph d="M151 -100Q151 -15 167.5 62.5Q184 140 213 207.5Q242 275 282.5 332.5Q323 390 371 436L36 429V600H571V470Q523 410 485.5 351Q448 292 421.5 225.5Q395 159 381.5 79.5Q368 0 368 -100Z" glyph-name="seven.OT" horiz-adv-x="625" /><glyph d="M12 0ZM233 -200H80Q80 -103 116 -27.5Q152 48 208 99L12 95V208H350V124Q318 84 296 48Q274 12 260 -25.5Q246 -63 239.5 -105Q233 -147 233 -200Z" glyph-name="seven.inf" horiz-adv-x="357" /><glyph d="M339 -15Q189 -15 107.5 73.5Q26 162 26 347Q26 435 45 503.5Q64 572 103 619Q142 666 201 690.5Q260 715 340 715Q429 715 497 686Q565 657 595 597L480 495Q473 508 463.5 521Q454 534 439 544Q424 554 404 560.5Q384 567 356 567Q281 567 246 517.5Q211 468 211 357V337Q231 383 274.5 412Q318 441 383 441Q431 441 470.5 427Q510 413 538.5 385.5Q567 358 583 317Q599 276 599 222Q599 171 583 127.5Q567 84 535 52.5Q503 21 454 3Q405 -15 339 -15ZM232 219Q232 180 256.5 155.5Q281 131 323 131Q367 131 391.5 154Q416 177 416 219Q416 258 394.5 282.5Q373 307 327 307Q288 307 260 285.5Q232 264 232 219Z" glyph-name="six" horiz-adv-x="625" unicode="6" /><glyph d="M378 -15Q221 -15 135.5 73.5Q50 162 50 347Q50 435 69.5 503.5Q89 572 129.5 619Q170 666 232 690.5Q294 715 379 715Q470 715 538.5 686Q607 657 638 597L521 495Q514 508 504 521Q494 534 479.5 544Q465 554 444 560.5Q423 567 395 567Q317 567 281 517.5Q245 468 245 357V337Q266 383 310.5 412Q355 441 422 441Q473 441 515.5 427Q558 413 588.5 385.5Q619 358 635.5 317Q652 276 652 222Q652 171 635 127.5Q618 84 584 52.5Q550 21 498.5 3Q447 -15 378 -15ZM267 219Q267 180 291.5 155.5Q316 131 361 131Q407 131 433 154Q459 177 459 219Q459 258 436.5 282.5Q414 307 365 307Q325 307 296 285.5Q267 264 267 219Z" glyph-name="six.LP" horiz-adv-x="695" /><glyph d="M367 -15Q214 -15 131.5 73.5Q49 162 49 347Q49 435 68 503.5Q87 572 126 619Q165 666 225 690.5Q285 715 367 715Q457 715 525 686Q593 657 623 597L506 495Q499 508 489.5 521Q480 534 466 544Q452 554 431.5 560.5Q411 567 383 567Q306 567 271.5 517.5Q237 468 237 357V337Q257 383 301 412Q345 441 411 441Q460 441 500 427Q540 413 569 385.5Q598 358 614 317Q630 276 630 222Q630 171 614 127.5Q598 84 565.5 52.5Q533 21 483.5 3Q434 -15 367 -15ZM258 219Q258 180 282.5 155.5Q307 131 349 131Q394 131 419 154Q444 177 444 219Q444 258 423 282.5Q402 307 354 307Q315 307 286.5 285.5Q258 264 258 219Z" glyph-name="six.OP" horiz-adv-x="671" /><glyph d="M340 -15Q190 -15 108.5 73.5Q27 162 27 347Q27 435 46 503.5Q65 572 104 619Q143 666 202 690.5Q261 715 341 715Q431 715 498.5 686Q566 657 597 597L482 495Q475 508 465 521Q455 534 440.5 544Q426 554 405.5 560.5Q385 567 357 567Q282 567 247 517.5Q212 468 212 357V337Q233 383 276 412Q319 441 384 441Q432 441 472 427Q512 413 540.5 385.5Q569 358 584.5 317Q600 276 600 222Q600 171 584.5 127.5Q569 84 536.5 52.5Q504 21 455 3Q406 -15 340 -15ZM234 219Q234 180 258 155.5Q282 131 324 131Q368 131 392.5 154Q417 177 417 219Q417 258 396 282.5Q375 307 328 307Q289 307 261.5 285.5Q234 264 234 219Z" glyph-name="six.OT" horiz-adv-x="625" /><glyph d="M25 0ZM227 -213Q128 -213 76.5 -160.5Q25 -108 25 2Q25 104 73 162.5Q121 221 227 221Q284 221 327 203Q370 185 389 148L309 79Q302 92 287 106Q272 120 239 120Q195 120 176 94Q157 68 157 9Q171 31 196 45Q221 59 257 59Q317 59 354.5 26.5Q392 -6 392 -72Q392 -133 351.5 -173Q311 -213 227 -213ZM169 -72Q169 -89 181 -101.5Q193 -114 216 -114Q238 -114 250.5 -103Q263 -92 263 -72Q263 -55 252 -43.5Q241 -32 217 -32Q198 -32 183.5 -41.5Q169 -51 169 -72Z" glyph-name="six.inf" horiz-adv-x="420" /><glyph glyph-name="sixperemspace" horiz-adv-x="167" unicode="&#8198;" /><glyph d="M583 700 215 0H2L369 700Z" glyph-name="slash" horiz-adv-x="584" unicode="/" /><glyph glyph-name="space" horiz-adv-x="235" unicode=" " /><glyph d="M29 0V153H59Q100 153 97 237L95 280H29V399H91L88 478Q86 549 109 595Q132 641 171 667.5Q210 694 260 704.5Q310 715 360 715Q407 715 444 707.5Q481 700 511 682.5Q541 665 565.5 637Q590 609 611 569L480 477Q460 514 435.5 535Q411 556 369 556Q320 556 300 530Q280 504 282 456L284 399H430V280H291L292 235V215Q292 204 290.5 192Q289 180 287 169Q285 158 281 152H412Q491 152 549 210L632 90Q588 35 533.5 17.5Q479 0 409 0Z" glyph-name="sterling" horiz-adv-x="649" unicode="&#163;" /><glyph d="M13 502H84V642H274V502H403V362H274V189Q274 122 338 122Q373 122 400 136L425 21Q396 4 360 -5.5Q324 -15 281 -15Q241 -15 205 -6Q169 3 142 24Q115 45 99.5 80.5Q84 116 84 170V362H13Z" glyph-name="t" horiz-adv-x="432" unicode="t" /><glyph d="M403 502V362H274V311H402V215H274V183Q277 122 338 122Q355 122 370.5 125.5Q386 129 400 137L425 21Q396 4 360 -5.5Q324 -15 281 -15Q241 -15 205 -6Q169 3 142 24Q115 45 99.5 80.5Q84 116 84 170V215H13V311H84V362H13V502H84V642H274V502Z" glyph-name="tbar" horiz-adv-x="429" unicode="&#359;" /><glyph d="M446 554H328L335 751H470ZM13 502H84V642H274V502H403V362H274V189Q274 122 338 122Q373 122 400 136L425 21Q396 4 360 -5.5Q324 -15 281 -15Q241 -15 205 -6Q169 3 142 24Q115 45 99.5 80.5Q84 116 84 170V362H13Z" glyph-name="tcaron" horiz-adv-x="447" unicode="&#357;" /><glyph d="M13 0ZM220 -354 187 -287Q220 -279 244 -260.5Q268 -242 276 -216Q232 -216 207 -195.5Q182 -175 182 -136Q182 -93 207 -71.5Q232 -50 280 -50Q327 -50 353.5 -77Q380 -104 380 -158Q380 -197 368.5 -230Q357 -263 336 -289Q315 -315 285.5 -331.5Q256 -348 220 -354ZM13 502H84V642H274V502H403V362H274V189Q274 122 338 122Q373 122 400 136L425 21Q396 4 360 -5.5Q324 -15 281 -15Q241 -15 205 -6Q169 3 142 24Q115 45 99.5 80.5Q84 116 84 170V362H13Z" glyph-name="tcommaaccent" horiz-adv-x="429" unicode="&#355;" /><glyph glyph-name="thinspace" horiz-adv-x="200" unicode="&#8201;" /><glyph d="M247 247Q247 185 271.5 155Q296 125 334 125Q423 125 423 248Q423 316 400 344.5Q377 373 335 373Q297 373 272 344Q247 315 247 247ZM251 700V441Q277 480 318.5 498Q360 516 406 516Q504 516 556 450.5Q608 385 608 260Q608 198 594 147.5Q580 97 551.5 61Q523 25 480 5Q437 -15 379 -15Q295 -15 251 37V-186H57V700Z" glyph-name="thorn" horiz-adv-x="643" unicode="&#254;" /><glyph d="M314 -15Q220 -15 150.5 18Q81 51 36 130L169 218Q195 171 225 152.5Q255 134 300 134Q347 134 374.5 152Q402 170 402 211Q402 246 378 263Q354 280 300 280H228V419H300Q388 419 388 487Q388 524 364 542Q340 560 295 560Q252 560 228 542Q204 524 183 487L51 561Q93 645 158.5 680Q224 715 318 715Q446 715 511 661Q576 607 576 514Q576 457 552.5 420Q529 383 487 358Q534 335 561 299Q588 263 588 201Q588 152 569.5 112Q551 72 516 44Q481 16 430 0.5Q379 -15 314 -15Z" glyph-name="three" horiz-adv-x="625" unicode="3" /><glyph d="M303 -15Q206 -15 135 18Q64 51 17 130L158 221Q185 175 216.5 156Q248 137 293 137Q339 137 366 155Q393 173 393 211Q393 246 369 263Q345 280 288 280H215V419H288Q378 419 378 487Q378 522 354 539.5Q330 557 285 557Q241 557 216 538.5Q191 520 170 483L32 561Q76 645 143.5 680Q211 715 307 715Q439 715 506.5 661Q574 607 574 514Q574 457 549 420Q524 383 482 358Q530 335 557.5 299Q585 263 585 201Q585 102 512 43.5Q439 -15 303 -15Z" glyph-name="three.LP" horiz-adv-x="631" /><glyph d="M293 -116Q199 -116 130 -83Q61 -50 16 30L151 117Q177 71 206.5 52Q236 33 279 33Q326 33 353.5 51.5Q381 70 381 111Q381 146 357 163Q333 180 279 180H208V319H279Q366 319 366 387Q366 424 342.5 442.5Q319 461 275 461Q233 461 209.5 442.5Q186 424 166 387L31 461Q73 545 138.5 580Q204 615 297 615Q426 615 492 560.5Q558 506 558 414Q558 357 534 320Q510 283 468 258Q515 235 542.5 199Q570 163 570 101Q570 51 551.5 11Q533 -29 498 -57Q463 -85 411 -100.5Q359 -116 293 -116Z" glyph-name="three.OP" horiz-adv-x="612" /><glyph d="M305 -115Q211 -115 142 -82Q73 -49 28 30L161 118Q187 71 217 52.5Q247 34 292 34Q339 34 366.5 52Q394 70 394 111Q394 146 370 163Q346 180 292 180H220V319H292Q379 319 379 387Q379 424 355.5 442Q332 460 287 460Q244 460 220 442Q196 424 175 387L43 461Q85 545 150.5 580Q216 615 309 615Q437 615 502.5 561Q568 507 568 414Q568 357 544.5 320Q521 283 479 258Q526 235 553 199Q580 163 580 101Q580 52 561.5 12Q543 -28 508 -56Q473 -84 422 -99.5Q371 -115 305 -115Z" glyph-name="three.OT" horiz-adv-x="625" /><glyph d="M11 0ZM188 -214Q129 -214 84.5 -194Q40 -174 11 -126L106 -67Q122 -93 138.5 -102Q155 -111 180 -111Q203 -111 216.5 -103Q230 -95 230 -77Q230 -61 217 -53Q204 -45 174 -45H136V46H174Q221 46 221 81Q221 114 175 114Q152 114 138.5 104Q125 94 114 73L18 125Q47 178 88.5 199.5Q130 221 190 221Q274 221 316 187.5Q358 154 358 98Q358 66 343 43.5Q328 21 303 6Q331 -8 347.5 -28.5Q364 -49 364 -85Q364 -145 317.5 -179.5Q271 -214 188 -214Z" glyph-name="three.inf" horiz-adv-x="390" /><glyph glyph-name="threeperemspace" horiz-adv-x="333" unicode="&#8196;" /><glyph d="M645 345V197H50V345Z" glyph-name="threequarteremdash" horiz-adv-x="694" /><glyph d="M11 0ZM188 279Q129 279 84.5 299Q40 319 11 367L106 426Q122 400 138.5 391Q155 382 180 382Q203 382 216.5 390Q230 398 230 416Q230 432 217 440Q204 448 174 448H136V539H174Q221 539 221 574Q221 607 175 607Q152 607 138.5 597Q125 587 114 566L18 618Q47 671 88.5 692.5Q130 714 190 714Q274 714 316 680.5Q358 647 358 591Q358 559 343 536.5Q328 514 303 499Q331 485 347.5 464.5Q364 444 364 408Q364 348 317.5 313.5Q271 279 188 279ZM765 700 415 0H249L601 700ZM607 73V162L724 409H858L744 181H836V301H965V181H1007V73H965V0H836V73Z" glyph-name="threequarters" horiz-adv-x="1024" unicode="&#190;" /><glyph d="M11 280ZM188 280Q129 280 84.5 300Q40 320 11 368L106 427Q122 401 138.5 392Q155 383 180 383Q203 383 216.5 391Q230 399 230 417Q230 433 217 441Q204 449 174 449H136V540H174Q221 540 221 575Q221 608 175 608Q152 608 138.5 598Q125 588 114 567L18 619Q47 672 88.5 693.5Q130 715 190 715Q274 715 316 681.5Q358 648 358 592Q358 560 343 537.5Q328 515 303 500Q331 486 347.5 465.5Q364 445 364 409Q364 349 317.5 314.5Q271 280 188 280Z" glyph-name="threesuperior" horiz-adv-x="390" unicode="&#179;" /><glyph d="M391 708H500Q503 670 494 644.5Q485 619 469 603.5Q453 588 432 581.5Q411 575 391 575Q368 575 348.5 580Q329 585 311.5 590.5Q294 596 279 601Q264 606 249 606Q232 606 226.5 595.5Q221 585 221 574H112Q109 612 118 637.5Q127 663 143 678.5Q159 694 179.5 700.5Q200 707 221 707Q244 707 263.5 702Q283 697 300.5 691.5Q318 686 333 681Q348 676 363 676Q381 676 386 685.5Q391 695 391 708Z" glyph-name="tilde" horiz-adv-x="600" unicode="&#732;" /><glyph d="M12 700H304V610H211V406H108V610H12ZM331 406V700H447L527 510L612 700H720V406H626L627 540L568 406H482L423 541L425 406Z" glyph-name="trademark" horiz-adv-x="736" unicode="&#8482;" /><glyph d="M45 0V137L271 340Q291 358 309 375Q327 392 340 409Q353 426 360.5 444Q368 462 368 482Q368 522 344 537.5Q320 553 282 553Q230 553 201 531.5Q172 510 148 465L21 557Q67 645 137.5 680Q208 715 304 715Q357 715 404 705Q451 695 486 671Q521 647 541.5 607.5Q562 568 562 510Q562 435 525.5 375Q489 315 418 249L318 157L588 163V0Z" glyph-name="two" horiz-adv-x="625" unicode="2" /><glyph d="M38 0 37 137 270 340Q291 358 309 375Q327 392 340.5 409Q354 426 361.5 444Q369 462 369 482Q369 522 344 537.5Q319 553 281 553Q228 553 198 531Q168 509 143 465L13 557Q60 645 132 680Q204 715 304 715Q358 715 406.5 705Q455 695 491 671Q527 647 548.5 607.5Q570 568 570 510Q570 435 532 375Q494 315 421 249L320 157L596 163V0Z" glyph-name="two.LP" horiz-adv-x="628" /><glyph d="M38 0 37 118 236 289Q254 305 270 320Q286 335 297.5 349.5Q309 364 316 379Q323 394 323 411Q323 438 304.5 450Q286 462 260 462Q222 462 199 444Q176 426 156 387L24 467Q65 549 128.5 582Q192 615 280 615Q329 615 372.5 606Q416 597 449 577Q482 557 501 523Q520 489 520 440Q520 375 482.5 321.5Q445 268 379 209L297 135L531 143V0Z" glyph-name="two.OP" horiz-adv-x="567" /><glyph d="M59 0 58 122 269 288Q311 320 339 347.5Q367 375 367 410Q367 437 345.5 449.5Q324 462 293 462Q251 462 226.5 444Q202 426 181 385L49 466Q93 549 160 582Q227 615 319 615Q370 615 415.5 606.5Q461 598 495 577.5Q529 557 548.5 523Q568 489 568 439Q568 405 559 374.5Q550 344 529.5 314.5Q509 285 476 254.5Q443 224 396 190L322 137L582 144V0Z" glyph-name="two.OT" horiz-adv-x="625" /><glyph d="M5 0ZM23 -200V-112L164 6Q185 25 200 42Q215 59 215 79Q215 99 202 106Q189 113 171 113Q143 113 127 101Q111 89 95 64L5 127Q36 181 81 201Q126 221 188 221Q221 221 251 215Q281 209 304 195Q327 181 341 157.5Q355 134 355 98Q355 53 331.5 17Q308 -19 269 -53L222 -95L370 -91V-200Z" glyph-name="two.inf" horiz-adv-x="391" /><glyph d="M5 294ZM23 294V382L164 500Q185 519 200 536Q215 553 215 573Q215 593 202 600Q189 607 171 607Q143 607 127 595Q111 583 95 558L5 621Q36 675 81 695Q126 715 188 715Q221 715 251 709Q281 703 304 689Q327 675 341 651.5Q355 628 355 592Q355 547 331.5 511Q308 475 269 441L222 399L370 403V294Z" glyph-name="twosuperior" horiz-adv-x="391" unicode="&#178;" /><glyph d="M435 0 420 83Q393 35 347.5 10Q302 -15 246 -15Q194 -15 157.5 0Q121 15 97.5 40.5Q74 66 63.5 101Q53 136 53 176V502H247V235Q247 187 263.5 165.5Q280 144 318 144Q350 144 374 169.5Q398 195 399 246V502H592V0Z" glyph-name="u" horiz-adv-x="650" unicode="u" /><glyph d="M53 0ZM517 704 381 570H234V575L318 711H517ZM435 0 420 83Q393 35 347.5 10Q302 -15 246 -15Q194 -15 157.5 0Q121 15 97.5 40.5Q74 66 63.5 101Q53 136 53 176V502H247V235Q247 187 263.5 165.5Q280 144 318 144Q350 144 374 169.5Q398 195 399 246V502H592V0Z" glyph-name="uacute" horiz-adv-x="652" unicode="&#250;" /><glyph d="M53 0ZM435 0 420 83Q393 35 347.5 10Q302 -15 246 -15Q194 -15 157.5 0Q121 15 97.5 40.5Q74 66 63.5 101Q53 136 53 176V502H247V235Q247 187 263.5 165.5Q280 144 318 144Q350 144 374 169.5Q398 195 399 246V502H592V0ZM395 710H508Q508 668 495.5 639.5Q483 611 459 593.5Q435 576 400.5 569Q366 562 322 562Q278 562 243.5 569Q209 576 185.5 593.5Q162 611 149.5 639.5Q137 668 137 710H249Q249 675 266.5 663Q284 651 322 651Q360 651 377.5 663Q395 675 395 710Z" glyph-name="ubreve" horiz-adv-x="652" unicode="&#365;" /><glyph d="M53 0ZM318 622 262 570H121V574L245 711H400L525 574V570H376ZM435 0 420 83Q393 35 347.5 10Q302 -15 246 -15Q194 -15 157.5 0Q121 15 97.5 40.5Q74 66 63.5 101Q53 136 53 176V502H247V235Q247 187 263.5 165.5Q280 144 318 144Q350 144 374 169.5Q398 195 399 246V502H592V0Z" glyph-name="ucircumflex" horiz-adv-x="652" unicode="&#251;" /><glyph d="M53 0ZM342 649Q342 692 367 712Q392 732 438 732Q484 732 508.5 712Q533 692 533 649Q533 604 508.5 584.5Q484 565 438 565Q392 565 367 584.5Q342 604 342 649ZM113 649Q113 692 138 712Q163 732 208 732Q254 732 278.5 712Q303 692 303 649Q303 604 278.5 584.5Q254 565 208 565Q163 565 138 584.5Q113 604 113 649ZM435 0 420 83Q393 35 347.5 10Q302 -15 246 -15Q194 -15 157.5 0Q121 15 97.5 40.5Q74 66 63.5 101Q53 136 53 176V502H247V235Q247 187 263.5 165.5Q280 144 318 144Q350 144 374 169.5Q398 195 399 246V502H592V0Z" glyph-name="udieresis" horiz-adv-x="652" unicode="&#252;" /><glyph d="M53 0ZM435 0 420 83Q393 35 347.5 10Q302 -15 246 -15Q194 -15 157.5 0Q121 15 97.5 40.5Q74 66 63.5 101Q53 136 53 176V502H247V235Q247 187 263.5 165.5Q280 144 318 144Q350 144 374 169.5Q398 195 399 246V502H592V0ZM260 570 124 704V711H330L411 575V570Z" glyph-name="ugrave" horiz-adv-x="652" unicode="&#249;" /><glyph d="M53 0ZM435 0 420 83Q393 35 347.5 10Q302 -15 246 -15Q194 -15 157.5 0Q121 15 97.5 40.5Q74 66 63.5 101Q53 136 53 176V502H247V235Q247 187 263.5 165.5Q280 144 318 144Q350 144 374 169.5Q398 195 399 246V502H592V0ZM614 706 480 570H343V575L422 711H614ZM387 704 264 570H140V575L210 711H387Z" glyph-name="uhungarumlaut" horiz-adv-x="652" unicode="&#369;" /><glyph d="M53 0ZM435 0 420 83Q393 35 347.5 10Q302 -15 246 -15Q194 -15 157.5 0Q121 15 97.5 40.5Q74 66 63.5 101Q53 136 53 176V502H247V235Q247 187 263.5 165.5Q280 144 318 144Q350 144 374 169.5Q398 195 399 246V502H592V0ZM475 685V584H169V685Z" glyph-name="umacron" horiz-adv-x="652" unicode="&#363;" /><glyph d="M485 0V-146H-5V0Z" glyph-name="underscore" horiz-adv-x="480" unicode="_" /><glyph glyph-name="uni00A0" horiz-adv-x="176" unicode="&#160;" /><glyph d="M363 345V197H50V345Z" glyph-name="uni00AD" horiz-adv-x="412" unicode="&#173;" /><glyph d="M1037 345V197H50V345Z" glyph-name="uni2015" horiz-adv-x="1086" unicode="&#8213;" /><glyph d="M26 279ZM26 497Q26 606 73 661Q120 716 225 716Q329 716 376.5 661Q424 606 424 497Q424 388 377 333.5Q330 279 225 279Q120 279 73 333.5Q26 388 26 497ZM288 497Q288 562 271.5 587Q255 612 225 612Q195 612 178.5 587.5Q162 563 162 498Q162 433 178.5 408Q195 383 225 383Q255 383 271.5 407.5Q288 432 288 497Z" glyph-name="uni2070" horiz-adv-x="451" unicode="&#8304;" /><glyph d="M21 294ZM21 367V456L138 703H272L158 475H250V595H379V475H421V367H379V294H250V367Z" glyph-name="uni2074" horiz-adv-x="438" unicode="&#8308;" /><glyph d="M3 281ZM155 602 149 554Q163 558 179.5 560.5Q196 563 213 563Q291 563 329.5 528Q368 493 368 428Q368 356 321.5 318.5Q275 281 185 281Q128 281 80.5 298Q33 315 3 357L97 423Q127 383 175 383Q202 383 216.5 395Q231 407 231 427Q231 451 214 461.5Q197 472 175 472Q139 472 119 449L28 489L46 702H352V601Z" glyph-name="uni2075" horiz-adv-x="384" unicode="&#8309;" /><glyph d="M25 281ZM227 281Q128 281 76.5 333.5Q25 386 25 496Q25 598 73 656.5Q121 715 227 715Q284 715 327 697Q370 679 389 642L309 573Q302 586 287 600Q272 614 239 614Q195 614 176 588Q157 562 157 503Q171 525 196 539Q221 553 257 553Q317 553 354.5 520.5Q392 488 392 422Q392 361 351.5 321Q311 281 227 281ZM169 422Q169 405 181 392.5Q193 380 216 380Q238 380 250.5 391Q263 402 263 422Q263 439 252 450.5Q241 462 217 462Q198 462 183.5 452.5Q169 443 169 422Z" glyph-name="uni2076" horiz-adv-x="420" unicode="&#8310;" /><glyph d="M12 294ZM233 294H80Q80 391 116 466.5Q152 542 208 593L12 589V702H350V618Q318 578 296 542Q274 506 260 468.5Q246 431 239.5 389Q233 347 233 294Z" glyph-name="uni2077" horiz-adv-x="357" unicode="&#8311;" /><glyph d="M26 281ZM206 281Q117 281 71.5 312Q26 343 26 408Q26 482 90 507Q68 521 54.5 543Q41 565 41 594Q41 657 83.5 686Q126 715 207 715Q288 715 330.5 686Q373 657 373 594Q373 565 359 543Q345 521 322 507Q387 482 387 408Q387 281 206 281ZM251 586Q251 602 239 611.5Q227 621 208 621Q187 621 175 611.5Q163 602 163 586Q163 569 175 560Q187 551 207 551Q227 551 239 560Q251 569 251 586ZM254 410Q254 428 242 438.5Q230 449 209 449Q185 449 172 438.5Q159 428 159 410Q159 392 172 381.5Q185 371 207 371Q230 371 242 381.5Q254 392 254 410Z" glyph-name="uni2078" horiz-adv-x="416" unicode="&#8312;" /><glyph d="M17 281ZM243 571Q243 591 230.5 602Q218 613 195 613Q151 613 151 572Q151 554 161 542Q171 530 195 530Q213 530 228 540Q243 550 243 571ZM184 281Q159 281 133.5 284.5Q108 288 85.5 296Q63 304 45 315.5Q27 327 17 344L95 417Q106 400 126.5 390.5Q147 381 175 381Q221 381 239 409.5Q257 438 256 489Q228 437 156 437Q96 437 58.5 471Q21 505 21 571Q21 634 61 674.5Q101 715 190 715Q285 715 336.5 662.5Q388 610 388 500Q388 398 340 339.5Q292 281 184 281Z" glyph-name="uni2079" horiz-adv-x="417" unicode="&#8313;" /><glyph d="M26 357ZM208 357H110V442H26V520H110V607H208V520H292V442H208Z" glyph-name="uni207A" horiz-adv-x="318" unicode="&#8314;" /><glyph d="M26 442ZM292 520V442H26V520Z" glyph-name="uni207B" horiz-adv-x="318" unicode="&#8315;" /><glyph d="M26 389ZM292 570V491H26V570ZM292 468V389H26V468Z" glyph-name="uni207C" horiz-adv-x="318" unicode="&#8316;" /><glyph d="M22 193ZM223 294 212 193Q115 201 68.5 269Q22 337 22 458Q22 579 67.5 646.5Q113 714 208 722L223 621Q199 618 180.5 608.5Q162 599 149.5 580Q137 561 130.5 531Q124 501 124 458Q124 414 130.5 384Q137 354 149.5 335Q162 316 180.5 306.5Q199 297 223 294Z" glyph-name="uni207D" horiz-adv-x="240" unicode="&#8317;" /><glyph d="M16 193ZM28 193 16 294Q40 297 59 306.5Q78 316 90.5 335Q103 354 109.5 384Q116 414 116 458Q116 501 109.5 531Q103 561 90.5 580Q78 599 59 608.5Q40 618 16 621L31 722Q126 714 171.5 646.5Q217 579 217 458Q217 337 171 269Q125 201 28 193Z" glyph-name="uni207E" horiz-adv-x="240" unicode="&#8318;" /><glyph d="M26 203Q26 312 73 367Q120 422 225 422Q329 422 376.5 367Q424 312 424 203Q424 94 377 39.5Q330 -15 225 -15Q120 -15 73 39.5Q26 94 26 203ZM288 203Q288 268 271.5 293Q255 318 225 318Q195 318 178.5 293.5Q162 269 162 204Q162 139 178.5 114Q195 89 225 89Q255 89 271.5 113.5Q288 138 288 203Z" glyph-name="uni2080" horiz-adv-x="451" unicode="&#8320;" /><glyph d="M234 0H96V263L55 240L5 342L143 415H234Z" glyph-name="uni2081" horiz-adv-x="284" unicode="&#8321;" /><glyph d="M23 0V88L164 206Q185 225 200 242Q215 259 215 279Q215 299 202 306Q189 313 171 313Q143 313 127 301Q111 289 95 264L5 327Q36 381 81 401Q126 421 188 421Q221 421 251 415Q281 409 304 395Q327 381 341 357.5Q355 334 355 298Q355 253 331.5 217Q308 181 269 147L222 105L370 109V0Z" glyph-name="uni2082" horiz-adv-x="391" unicode="&#8322;" /><glyph d="M188 -14Q129 -14 84.5 6Q40 26 11 74L106 133Q122 107 138.5 98Q155 89 180 89Q203 89 216.5 97Q230 105 230 123Q230 139 217 147Q204 155 174 155H136V246H174Q221 246 221 281Q221 314 175 314Q152 314 138.5 304Q125 294 114 273L18 325Q47 378 88.5 399.5Q130 421 190 421Q274 421 316 387.5Q358 354 358 298Q358 266 343 243.5Q328 221 303 206Q331 192 347.5 171.5Q364 151 364 115Q364 55 317.5 20.5Q271 -14 188 -14Z" glyph-name="uni2083" horiz-adv-x="390" unicode="&#8323;" /><glyph d="M21 73V162L138 409H272L158 181H250V301H379V181H421V73H379V0H250V73Z" glyph-name="uni2084" horiz-adv-x="438" unicode="&#8324;" /><glyph d="M155 308 149 260Q163 264 179.5 266.5Q196 269 213 269Q291 269 329.5 234Q368 199 368 134Q368 62 321.5 24.5Q275 -13 185 -13Q128 -13 80.5 4Q33 21 3 63L97 129Q127 89 175 89Q202 89 216.5 101Q231 113 231 133Q231 157 214 167.5Q197 178 175 178Q139 178 119 155L28 195L46 408H352V307Z" glyph-name="uni2085" horiz-adv-x="384" unicode="&#8325;" /><glyph d="M227 -13Q128 -13 76.5 39.5Q25 92 25 202Q25 304 73 362.5Q121 421 227 421Q284 421 327 403Q370 385 389 348L309 279Q302 292 287 306Q272 320 239 320Q195 320 176 294Q157 268 157 209Q171 231 196 245Q221 259 257 259Q317 259 354.5 226.5Q392 194 392 128Q392 67 351.5 27Q311 -13 227 -13ZM169 128Q169 111 181 98.5Q193 86 216 86Q238 86 250.5 97Q263 108 263 128Q263 145 252 156.5Q241 168 217 168Q198 168 183.5 158.5Q169 149 169 128Z" glyph-name="uni2086" horiz-adv-x="420" unicode="&#8326;" /><glyph d="M233 0H80Q80 97 116 172.5Q152 248 208 299L12 295V408H350V324Q318 284 296 248Q274 212 260 174.5Q246 137 239.5 95Q233 53 233 0Z" glyph-name="uni2087" horiz-adv-x="357" unicode="&#8327;" /><glyph d="M206 -13Q117 -13 71.5 18Q26 49 26 114Q26 188 90 213Q68 227 54.5 249Q41 271 41 300Q41 363 83.5 392Q126 421 207 421Q288 421 330.5 392Q373 363 373 300Q373 271 359 249Q345 227 322 213Q387 188 387 114Q387 -13 206 -13ZM251 292Q251 308 239 317.5Q227 327 208 327Q187 327 175 317.5Q163 308 163 292Q163 275 175 266Q187 257 207 257Q227 257 239 266Q251 275 251 292ZM254 116Q254 134 242 144.5Q230 155 209 155Q185 155 172 144.5Q159 134 159 116Q159 98 172 87.5Q185 77 207 77Q230 77 242 87.5Q254 98 254 116Z" glyph-name="uni2088" horiz-adv-x="416" unicode="&#8328;" /><glyph d="M243 277Q243 297 230.5 308Q218 319 195 319Q151 319 151 278Q151 260 161 248Q171 236 195 236Q213 236 228 246Q243 256 243 277ZM184 -13Q159 -13 133.5 -9.5Q108 -6 85.5 2Q63 10 45 21.5Q27 33 17 50L95 123Q106 106 126.5 96.5Q147 87 175 87Q221 87 239 115.5Q257 144 256 195Q228 143 156 143Q96 143 58.5 177Q21 211 21 277Q21 340 61 380.5Q101 421 190 421Q285 421 336.5 368.5Q388 316 388 206Q388 104 340 45.5Q292 -13 184 -13Z" glyph-name="uni2089" horiz-adv-x="417" unicode="&#8329;" /><glyph d="M208 57H110V142H26V220H110V307H208V220H292V142H208Z" glyph-name="uni208A" horiz-adv-x="318" unicode="&#8330;" /><glyph d="M292 220V142H26V220Z" glyph-name="uni208B" horiz-adv-x="318" unicode="&#8331;" /><glyph d="M292 270V191H26V270ZM292 168V89H26V168Z" glyph-name="uni208C" horiz-adv-x="318" unicode="&#8332;" /><glyph d="M223 -6 212 -107Q115 -99 68.5 -31Q22 37 22 158Q22 279 67.5 346.5Q113 414 208 422L223 321Q199 318 180.5 308.5Q162 299 149.5 280Q137 261 130.5 231Q124 201 124 158Q124 114 130.5 84Q137 54 149.5 35Q162 16 180.5 6.5Q199 -3 223 -6Z" glyph-name="uni208D" horiz-adv-x="240" unicode="&#8333;" /><glyph d="M28 -107 16 -6Q40 -3 59 6.5Q78 16 90.5 35Q103 54 109.5 84Q116 114 116 158Q116 201 109.5 231Q103 261 90.5 280Q78 299 59 308.5Q40 318 16 321L31 422Q126 414 171.5 346.5Q217 279 217 158Q217 37 171 -31Q125 -99 28 -107Z" glyph-name="uni208E" horiz-adv-x="240" unicode="&#8334;" /><glyph d="M5 0ZM734 -14Q675 -14 630.5 6Q586 26 557 74L652 133Q668 107 684.5 98Q701 89 726 89Q749 89 762.5 97Q776 105 776 123Q776 139 763 147Q750 155 720 155H682V246H720Q767 246 767 281Q767 314 721 314Q698 314 684.5 304Q671 294 660 273L564 325Q593 378 634.5 399.5Q676 421 736 421Q820 421 862 387.5Q904 354 904 298Q904 266 889 243.5Q874 221 849 206Q877 192 893.5 171.5Q910 151 910 115Q910 55 863.5 20.5Q817 -14 734 -14ZM234 293H96V556L55 533L5 635L143 708H234ZM676 700 326 0H160L512 700Z" glyph-name="uni2153" horiz-adv-x="936" unicode="&#8531;" /><glyph d="M5 0ZM854 -14Q795 -14 750.5 6Q706 26 677 74L772 133Q788 107 804.5 98Q821 89 846 89Q869 89 882.5 97Q896 105 896 123Q896 139 883 147Q870 155 840 155H802V246H840Q887 246 887 281Q887 314 841 314Q818 314 804.5 304Q791 294 780 273L684 325Q713 378 754.5 399.5Q796 421 856 421Q940 421 982 387.5Q1024 354 1024 298Q1024 266 1009 243.5Q994 221 969 206Q997 192 1013.5 171.5Q1030 151 1030 115Q1030 55 983.5 20.5Q937 -14 854 -14ZM23 293V381L164 499Q185 518 200 535Q215 552 215 572Q215 592 202 599Q189 606 171 606Q143 606 127 594Q111 582 95 557L5 620Q36 674 81 694Q126 714 188 714Q221 714 251 708Q281 702 304 688Q327 674 341 650.5Q355 627 355 591Q355 546 331.5 510Q308 474 269 440L222 398L370 402V293ZM795 700 445 0H279L631 700Z" glyph-name="uni2154" horiz-adv-x="1056" unicode="&#8532;" /><glyph d="M5 0ZM234 293H96V556L55 533L5 635L143 708H234ZM715 308 709 260Q723 264 739.5 266.5Q756 269 773 269Q851 269 889.5 234Q928 199 928 134Q928 62 881.5 24.5Q835 -13 745 -13Q688 -13 640.5 4Q593 21 563 63L657 129Q687 89 735 89Q762 89 776.5 101Q791 113 791 133Q791 157 774 167.5Q757 178 735 178Q699 178 679 155L588 195L606 408H912V307ZM676 700 326 0H160L512 700Z" glyph-name="uni2155" horiz-adv-x="944" unicode="&#8533;" /><glyph d="M5 0ZM23 293V381L164 499Q185 518 200 535Q215 552 215 572Q215 592 202 599Q189 606 171 606Q143 606 127 594Q111 582 95 557L5 620Q36 674 81 694Q126 714 188 714Q221 714 251 708Q281 702 304 688Q327 674 341 650.5Q355 627 355 591Q355 546 331.5 510Q308 474 269 440L222 398L370 402V293ZM834 308 828 260Q842 264 858.5 266.5Q875 269 892 269Q970 269 1008.5 234Q1047 199 1047 134Q1047 62 1000.5 24.5Q954 -13 864 -13Q807 -13 759.5 4Q712 21 682 63L776 129Q806 89 854 89Q881 89 895.5 101Q910 113 910 133Q910 157 893 167.5Q876 178 854 178Q818 178 798 155L707 195L725 408H1031V307ZM794 700 444 0H278L630 700Z" glyph-name="uni2156" horiz-adv-x="1063" unicode="&#8534;" /><glyph d="M11 0ZM188 279Q129 279 84.5 299Q40 319 11 367L106 426Q122 400 138.5 391Q155 382 180 382Q203 382 216.5 390Q230 398 230 416Q230 432 217 440Q204 448 174 448H136V539H174Q221 539 221 574Q221 607 175 607Q152 607 138.5 597Q125 587 114 566L18 618Q47 671 88.5 692.5Q130 714 190 714Q274 714 316 680.5Q358 647 358 591Q358 559 343 536.5Q328 514 303 499Q331 485 347.5 464.5Q364 444 364 408Q364 348 317.5 313.5Q271 279 188 279ZM804 308 798 260Q812 264 828.5 266.5Q845 269 862 269Q940 269 978.5 234Q1017 199 1017 134Q1017 62 970.5 24.5Q924 -13 834 -13Q777 -13 729.5 4Q682 21 652 63L746 129Q776 89 824 89Q851 89 865.5 101Q880 113 880 133Q880 157 863 167.5Q846 178 824 178Q788 178 768 155L677 195L695 408H1001V307ZM765 700 415 0H249L601 700Z" glyph-name="uni2157" horiz-adv-x="1033" unicode="&#8535;" /><glyph d="M21 0ZM857 308 851 260Q865 264 881.5 266.5Q898 269 915 269Q993 269 1031.5 234Q1070 199 1070 134Q1070 62 1023.5 24.5Q977 -13 887 -13Q830 -13 782.5 4Q735 21 705 63L799 129Q829 89 877 89Q904 89 918.5 101Q933 113 933 133Q933 157 916 167.5Q899 178 877 178Q841 178 821 155L730 195L748 408H1054V307ZM818 700 468 0H302L654 700ZM21 366V455L138 702H272L158 474H250V594H379V474H421V366H379V293H250V366Z" glyph-name="uni2158" horiz-adv-x="1087" unicode="&#8536;" /><glyph d="M5 0ZM234 293H96V556L55 533L5 635L143 708H234ZM754 -13Q655 -13 603.5 39.5Q552 92 552 202Q552 304 600 362.5Q648 421 754 421Q811 421 854 403Q897 385 916 348L836 279Q829 292 814 306Q799 320 766 320Q722 320 703 294Q684 268 684 209Q698 231 723 245Q748 259 784 259Q844 259 881.5 226.5Q919 194 919 128Q919 67 878.5 27Q838 -13 754 -13ZM696 128Q696 111 708 98.5Q720 86 743 86Q765 86 777.5 97Q790 108 790 128Q790 145 779 156.5Q768 168 744 168Q725 168 710.5 158.5Q696 149 696 128ZM676 700 326 0H160L512 700Z" glyph-name="uni2159" horiz-adv-x="947" unicode="&#8537;" /><glyph d="M3 0ZM155 601 149 553Q163 557 179.5 559.5Q196 562 213 562Q291 562 329.5 527Q368 492 368 427Q368 355 321.5 317.5Q275 280 185 280Q128 280 80.5 297Q33 314 3 356L97 422Q127 382 175 382Q202 382 216.5 394Q231 406 231 426Q231 450 214 460.5Q197 471 175 471Q139 471 119 448L28 488L46 701H352V600ZM844 -13Q745 -13 693.5 39.5Q642 92 642 202Q642 304 690 362.5Q738 421 844 421Q901 421 944 403Q987 385 1006 348L926 279Q919 292 904 306Q889 320 856 320Q812 320 793 294Q774 268 774 209Q788 231 813 245Q838 259 874 259Q934 259 971.5 226.5Q1009 194 1009 128Q1009 67 968.5 27Q928 -13 844 -13ZM786 128Q786 111 798 98.5Q810 86 833 86Q855 86 867.5 97Q880 108 880 128Q880 145 869 156.5Q858 168 834 168Q815 168 800.5 158.5Q786 149 786 128ZM765 700 415 0H249L601 700Z" glyph-name="uni215A" horiz-adv-x="1036" unicode="&#8538;" /><glyph d="M5 0ZM234 293H96V556L55 533L5 635L143 708H234ZM742 -13Q653 -13 607.5 18Q562 49 562 114Q562 188 626 213Q604 227 590.5 249Q577 271 577 300Q577 363 619.5 392Q662 421 743 421Q824 421 866.5 392Q909 363 909 300Q909 271 895 249Q881 227 858 213Q923 188 923 114Q923 -13 742 -13ZM787 292Q787 308 775 317.5Q763 327 744 327Q723 327 711 317.5Q699 308 699 292Q699 275 711 266Q723 257 743 257Q763 257 775 266Q787 275 787 292ZM790 116Q790 134 778 144.5Q766 155 745 155Q721 155 708 144.5Q695 134 695 116Q695 98 708 87.5Q721 77 743 77Q766 77 778 87.5Q790 98 790 116ZM676 700 326 0H160L512 700Z" glyph-name="uni215B" horiz-adv-x="951" unicode="&#8539;" /><glyph d="M11 0ZM188 279Q129 279 84.5 299Q40 319 11 367L106 426Q122 400 138.5 391Q155 382 180 382Q203 382 216.5 390Q230 398 230 416Q230 432 217 440Q204 448 174 448H136V539H174Q221 539 221 574Q221 607 175 607Q152 607 138.5 597Q125 587 114 566L18 618Q47 671 88.5 692.5Q130 714 190 714Q274 714 316 680.5Q358 647 358 591Q358 559 343 536.5Q328 514 303 499Q331 485 347.5 464.5Q364 444 364 408Q364 348 317.5 313.5Q271 279 188 279ZM831 -13Q742 -13 696.5 18Q651 49 651 114Q651 188 715 213Q693 227 679.5 249Q666 271 666 300Q666 363 708.5 392Q751 421 832 421Q913 421 955.5 392Q998 363 998 300Q998 271 984 249Q970 227 947 213Q1012 188 1012 114Q1012 -13 831 -13ZM876 292Q876 308 864 317.5Q852 327 833 327Q812 327 800 317.5Q788 308 788 292Q788 275 800 266Q812 257 832 257Q852 257 864 266Q876 275 876 292ZM879 116Q879 134 867 144.5Q855 155 834 155Q810 155 797 144.5Q784 134 784 116Q784 98 797 87.5Q810 77 832 77Q855 77 867 87.5Q879 98 879 116ZM765 700 415 0H249L601 700Z" glyph-name="uni215C" horiz-adv-x="1041" unicode="&#8540;" /><glyph d="M3 0ZM831 -13Q742 -13 696.5 18Q651 49 651 114Q651 188 715 213Q693 227 679.5 249Q666 271 666 300Q666 363 708.5 392Q751 421 832 421Q913 421 955.5 392Q998 363 998 300Q998 271 984 249Q970 227 947 213Q1012 188 1012 114Q1012 -13 831 -13ZM876 292Q876 308 864 317.5Q852 327 833 327Q812 327 800 317.5Q788 308 788 292Q788 275 800 266Q812 257 832 257Q852 257 864 266Q876 275 876 292ZM879 116Q879 134 867 144.5Q855 155 834 155Q810 155 797 144.5Q784 134 784 116Q784 98 797 87.5Q810 77 832 77Q855 77 867 87.5Q879 98 879 116ZM155 601 149 553Q163 557 179.5 559.5Q196 562 213 562Q291 562 329.5 527Q368 492 368 427Q368 355 321.5 317.5Q275 280 185 280Q128 280 80.5 297Q33 314 3 356L97 422Q127 382 175 382Q202 382 216.5 394Q231 406 231 426Q231 450 214 460.5Q197 471 175 471Q139 471 119 448L28 488L46 701H352V600ZM765 700 415 0H249L601 700Z" glyph-name="uni215D" horiz-adv-x="1041" unicode="&#8541;" /><glyph d="M12 0ZM751 -13Q662 -13 616.5 18Q571 49 571 114Q571 188 635 213Q613 227 599.5 249Q586 271 586 300Q586 363 628.5 392Q671 421 752 421Q833 421 875.5 392Q918 363 918 300Q918 271 904 249Q890 227 867 213Q932 188 932 114Q932 -13 751 -13ZM796 292Q796 308 784 317.5Q772 327 753 327Q732 327 720 317.5Q708 308 708 292Q708 275 720 266Q732 257 752 257Q772 257 784 266Q796 275 796 292ZM799 116Q799 134 787 144.5Q775 155 754 155Q730 155 717 144.5Q704 134 704 116Q704 98 717 87.5Q730 77 752 77Q775 77 787 87.5Q799 98 799 116ZM233 293H80Q80 390 116 465.5Q152 541 208 592L12 588V701H350V617Q318 577 296 541Q274 505 260 467.5Q246 430 239.5 388Q233 346 233 293ZM685 700 335 0H169L521 700Z" glyph-name="uni215E" horiz-adv-x="961" unicode="&#8542;" /><glyph d="M5 0ZM234 293H96V556L55 533L5 635L143 708H234ZM676 700 326 0H160L512 700Z" glyph-name="uni215F" horiz-adv-x="831" unicode="&#8543;" /><glyph d="M530 -238Q501 -238 472.5 -231Q444 -224 421.5 -208.5Q399 -193 385 -167Q371 -141 371 -102Q371 -62 388 -32.5Q405 -3 431 17L420 83Q393 35 347.5 10Q302 -15 246 -15Q194 -15 157.5 0Q121 15 97.5 40.5Q74 66 63.5 101Q53 136 53 176V502H247V235Q247 187 263.5 165.5Q280 144 318 144Q350 144 374 169.5Q398 195 399 246V502H592V0Q557 0 535 -7.5Q513 -15 500 -27Q487 -39 482.5 -54.5Q478 -70 478 -85Q478 -114 498 -125Q518 -136 544 -136Q561 -136 578.5 -132Q596 -128 613 -119L638 -209Q592 -238 530 -238Z" glyph-name="uogonek" horiz-adv-x="650" unicode="&#371;" /><glyph d="M53 0ZM198 659Q198 712 233 739.5Q268 767 322 767Q376 767 410.5 739.5Q445 712 445 659Q445 605 410 577.5Q375 550 321 550Q267 550 232.5 577.5Q198 605 198 659ZM278 659Q278 639 290 627.5Q302 616 321 616Q341 616 353 627.5Q365 639 365 659Q365 679 353 689.5Q341 700 322 700Q302 700 290 689.5Q278 679 278 659ZM435 0 420 83Q393 35 347.5 10Q302 -15 246 -15Q194 -15 157.5 0Q121 15 97.5 40.5Q74 66 63.5 101Q53 136 53 176V502H247V235Q247 187 263.5 165.5Q280 144 318 144Q350 144 374 169.5Q398 195 399 246V502H592V0Z" glyph-name="uring" horiz-adv-x="652" unicode="&#367;" /><glyph d="M53 0ZM435 0 420 83Q393 35 347.5 10Q302 -15 246 -15Q194 -15 157.5 0Q121 15 97.5 40.5Q74 66 63.5 101Q53 136 53 176V502H247V235Q247 187 263.5 165.5Q280 144 318 144Q350 144 374 169.5Q398 195 399 246V502H592V0ZM407 708H516Q519 670 510 644.5Q501 619 485 603.5Q469 588 448 581.5Q427 575 407 575Q384 575 364.5 580Q345 585 327.5 590.5Q310 596 295 601Q280 606 265 606Q248 606 242.5 595.5Q237 585 237 574H128Q125 612 134 637.5Q143 663 159 678.5Q175 694 195.5 700.5Q216 707 237 707Q260 707 279.5 702Q299 697 316.5 691.5Q334 686 349 681Q364 676 379 676Q397 676 402 685.5Q407 695 407 708Z" glyph-name="utilde" horiz-adv-x="652" unicode="&#361;" /><glyph d="M7 502H207L302 201L390 502H588L396 0H198Z" glyph-name="v" horiz-adv-x="595" unicode="v" /><glyph d="M337 501H482L565 225L635 502H808L653 0H486L407 285L328 0H162L5 502H183L256 227Z" glyph-name="w" horiz-adv-x="813" unicode="w" /><glyph d="M5 0ZM598 704 462 570H315V575L399 711H598ZM337 501H482L565 225L635 502H808L653 0H486L407 285L328 0H162L5 502H183L256 227Z" glyph-name="wacute" horiz-adv-x="813" unicode="&#7811;" /><glyph d="M5 0ZM403 622 347 570H206V574L330 711H485L610 574V570H461ZM337 501H482L565 225L635 502H808L653 0H486L407 285L328 0H162L5 502H183L256 227Z" glyph-name="wcircumflex" horiz-adv-x="813" unicode="&#373;" /><glyph d="M5 0ZM426 649Q426 692 451 712Q476 732 522 732Q568 732 592.5 712Q617 692 617 649Q617 604 592.5 584.5Q568 565 522 565Q476 565 451 584.5Q426 604 426 649ZM197 649Q197 692 222 712Q247 732 292 732Q338 732 362.5 712Q387 692 387 649Q387 604 362.5 584.5Q338 565 292 565Q247 565 222 584.5Q197 604 197 649ZM337 501H482L565 225L635 502H808L653 0H486L407 285L328 0H162L5 502H183L256 227Z" glyph-name="wdieresis" horiz-adv-x="813" unicode="&#7813;" /><glyph d="M5 0ZM337 501H482L565 225L635 502H808L653 0H486L407 285L328 0H162L5 502H183L256 227ZM341 570 205 704V711H411L492 575V570Z" glyph-name="wgrave" horiz-adv-x="813" unicode="&#7809;" /><glyph d="M16 502H225L303 365L380 502H573L404 250L585 0H375L287 137L197 0H4L186 254Z" glyph-name="x" horiz-adv-x="588" unicode="x" /><glyph d="M189 -29 199 2 5 502H205L301 209L391 502H590L360 -92Q345 -129 323.5 -154Q302 -179 274 -194Q246 -209 212 -215.5Q178 -222 140 -222Q102 -222 73.5 -216.5Q45 -211 19 -200L36 -66Q57 -76 76 -80Q95 -84 112 -84Q170 -84 189 -29Z" glyph-name="y" horiz-adv-x="595" unicode="y" /><glyph d="M283 -223Q245 -223 209.5 -217.5Q174 -212 142.5 -199Q111 -186 86 -166.5Q61 -147 46 -118L148 -24Q171 -59 203 -74Q235 -89 274 -89Q328 -89 357 -61Q386 -33 386 24V68Q360 37 323.5 22Q287 7 245 7Q194 7 157.5 22Q121 37 97.5 63.5Q74 90 63.5 125Q53 160 53 201V502H244V251Q244 206 259.5 186Q275 166 307 166Q342 166 364.5 190.5Q387 215 387 270V502H581V28Q581 -40 558.5 -87.5Q536 -135 496.5 -165Q457 -195 402 -209Q347 -223 283 -223Z" glyph-name="y.school" horiz-adv-x="639" /><glyph d="M5 0ZM189 -29 199 2 5 502H205L301 209L391 502H590L360 -92Q345 -129 323.5 -154Q302 -179 274 -194Q246 -209 212 -215.5Q178 -222 140 -222Q102 -222 73.5 -216.5Q45 -211 19 -200L36 -66Q57 -76 76 -80Q95 -84 112 -84Q170 -84 189 -29ZM492 704 356 570H209V575L293 711H492Z" glyph-name="yacute" horiz-adv-x="595" unicode="&#253;" /><glyph d="M46 0ZM283 -223Q245 -223 209.5 -217.5Q174 -212 142.5 -199Q111 -186 86 -166.5Q61 -147 46 -118L148 -24Q171 -59 203 -74Q235 -89 274 -89Q328 -89 357 -61Q386 -33 386 24V68Q360 37 323.5 22Q287 7 245 7Q194 7 157.5 22Q121 37 97.5 63.5Q74 90 63.5 125Q53 160 53 201V502H244V251Q244 206 259.5 186Q275 166 307 166Q342 166 364.5 190.5Q387 215 387 270V502H581V28Q581 -40 558.5 -87.5Q536 -135 496.5 -165Q457 -195 402 -209Q347 -223 283 -223ZM500 704 364 570H217V575L301 711H500Z" glyph-name="yacute.school" horiz-adv-x="639" /><glyph d="M5 0ZM189 -29 199 2 5 502H205L301 209L391 502H590L360 -92Q345 -129 323.5 -154Q302 -179 274 -194Q246 -209 212 -215.5Q178 -222 140 -222Q102 -222 73.5 -216.5Q45 -211 19 -200L36 -66Q57 -76 76 -80Q95 -84 112 -84Q170 -84 189 -29ZM293 622 237 570H96V574L220 711H375L500 574V570H351Z" glyph-name="ycircumflex" horiz-adv-x="595" unicode="&#375;" /><glyph d="M46 0ZM313 622 257 570H116V574L240 711H395L520 574V570H371ZM283 -223Q245 -223 209.5 -217.5Q174 -212 142.5 -199Q111 -186 86 -166.5Q61 -147 46 -118L148 -24Q171 -59 203 -74Q235 -89 274 -89Q328 -89 357 -61Q386 -33 386 24V68Q360 37 323.5 22Q287 7 245 7Q194 7 157.5 22Q121 37 97.5 63.5Q74 90 63.5 125Q53 160 53 201V502H244V251Q244 206 259.5 186Q275 166 307 166Q342 166 364.5 190.5Q387 215 387 270V502H581V28Q581 -40 558.5 -87.5Q536 -135 496.5 -165Q457 -195 402 -209Q347 -223 283 -223Z" glyph-name="ycircumflex.school" horiz-adv-x="639" /><glyph d="M5 0ZM189 -29 199 2 5 502H205L301 209L391 502H590L360 -92Q345 -129 323.5 -154Q302 -179 274 -194Q246 -209 212 -215.5Q178 -222 140 -222Q102 -222 73.5 -216.5Q45 -211 19 -200L36 -66Q57 -76 76 -80Q95 -84 112 -84Q170 -84 189 -29ZM317 649Q317 692 342 712Q367 732 413 732Q459 732 483.5 712Q508 692 508 649Q508 604 483.5 584.5Q459 565 413 565Q367 565 342 584.5Q317 604 317 649ZM88 649Q88 692 113 712Q138 732 183 732Q229 732 253.5 712Q278 692 278 649Q278 604 253.5 584.5Q229 565 183 565Q138 565 113 584.5Q88 604 88 649Z" glyph-name="ydieresis" horiz-adv-x="595" unicode="&#255;" /><glyph d="M46 0ZM336 649Q336 692 361 712Q386 732 432 732Q478 732 502.5 712Q527 692 527 649Q527 604 502.5 584.5Q478 565 432 565Q386 565 361 584.5Q336 604 336 649ZM107 649Q107 692 132 712Q157 732 202 732Q248 732 272.5 712Q297 692 297 649Q297 604 272.5 584.5Q248 565 202 565Q157 565 132 584.5Q107 604 107 649ZM283 -223Q245 -223 209.5 -217.5Q174 -212 142.5 -199Q111 -186 86 -166.5Q61 -147 46 -118L148 -24Q171 -59 203 -74Q235 -89 274 -89Q328 -89 357 -61Q386 -33 386 24V68Q360 37 323.5 22Q287 7 245 7Q194 7 157.5 22Q121 37 97.5 63.5Q74 90 63.5 125Q53 160 53 201V502H244V251Q244 206 259.5 186Q275 166 307 166Q342 166 364.5 190.5Q387 215 387 270V502H581V28Q581 -40 558.5 -87.5Q536 -135 496.5 -165Q457 -195 402 -209Q347 -223 283 -223Z" glyph-name="ydieresis.school" horiz-adv-x="639" /><glyph d="M631 292V204H461V0H258V204H90V292H235L212 332H90V420H164L7 700H231L366 425L499 700H711L556 420H631V332H507L485 292Z" glyph-name="yen" horiz-adv-x="718" unicode="&#165;" /><glyph d="M27 0V106L257 362H31V502H482V390L255 139H491V0Z" glyph-name="z" horiz-adv-x="519" unicode="z" /><glyph d="M27 0ZM454 704 318 570H171V575L255 711H454ZM27 0V106L257 362H31V502H482V390L255 139H491V0Z" glyph-name="zacute" horiz-adv-x="519" unicode="&#378;" /><glyph d="M27 0ZM265 659 322 711H462V708L338 570H182L58 708V711H206ZM27 0V106L257 362H31V502H482V390L255 139H491V0Z" glyph-name="zcaron" horiz-adv-x="519" unicode="&#382;" /><glyph d="M27 0ZM27 0V106L257 362H31V502H482V390L255 139H491V0ZM158 649Q158 694 184.5 714Q211 734 259 734Q307 734 333 714Q359 694 359 649Q359 605 333 585Q307 565 259 565Q211 565 184.5 585Q158 605 158 649Z" glyph-name="zdotaccent" horiz-adv-x="519" unicode="&#380;" /><glyph d="M21 350Q21 536 95 625.5Q169 715 312 715Q455 715 529 625.5Q603 536 603 350Q603 165 526.5 75Q450 -15 312 -15Q169 -15 95 74.5Q21 164 21 350ZM423 350Q423 410 415.5 451Q408 492 394 516.5Q380 541 359.5 551.5Q339 562 312 562Q285 562 264.5 551Q244 540 230 515Q216 490 208.5 449.5Q201 409 201 350Q201 291 208.5 250Q216 209 230 184Q244 159 264.5 148Q285 137 311 137Q338 137 359 148Q380 159 394 184Q408 209 415.5 250Q423 291 423 350Z" glyph-name="zero" horiz-adv-x="625" unicode="0" /><glyph d="M50 350Q50 534 125.5 624.5Q201 715 368 715Q534 715 609.5 624.5Q685 534 685 350Q685 165 609.5 75Q534 -15 368 -15Q201 -15 125.5 75Q50 165 50 350ZM488 350Q488 410 480 450.5Q472 491 457 515.5Q442 540 419.5 551Q397 562 368 562Q339 562 316.5 551.5Q294 541 278.5 516Q263 491 255 450.5Q247 410 247 350Q247 290 255 249Q263 208 278 183.5Q293 159 315.5 148Q338 137 367 137Q396 137 418.5 148Q441 159 456.5 183.5Q472 208 480 249Q488 290 488 350Z" glyph-name="zero.LP" horiz-adv-x="735" /><glyph d="M39 300Q39 460 115.5 537.5Q192 615 332 615Q473 615 549.5 537.5Q626 460 626 300Q626 220 606 161Q586 102 548 63Q510 24 455.5 4.5Q401 -15 332 -15Q192 -15 115.5 62.5Q39 140 39 300ZM438 300Q438 391 410.5 427Q383 463 332 463Q306 463 286.5 455Q267 447 253.5 428Q240 409 233 378Q226 347 226 301Q226 255 233 223.5Q240 192 253.5 173Q267 154 286.5 145.5Q306 137 331 137Q357 137 377 145.5Q397 154 410.5 173Q424 192 431 223Q438 254 438 300Z" glyph-name="zero.OP" horiz-adv-x="665" /><glyph d="M25 300Q25 459 100.5 537Q176 615 314 615Q451 615 525.5 537.5Q600 460 600 300Q600 220 580.5 161Q561 102 524 63Q487 24 434 4.5Q381 -15 314 -15Q176 -15 100.5 63Q25 141 25 300ZM419 300Q419 391 392 427Q365 463 314 463Q288 463 268 455Q248 447 234 428Q220 409 213 378Q206 347 206 301Q206 209 234 173Q262 137 313 137Q339 137 358.5 145.5Q378 154 391.5 173Q405 192 412 223Q419 254 419 300Z" glyph-name="zero.OT" horiz-adv-x="625" /><glyph d="M26 0ZM26 3Q26 112 73 167Q120 222 225 222Q329 222 376.5 167Q424 112 424 3Q424 -106 377 -160.5Q330 -215 225 -215Q120 -215 73 -160.5Q26 -106 26 3ZM288 3Q288 68 271.5 93Q255 118 225 118Q195 118 178.5 93.5Q162 69 162 4Q162 -61 178.5 -86Q195 -111 225 -111Q255 -111 271.5 -86.5Q288 -62 288 3Z" glyph-name="zero.inf" horiz-adv-x="451" /><glyph glyph-name="zerowidthspace" horiz-adv-x="0" unicode="&#8203;" /></font>
</defs>
</svg>
