<?xml version="1.0" standalone="no"?><!DOCTYPE svg PUBLIC "-//W3C//DTD SVG 1.1//EN" "http://www.w3.org/Graphics/SVG/1.1/DTD/svg11.dtd" ><svg version="1.1" xmlns="http://www.w3.org/2000/svg"><defs><font horiz-adv-x="0" id="font"><font-face ascent="972" bbox="-102 -292 1422 949" cap-height="700" descent="-226" font-family="Honeywell Sans" font-stretch="normal" font-style="normal" font-weight="500" units-per-em="1000" x-height="487" /><missing-glyph d="M110 0V700H804V0ZM419 348 178 623V73ZM496 348 736 74V622ZM238 643 458 390 677 643ZM456 306 240 57H675Z" horiz-adv-x="914" /><glyph d="M0 0Z" glyph-name=".ttfautohint" horiz-adv-x="629" /><glyph d="M308 619 174 218H444ZM518 0 470 143H149L101 0H10L255 700H367L612 0Z" glyph-name="A" horiz-adv-x="622" unicode="A" /><glyph d="M314 623 176 218H442ZM511 0 465 143H149L101 0H10L259 700H877V624H403L479 391H824V313H504L581 76H887V0Z" glyph-name="AE" horiz-adv-x="927" unicode="&#198;" /><glyph d="M10 0ZM308 619 174 218H444ZM518 0 470 143H149L101 0H10L255 700H367L612 0ZM462 899 348 788H275V792L351 905H462Z" glyph-name="Aacute" horiz-adv-x="622" unicode="&#193;" /><glyph d="M10 0ZM308 619 174 218H444ZM518 0 470 143H149L101 0H10L255 700H367L612 0ZM391 905H457Q457 870 447 846Q437 822 419 808Q401 794 374.5 788Q348 782 315 782Q282 782 255.5 788Q229 794 210.5 808Q192 822 182 846Q172 870 172 905H238Q238 866 257 851.5Q276 837 314 837Q352 837 371.5 851.5Q391 866 391 905Z" glyph-name="Abreve" horiz-adv-x="622" unicode="&#258;" /><glyph d="M10 0ZM308 619 174 218H444ZM518 0 470 143H149L101 0H10L255 700H367L612 0ZM316 857 246 788H153V791L275 905H358L481 791V788H383Z" glyph-name="Acircumflex" horiz-adv-x="622" unicode="&#194;" /><glyph d="M10 0ZM308 619 174 218H444ZM518 0 470 143H149L101 0H10L255 700H367L612 0ZM341 851Q341 879 357 893Q373 907 401 907Q429 907 444.5 893Q460 879 460 851Q460 823 444.5 808.5Q429 794 401 794Q373 794 357 808.5Q341 823 341 851ZM168 851Q168 879 184 893Q200 907 228 907Q256 907 271.5 893Q287 879 287 851Q287 823 271.5 808.5Q256 794 228 794Q200 794 184 808.5Q168 823 168 851Z" glyph-name="Adieresis" horiz-adv-x="622" unicode="&#196;" /><glyph d="M10 0ZM308 619 174 218H444ZM518 0 470 143H149L101 0H10L255 700H367L612 0ZM286 789 171 900V906H282L359 793V789Z" glyph-name="Agrave" horiz-adv-x="622" unicode="&#192;" /><glyph d="M10 0ZM308 619 174 218H444ZM518 0 470 143H149L101 0H10L255 700H367L612 0ZM442 874V815H188V874Z" glyph-name="Amacron" horiz-adv-x="622" unicode="&#256;" /><glyph d="M509 24 469 143H149L101 0H10L255 700H367L612 0H578Q555 -2 537 -11.5Q519 -21 507 -35Q495 -49 488.5 -66.5Q482 -84 482 -101Q482 -129 497 -140Q512 -151 540 -151Q576 -151 606 -133L619 -189Q581 -212 533 -212Q511 -212 490 -207Q469 -202 453 -190.5Q437 -179 427 -159.5Q417 -140 417 -111Q417 -60 444.5 -26.5Q472 7 509 24ZM309 619 174 218H444Z" glyph-name="Aogonek" horiz-adv-x="622" unicode="&#260;" /><glyph d="M10 0ZM308 619 174 218H444ZM518 0 470 143H149L101 0H10L255 700H367L612 0ZM219 855Q219 899 246.5 924Q274 949 316 949Q358 949 385 924Q412 899 412 855Q412 811 384.5 786Q357 761 315 761Q273 761 246 786Q219 811 219 855ZM267 855Q267 832 280.5 817Q294 802 315 802Q336 802 350 817Q364 832 364 855Q364 878 350 892.5Q336 907 316 907Q294 907 280.5 892.5Q267 878 267 855Z" glyph-name="Aring" horiz-adv-x="622" unicode="&#197;" /><glyph d="M10 0ZM308 619 174 218H444ZM518 0 470 143H149L101 0H10L255 700H367L612 0ZM406 898H471Q473 869 465.5 849.5Q458 830 445 818.5Q432 807 415.5 802Q399 797 383 797Q362 797 344 803.5Q326 810 310 817.5Q294 825 279.5 831.5Q265 838 252 838Q234 838 228.5 826.5Q223 815 223 801H157Q155 830 162.5 849.5Q170 869 182.5 880.5Q195 892 211 897Q227 902 244 902Q266 902 284.5 895.5Q303 889 319 881.5Q335 874 349 867.5Q363 861 377 861Q395 861 400.5 872Q406 883 406 898Z" glyph-name="Atilde" horiz-adv-x="622" unicode="&#195;" /><glyph d="M110 0V700H403Q459 700 498 687Q537 674 562 650Q587 626 598 592.5Q609 559 609 519Q609 461 582 421Q555 381 507 363Q538 357 560.5 341Q583 325 598 302.5Q613 280 620 253.5Q627 227 627 200Q627 101 569 50.5Q511 0 392 0ZM403 626H197V396H399Q432 396 455 405.5Q478 415 492.5 430.5Q507 446 514 467Q521 488 521 512Q521 572 489.5 599Q458 626 403 626ZM400 319H197V74H397Q539 74 539 201Q539 258 506.5 288.5Q474 319 400 319Z" glyph-name="B" horiz-adv-x="691" unicode="B" /><glyph d="M392 -12Q314 -12 255 8Q196 28 156.5 71.5Q117 115 97 184Q77 253 77 351Q77 449 97 517.5Q117 586 156.5 629.5Q196 673 255 692.5Q314 712 392 712Q486 712 548.5 682Q611 652 647 580L577 533Q548 594 503.5 617Q459 640 392 640Q338 640 296 627Q254 614 225 581Q196 548 181 492.5Q166 437 166 352Q166 267 181 211Q196 155 225 121.5Q254 88 296 74Q338 60 392 60Q460 60 509 86Q558 112 593 177L659 132Q616 54 550 21Q484 -12 392 -12Z" glyph-name="C" horiz-adv-x="699" unicode="C" /><glyph glyph-name="CR" horiz-adv-x="176" unicode="" /><glyph d="M77 0ZM539 900 425 789H352V793L428 906H539ZM392 -12Q314 -12 255 8Q196 28 156.5 71.5Q117 115 97 184Q77 253 77 351Q77 449 97 517.5Q117 586 156.5 629.5Q196 673 255 692.5Q314 712 392 712Q486 712 548.5 682Q611 652 647 580L577 533Q548 594 503.5 617Q459 640 392 640Q338 640 296 627Q254 614 225 581Q196 548 181 492.5Q166 437 166 352Q166 267 181 211Q196 155 225 121.5Q254 88 296 74Q338 60 392 60Q460 60 509 86Q558 112 593 177L659 132Q616 54 550 21Q484 -12 392 -12Z" glyph-name="Cacute" horiz-adv-x="699" unicode="&#262;" /><glyph d="M77 0ZM393 839 464 906H557V904L434 789H351L229 904V906H325ZM392 -12Q314 -12 255 8Q196 28 156.5 71.5Q117 115 97 184Q77 253 77 351Q77 449 97 517.5Q117 586 156.5 629.5Q196 673 255 692.5Q314 712 392 712Q486 712 548.5 682Q611 652 647 580L577 533Q548 594 503.5 617Q459 640 392 640Q338 640 296 627Q254 614 225 581Q196 548 181 492.5Q166 437 166 352Q166 267 181 211Q196 155 225 121.5Q254 88 296 74Q338 60 392 60Q460 60 509 86Q558 112 593 177L659 132Q616 54 550 21Q484 -12 392 -12Z" glyph-name="Ccaron" horiz-adv-x="699" unicode="&#268;" /><glyph d="M381 -237Q343 -237 312.5 -223Q282 -209 263 -178L305 -138Q319 -161 335 -172.5Q351 -184 378 -184Q401 -184 416.5 -174.5Q432 -165 432 -145Q432 -125 417.5 -114Q403 -103 378 -103Q372 -103 366.5 -103.5Q361 -104 355 -105L339 -90L359 -11Q289 -7 236.5 15Q184 37 148.5 81Q113 125 95 191.5Q77 258 77 351Q77 449 97 517.5Q117 586 156.5 629.5Q196 673 255 692.5Q314 712 392 712Q486 712 548.5 682Q611 652 647 580L577 533Q548 594 503.5 617Q459 640 392 640Q338 640 296 627Q254 614 225 581Q196 548 181 492.5Q166 437 166 352Q166 267 181 211Q196 155 225 121.5Q254 88 296 74Q338 60 392 60Q460 60 509 86Q558 112 593 177L659 132Q619 60 560 27Q501 -6 420 -11L406 -61H409Q444 -61 470 -82Q496 -103 496 -145Q496 -168 486.5 -185.5Q477 -203 461.5 -214.5Q446 -226 425 -231.5Q404 -237 381 -237Z" glyph-name="Ccedilla" horiz-adv-x="699" unicode="&#199;" /><glyph d="M77 0ZM394 858 324 789H231V792L353 906H436L559 792V789H461ZM392 -12Q314 -12 255 8Q196 28 156.5 71.5Q117 115 97 184Q77 253 77 351Q77 449 97 517.5Q117 586 156.5 629.5Q196 673 255 692.5Q314 712 392 712Q486 712 548.5 682Q611 652 647 580L577 533Q548 594 503.5 617Q459 640 392 640Q338 640 296 627Q254 614 225 581Q196 548 181 492.5Q166 437 166 352Q166 267 181 211Q196 155 225 121.5Q254 88 296 74Q338 60 392 60Q460 60 509 86Q558 112 593 177L659 132Q616 54 550 21Q484 -12 392 -12Z" glyph-name="Ccircumflex" horiz-adv-x="699" unicode="&#264;" /><glyph d="M77 0ZM392 -12Q314 -12 255 8Q196 28 156.5 71.5Q117 115 97 184Q77 253 77 351Q77 449 97 517.5Q117 586 156.5 629.5Q196 673 255 692.5Q314 712 392 712Q486 712 548.5 682Q611 652 647 580L577 533Q548 594 503.5 617Q459 640 392 640Q338 640 296 627Q254 614 225 581Q196 548 181 492.5Q166 437 166 352Q166 267 181 211Q196 155 225 121.5Q254 88 296 74Q338 60 392 60Q460 60 509 86Q558 112 593 177L659 132Q616 54 550 21Q484 -12 392 -12ZM334 852Q334 880 350 894Q366 908 394 908Q422 908 437.5 894Q453 880 453 852Q453 824 437.5 809.5Q422 795 394 795Q366 795 350 809.5Q334 824 334 852Z" glyph-name="Cdotaccent" horiz-adv-x="699" unicode="&#266;" /><glyph d="M373 0H110V700H374Q527 700 602 617.5Q677 535 677 354Q677 173 600.5 86.5Q524 0 373 0ZM199 76H370Q420 76 460 89.5Q500 103 528.5 135Q557 167 572.5 220Q588 273 588 351Q588 427 574 479.5Q560 532 533 564Q506 596 466.5 610Q427 624 377 624H199Z" glyph-name="D" horiz-adv-x="753" unicode="D" /><glyph d="M110 0ZM386 838 457 905H550V903L427 788H344L222 903V905H318ZM373 0H110V700H374Q527 700 602 617.5Q677 535 677 354Q677 173 600.5 86.5Q524 0 373 0ZM199 76H370Q420 76 460 89.5Q500 103 528.5 135Q557 167 572.5 220Q588 273 588 351Q588 427 574 479.5Q560 532 533 564Q506 596 466.5 610Q427 624 377 624H199Z" glyph-name="Dcaron" horiz-adv-x="753" unicode="&#270;" /><glyph d="M393 0H130V323H48V394H130V700H394Q547 700 622 617.5Q697 535 697 354Q697 173 620.5 86.5Q544 0 393 0ZM219 76H390Q440 76 480 89.5Q520 103 548.5 135Q577 167 592.5 220Q608 273 608 351Q608 427 594 479.5Q580 532 553 564Q526 596 486.5 610Q447 624 397 624H219V394H379V323H219Z" glyph-name="Dcroat" horiz-adv-x="773" unicode="&#272;" /><glyph d="M110 0V700H616V624H197V391H564V313H197V76H626V0Z" glyph-name="E" horiz-adv-x="666" unicode="E" /><glyph d="M110 0ZM521 899 407 788H334V792L410 905H521ZM110 0V700H616V624H197V391H564V313H197V76H626V0Z" glyph-name="Eacute" horiz-adv-x="666" unicode="&#201;" /><glyph d="M110 0ZM110 0V700H616V624H197V391H564V313H197V76H626V0ZM450 905H516Q516 870 506 846Q496 822 478 808Q460 794 433.5 788Q407 782 374 782Q341 782 314.5 788Q288 794 269.5 808Q251 822 241 846Q231 870 231 905H297Q297 866 316 851.5Q335 837 373 837Q411 837 430.5 851.5Q450 866 450 905Z" glyph-name="Ebreve" horiz-adv-x="666" unicode="&#276;" /><glyph d="M110 0ZM374 838 445 905H538V903L415 788H332L210 903V905H306ZM110 0V700H616V624H197V391H564V313H197V76H626V0Z" glyph-name="Ecaron" horiz-adv-x="666" unicode="&#282;" /><glyph d="M110 0ZM375 857 305 788H212V791L334 905H417L540 791V788H442ZM110 0V700H616V624H197V391H564V313H197V76H626V0Z" glyph-name="Ecircumflex" horiz-adv-x="666" unicode="&#202;" /><glyph d="M110 0ZM400 851Q400 879 416 893Q432 907 460 907Q488 907 503.5 893Q519 879 519 851Q519 823 503.5 808.5Q488 794 460 794Q432 794 416 808.5Q400 823 400 851ZM227 851Q227 879 243 893Q259 907 287 907Q315 907 330.5 893Q346 879 346 851Q346 823 330.5 808.5Q315 794 287 794Q259 794 243 808.5Q227 823 227 851ZM110 0V700H616V624H197V391H564V313H197V76H626V0Z" glyph-name="Edieresis" horiz-adv-x="666" unicode="&#203;" /><glyph d="M110 0ZM110 0V700H616V624H197V391H564V313H197V76H626V0ZM316 851Q316 879 332 893Q348 907 376 907Q404 907 419.5 893Q435 879 435 851Q435 823 419.5 808.5Q404 794 376 794Q348 794 332 808.5Q316 823 316 851Z" glyph-name="Edotaccent" horiz-adv-x="666" unicode="&#278;" /><glyph d="M110 0ZM110 0V700H616V624H197V391H564V313H197V76H626V0ZM345 789 230 900V906H341L418 793V789Z" glyph-name="Egrave" horiz-adv-x="666" unicode="&#200;" /><glyph d="M110 0ZM110 0V700H616V624H197V391H564V313H197V76H626V0ZM501 874V815H247V874Z" glyph-name="Emacron" horiz-adv-x="666" unicode="&#274;" /><glyph d="M585 -33V-6L193 569L196 0H110V700H200L589 131L587 700H673V-44Q673 -134 632 -175Q591 -216 520 -216Q500 -216 483 -213.5Q466 -211 443 -203L457 -131Q471 -136 483.5 -139Q496 -142 514 -142Q531 -142 544 -137Q557 -132 566 -119.5Q575 -107 580 -86Q585 -65 585 -33Z" glyph-name="Eng" horiz-adv-x="783" unicode="&#330;" /><glyph d="M110 0V700H616V625H198V391H564V313H198V75H626V0Q598 -2 577.5 -11.5Q557 -21 543.5 -35Q530 -49 523.5 -66.5Q517 -84 517 -101Q517 -129 532.5 -140Q548 -151 575 -151Q611 -151 641 -133L654 -189Q635 -200 614.5 -206Q594 -212 568 -212Q546 -212 525 -207Q504 -202 488 -190.5Q472 -179 462.5 -159.5Q453 -140 453 -111Q453 -74 467.5 -46Q482 -18 506 0Z" glyph-name="Eogonek" horiz-adv-x="666" unicode="&#280;" /><glyph d="M393 0H130V323H48V394H130V700H394Q547 700 622 617.5Q697 535 697 354Q697 173 620.5 86.5Q544 0 393 0ZM219 76H390Q440 76 480 89.5Q520 103 548.5 135Q577 167 592.5 220Q608 273 608 351Q608 427 594 479.5Q580 532 553 564Q526 596 486.5 610Q447 624 397 624H219V394H379V323H219Z" glyph-name="Eth" horiz-adv-x="773" unicode="&#208;" /><glyph d="M390 -12Q263 -12 189 47Q115 106 95 241H5V309H89Q88 314 88 323V365H5V433H92Q107 582 181.5 647Q256 712 390 712Q481 712 541.5 680.5Q602 649 637 574L567 526Q538 590 496 615.5Q454 641 390 641Q346 641 310 631Q274 621 247.5 597Q221 573 204 533Q187 493 181 433H496L479 365H177V323Q177 314 178 309H465L448 241H185Q194 190 211.5 155.5Q229 121 254.5 100Q280 79 314 70Q348 61 390 61Q453 61 498.5 85Q544 109 576 169L643 125Q601 51 539.5 19.5Q478 -12 390 -12Z" glyph-name="Euro" horiz-adv-x="682" unicode="&#8364;" /><glyph d="M110 0V700H598V624H199V388H557V310H199V0Z" glyph-name="F" horiz-adv-x="614" unicode="F" /><glyph d="M377 -12Q231 -12 154 75.5Q77 163 77 351Q77 449 97 517.5Q117 586 156.5 629.5Q196 673 255 692.5Q314 712 392 712Q486 712 548 681.5Q610 651 646 584L575 536Q546 592 502 616Q458 640 392 640Q338 640 295.5 627.5Q253 615 224.5 582.5Q196 550 181 494Q166 438 166 351Q166 267 180.5 211.5Q195 156 223.5 122Q252 88 293.5 74Q335 60 388 60Q422 60 456.5 69.5Q491 79 519 101.5Q547 124 565.5 162Q584 200 585 258V283H394V353H667V0H593L587 99Q558 46 502 17Q446 -12 377 -12Z" glyph-name="G" horiz-adv-x="743" unicode="G" /><glyph d="M376 -12Q230 -12 153.5 75.5Q77 163 77 351Q77 449 96.5 517.5Q116 586 155.5 629.5Q195 673 254 692.5Q313 712 391 712Q485 712 547 681Q609 650 645 584L574 535Q545 591 501 615.5Q457 640 391 640Q337 640 295 627.5Q253 615 224.5 582.5Q196 550 181 494Q166 438 166 351Q166 267 180.5 211.5Q195 156 223 122Q251 88 292 74Q333 60 386 60Q431 60 467 72Q503 84 528.5 110Q554 136 567.5 178.5Q581 221 579 283H393V353H668V290Q667 131 592 59.5Q517 -12 376 -12Z" glyph-name="G.alt" horiz-adv-x="743" /><glyph d="M77 0ZM377 -12Q231 -12 154 75.5Q77 163 77 351Q77 449 97 517.5Q117 586 156.5 629.5Q196 673 255 692.5Q314 712 392 712Q486 712 548 681.5Q610 651 646 584L575 536Q546 592 502 616Q458 640 392 640Q338 640 295.5 627.5Q253 615 224.5 582.5Q196 550 181 494Q166 438 166 351Q166 267 180.5 211.5Q195 156 223.5 122Q252 88 293.5 74Q335 60 388 60Q422 60 456.5 69.5Q491 79 519 101.5Q547 124 565.5 162Q584 200 585 258V283H394V353H667V0H593L587 99Q558 46 502 17Q446 -12 377 -12ZM464 905H530Q530 870 520 846Q510 822 492 808Q474 794 447.5 788Q421 782 388 782Q355 782 328.5 788Q302 794 283.5 808Q265 822 255 846Q245 870 245 905H311Q311 866 330 851.5Q349 837 387 837Q425 837 444.5 851.5Q464 866 464 905Z" glyph-name="Gbreve" horiz-adv-x="743" unicode="&#286;" /><glyph d="M464 905H530Q530 870 520 846Q510 822 492 808Q474 794 447.5 788Q421 782 388 782Q355 782 328.5 788Q302 794 283.5 808Q265 822 255 846Q245 870 245 905H311Q311 866 330 851.5Q349 837 387 837Q425 837 444.5 851.5Q464 866 464 905ZM376 -12Q230 -12 153.5 75.5Q77 163 77 351Q77 449 96.5 517.5Q116 586 155.5 629.5Q195 673 254 692.5Q313 712 391 712Q485 712 547 681Q609 650 645 584L574 535Q545 591 501 615.5Q457 640 391 640Q337 640 295 627.5Q253 615 224.5 582.5Q196 550 181 494Q166 438 166 351Q166 267 180.5 211.5Q195 156 223 122Q251 88 292 74Q333 60 386 60Q431 60 467 72Q503 84 528.5 110Q554 136 567.5 178.5Q581 221 579 283H393V353H668V290Q667 131 592 59.5Q517 -12 376 -12Z" glyph-name="Gbreve.alt" horiz-adv-x="743" /><glyph d="M77 0ZM390 857 320 788H227V791L349 905H432L555 791V788H457ZM377 -12Q231 -12 154 75.5Q77 163 77 351Q77 449 97 517.5Q117 586 156.5 629.5Q196 673 255 692.5Q314 712 392 712Q486 712 548 681.5Q610 651 646 584L575 536Q546 592 502 616Q458 640 392 640Q338 640 295.5 627.5Q253 615 224.5 582.5Q196 550 181 494Q166 438 166 351Q166 267 180.5 211.5Q195 156 223.5 122Q252 88 293.5 74Q335 60 388 60Q422 60 456.5 69.5Q491 79 519 101.5Q547 124 565.5 162Q584 200 585 258V283H394V353H667V0H593L587 99Q558 46 502 17Q446 -12 377 -12Z" glyph-name="Gcircumflex" horiz-adv-x="743" unicode="&#284;" /><glyph d="M390 857 320 788H227V791L349 905H432L555 791V788H457ZM376 -12Q230 -12 153.5 75.5Q77 163 77 351Q77 449 96.5 517.5Q116 586 155.5 629.5Q195 673 254 692.5Q313 712 391 712Q485 712 547 681Q609 650 645 584L574 535Q545 591 501 615.5Q457 640 391 640Q337 640 295 627.5Q253 615 224.5 582.5Q196 550 181 494Q166 438 166 351Q166 267 180.5 211.5Q195 156 223 122Q251 88 292 74Q333 60 386 60Q431 60 467 72Q503 84 528.5 110Q554 136 567.5 178.5Q581 221 579 283H393V353H668V290Q667 131 592 59.5Q517 -12 376 -12Z" glyph-name="Gcircumflex.alt" horiz-adv-x="743" /><glyph d="M77 0ZM344 -292 327 -252Q356 -244 371.5 -222.5Q387 -201 390 -172H385Q326 -172 326 -117Q326 -91 341 -77.5Q356 -64 382 -64Q411 -64 427 -82.5Q443 -101 443 -145Q443 -196 419 -237Q395 -278 344 -292ZM377 -12Q231 -12 154 75.5Q77 163 77 351Q77 449 97 517.5Q117 586 156.5 629.5Q196 673 255 692.5Q314 712 392 712Q486 712 548 681.5Q610 651 646 584L575 536Q546 592 502 616Q458 640 392 640Q338 640 295.5 627.5Q253 615 224.5 582.5Q196 550 181 494Q166 438 166 351Q166 267 180.5 211.5Q195 156 223.5 122Q252 88 293.5 74Q335 60 388 60Q422 60 456.5 69.5Q491 79 519 101.5Q547 124 565.5 162Q584 200 585 258V283H394V353H667V0H593L587 99Q558 46 502 17Q446 -12 377 -12Z" glyph-name="Gcommaaccent" horiz-adv-x="743" unicode="&#290;" /><glyph d="M376 -12Q230 -12 153.5 75.5Q77 163 77 351Q77 449 96.5 517.5Q116 586 155.5 629.5Q195 673 254 692.5Q313 712 391 712Q485 712 547 681Q609 650 645 584L574 535Q545 591 501 615.5Q457 640 391 640Q337 640 295 627.5Q253 615 224.5 582.5Q196 550 181 494Q166 438 166 351Q166 267 180.5 211.5Q195 156 223 122Q251 88 292 74Q333 60 386 60Q431 60 467 72Q503 84 528.5 110Q554 136 567.5 178.5Q581 221 579 283H393V353H668V290Q667 131 592 59.5Q517 -12 376 -12ZM344 -292 327 -252Q356 -244 371.5 -222.5Q387 -201 390 -172H385Q326 -172 326 -117Q326 -91 341 -77.5Q356 -64 382 -64Q411 -64 427 -82.5Q443 -101 443 -145Q443 -196 419 -237Q395 -278 344 -292Z" glyph-name="Gcommaaccent.alt" horiz-adv-x="743" /><glyph d="M77 0ZM377 -12Q231 -12 154 75.5Q77 163 77 351Q77 449 97 517.5Q117 586 156.5 629.5Q196 673 255 692.5Q314 712 392 712Q486 712 548 681.5Q610 651 646 584L575 536Q546 592 502 616Q458 640 392 640Q338 640 295.5 627.5Q253 615 224.5 582.5Q196 550 181 494Q166 438 166 351Q166 267 180.5 211.5Q195 156 223.5 122Q252 88 293.5 74Q335 60 388 60Q422 60 456.5 69.5Q491 79 519 101.5Q547 124 565.5 162Q584 200 585 258V283H394V353H667V0H593L587 99Q558 46 502 17Q446 -12 377 -12ZM330 851Q330 879 346 893Q362 907 390 907Q418 907 433.5 893Q449 879 449 851Q449 823 433.5 808.5Q418 794 390 794Q362 794 346 808.5Q330 823 330 851Z" glyph-name="Gdotaccent" horiz-adv-x="743" unicode="&#288;" /><glyph d="M330 851Q330 879 346 893Q362 907 390 907Q418 907 433.5 893Q449 879 449 851Q449 823 433.5 808.5Q418 794 390 794Q362 794 346 808.5Q330 823 330 851ZM376 -12Q230 -12 153.5 75.5Q77 163 77 351Q77 449 96.5 517.5Q116 586 155.5 629.5Q195 673 254 692.5Q313 712 391 712Q485 712 547 681Q609 650 645 584L574 535Q545 591 501 615.5Q457 640 391 640Q337 640 295 627.5Q253 615 224.5 582.5Q196 550 181 494Q166 438 166 351Q166 267 180.5 211.5Q195 156 223 122Q251 88 292 74Q333 60 386 60Q431 60 467 72Q503 84 528.5 110Q554 136 567.5 178.5Q581 221 579 283H393V353H668V290Q667 131 592 59.5Q517 -12 376 -12Z" glyph-name="Gdotaccent.alt" horiz-adv-x="743" /><glyph d="M596 0V313H199V0H110V700H199V391H596V700H685V0Z" glyph-name="H" horiz-adv-x="795" unicode="H" /><glyph d="M209 391H606V490H209ZM606 0V313H209V0H120V490H48V551H120V700H209V551H606V700H695V551H767V490H695V0Z" glyph-name="Hbar" horiz-adv-x="815" unicode="&#294;" /><glyph d="M110 0ZM399 858 329 789H236V792L358 906H441L564 792V789H466ZM596 0V313H199V0H110V700H199V391H596V700H685V0Z" glyph-name="Hcircumflex" horiz-adv-x="795" unicode="&#292;" /><glyph d="M110 0V700H199V0Z" glyph-name="I" horiz-adv-x="309" unicode="I" /><glyph d="M110 0ZM110 0V700H199V0ZM487 -12Q444 -12 404 -0.5Q364 11 329 37L370 104Q396 83 428 72.5Q460 62 494 62Q560 62 600.5 105.5Q641 149 641 251V700H730V258Q730 181 712 129Q694 77 661.5 45.5Q629 14 584.5 1Q540 -12 487 -12Z" glyph-name="IJ" horiz-adv-x="822" unicode="&#306;" /><glyph d="M110 0ZM110 0V700H199V0ZM301 899 187 788H114V792L190 905H301Z" glyph-name="Iacute" horiz-adv-x="309" unicode="&#205;" /><glyph d="M11 0ZM110 0V700H199V0ZM230 905H296Q296 870 286 846Q276 822 258 808Q240 794 213.5 788Q187 782 154 782Q121 782 94.5 788Q68 794 49.5 808Q31 822 21 846Q11 870 11 905H77Q77 866 96 851.5Q115 837 153 837Q191 837 210.5 851.5Q230 866 230 905Z" glyph-name="Ibreve" horiz-adv-x="309" unicode="&#300;" /><glyph d="M0 0ZM110 0V700H199V0ZM155 857 85 788H-8V791L114 905H197L320 791V788H222Z" glyph-name="Icircumflex" horiz-adv-x="309" unicode="&#206;" /><glyph d="M7 0ZM110 0V700H199V0ZM180 851Q180 879 196 893Q212 907 240 907Q268 907 283.5 893Q299 879 299 851Q299 823 283.5 808.5Q268 794 240 794Q212 794 196 808.5Q180 823 180 851ZM7 851Q7 879 23 893Q39 907 67 907Q95 907 110.5 893Q126 879 126 851Q126 823 110.5 808.5Q95 794 67 794Q39 794 23 808.5Q7 823 7 851Z" glyph-name="Idieresis" horiz-adv-x="309" unicode="&#207;" /><glyph d="M96 0ZM110 0V700H199V0ZM96 851Q96 879 112 893Q128 907 156 907Q184 907 199.5 893Q215 879 215 851Q215 823 199.5 808.5Q184 794 156 794Q128 794 112 808.5Q96 823 96 851Z" glyph-name="Idotaccent" horiz-adv-x="309" unicode="&#304;" /><glyph d="M10 0ZM110 0V700H199V0ZM125 789 10 900V906H121L198 793V789Z" glyph-name="Igrave" horiz-adv-x="309" unicode="&#204;" /><glyph d="M28 0ZM110 0V700H199V0ZM282 874V815H28V874Z" glyph-name="Imacron" horiz-adv-x="309" unicode="&#298;" /><glyph d="M113 -212Q91 -212 70 -207Q49 -202 33 -190.5Q17 -179 7.5 -159.5Q-2 -140 -2 -111Q-2 -82 7.5 -58.5Q17 -35 32.5 -17.5Q48 0 68 12Q88 24 110 30V700H199V0H158Q135 -2 117 -11.5Q99 -21 87 -35Q75 -49 68.5 -66.5Q62 -84 62 -101Q62 -129 77.5 -140Q93 -151 120 -151Q156 -151 186 -133L199 -189Q180 -200 159.5 -206Q139 -212 113 -212Z" glyph-name="Iogonek" horiz-adv-x="309" unicode="&#302;" /><glyph d="M0 0ZM110 0V700H199V0ZM246 898H311Q313 869 305.5 849.5Q298 830 285 818.5Q272 807 255.5 802Q239 797 223 797Q202 797 184 803.5Q166 810 150 817.5Q134 825 119.5 831.5Q105 838 92 838Q74 838 68.5 826.5Q63 815 63 801H-3Q-5 830 2.5 849.5Q10 869 22.5 880.5Q35 892 51 897Q67 902 84 902Q106 902 124.5 895.5Q143 889 159 881.5Q175 874 189 867.5Q203 861 217 861Q235 861 240.5 872Q246 883 246 898Z" glyph-name="Itilde" horiz-adv-x="309" unicode="&#296;" /><glyph d="M174 -12Q131 -12 91 -0.5Q51 11 16 37L57 104Q83 83 115 72.5Q147 62 181 62Q247 62 287.5 105.5Q328 149 328 251V700H417V258Q417 181 399 129Q381 77 348.5 45.5Q316 14 271.5 1Q227 -12 174 -12Z" glyph-name="J" horiz-adv-x="509" unicode="J" /><glyph d="M16 0ZM375 857 305 788H212V791L334 905H417L540 791V788H442ZM174 -12Q131 -12 91 -0.5Q51 11 16 37L57 104Q83 83 115 72.5Q147 62 181 62Q247 62 287.5 105.5Q328 149 328 251V700H417V258Q417 181 399 129Q381 77 348.5 45.5Q316 14 271.5 1Q227 -12 174 -12Z" glyph-name="Jcircumflex" horiz-adv-x="509" unicode="&#308;" /><glyph d="M110 0V700H199V311L518 700H624L362 387L639 0H533L303 322L199 199V0Z" glyph-name="K" horiz-adv-x="641" unicode="K" /><glyph d="M523 0 218 341V344L518 700H621L321 354L638 0ZM109 0V700H200V0Z" glyph-name="K.alt" horiz-adv-x="638" /><glyph d="M110 0ZM307 -292 290 -252Q319 -244 334.5 -222.5Q350 -201 353 -172H348Q289 -172 289 -117Q289 -91 304 -77.5Q319 -64 345 -64Q374 -64 390 -82.5Q406 -101 406 -145Q406 -196 382 -237Q358 -278 307 -292ZM110 0V700H199V311L518 700H624L362 387L639 0H533L303 322L199 199V0Z" glyph-name="Kcommaaccent" horiz-adv-x="641" unicode="&#310;" /><glyph d="M109 0ZM307 -292 290 -252Q319 -244 334.5 -222.5Q350 -201 353 -172H348Q289 -172 289 -117Q289 -91 304 -77.5Q319 -64 345 -64Q374 -64 390 -82.5Q406 -101 406 -145Q406 -196 382 -237Q358 -278 307 -292ZM523 0 218 341V344L518 700H621L321 354L638 0ZM109 0V700H200V0Z" glyph-name="Kcommaaccent.alt" horiz-adv-x="638" /><glyph d="M199 76H606V0H110V700H199Z" glyph-name="L" horiz-adv-x="633" unicode="L" /><glyph d="M110 0ZM300 899 186 788H113V792L189 905H300ZM199 76H606V0H110V700H199Z" glyph-name="Lacute" horiz-adv-x="633" unicode="&#313;" /><glyph d="M110 0ZM454 481H395L402 701H486ZM199 76H606V0H110V700H199Z" glyph-name="Lcaron" horiz-adv-x="633" unicode="&#317;" /><glyph d="M110 0ZM319 -292 302 -252Q331 -244 346.5 -222.5Q362 -201 365 -172H360Q301 -172 301 -117Q301 -91 316 -77.5Q331 -64 357 -64Q386 -64 402 -82.5Q418 -101 418 -145Q418 -196 394 -237Q370 -278 319 -292ZM199 76H606V0H110V700H199Z" glyph-name="Lcommaaccent" horiz-adv-x="633" unicode="&#315;" /><glyph d="M110 0ZM199 76H606V0H110V700H199ZM395 359Q395 387 411 401Q427 415 455 415Q483 415 498.5 401Q514 387 514 359Q514 331 498.5 316.5Q483 302 455 302Q427 302 411 316.5Q395 331 395 359Z" glyph-name="Ldot" horiz-adv-x="633" unicode="&#319;" /><glyph d="M219 76H626V0H130V251L25 185V266L130 332V700H219V388L396 499V417L219 306Z" glyph-name="Lslash" horiz-adv-x="653" unicode="&#321;" /><glyph d="M439 0 192 547 195 0H110V700H206L476 101L744 700H839V0H753L757 547L510 0Z" glyph-name="M" horiz-adv-x="949" unicode="M" /><glyph d="M581 0 193 569 196 0H110V700H200L589 131L587 700H673V0Z" glyph-name="N" horiz-adv-x="783" unicode="N" /><glyph glyph-name="NULL" horiz-adv-x="176" /><glyph d="M110 0ZM537 899 423 788H350V792L426 905H537ZM581 0 193 569 196 0H110V700H200L589 131L587 700H673V0Z" glyph-name="Nacute" horiz-adv-x="783" unicode="&#323;" /><glyph d="M110 0ZM391 838 462 905H555V903L432 788H349L227 903V905H323ZM581 0 193 569 196 0H110V700H200L589 131L587 700H673V0Z" glyph-name="Ncaron" horiz-adv-x="783" unicode="&#327;" /><glyph d="M110 0ZM353 -292 336 -252Q365 -244 380.5 -222.5Q396 -201 399 -172H394Q335 -172 335 -117Q335 -91 350 -77.5Q365 -64 391 -64Q420 -64 436 -82.5Q452 -101 452 -145Q452 -196 428 -237Q404 -278 353 -292ZM581 0 193 569 196 0H110V700H200L589 131L587 700H673V0Z" glyph-name="Ncommaaccent" horiz-adv-x="783" unicode="&#325;" /><glyph d="M110 0ZM581 0 193 569 196 0H110V700H200L589 131L587 700H673V0ZM481 898H546Q548 869 540.5 849.5Q533 830 520 818.5Q507 807 490.5 802Q474 797 458 797Q437 797 419 803.5Q401 810 385 817.5Q369 825 354.5 831.5Q340 838 327 838Q309 838 303.5 826.5Q298 815 298 801H232Q230 830 237.5 849.5Q245 869 257.5 880.5Q270 892 286 897Q302 902 319 902Q341 902 359.5 895.5Q378 889 394 881.5Q410 874 424 867.5Q438 861 452 861Q470 861 475.5 872Q481 883 481 898Z" glyph-name="Ntilde" horiz-adv-x="783" unicode="&#209;" /><glyph d="M391 -12Q311 -12 252 8.5Q193 29 154 73.5Q115 118 96 186.5Q77 255 77 351Q77 447 96.5 515.5Q116 584 155 627.5Q194 671 253 691.5Q312 712 391 712Q473 712 532.5 691.5Q592 671 630.5 627.5Q669 584 687.5 515.5Q706 447 706 351Q706 159 627 73.5Q548 -12 391 -12ZM391 640Q336 640 294 626.5Q252 613 223.5 580Q195 547 180.5 491Q166 435 166 350Q166 267 180.5 211.5Q195 156 223.5 122Q252 88 294 74Q336 60 391 60Q446 60 488.5 74Q531 88 559.5 121.5Q588 155 602.5 211Q617 267 617 352Q617 434 602.5 489.5Q588 545 559.5 578.5Q531 612 488.5 626Q446 640 391 640Z" glyph-name="O" horiz-adv-x="782" unicode="O" /><glyph d="M1064 0H383Q227 0 151.5 86Q76 172 76 354Q76 535 152 617.5Q228 700 385 700H1054V624H643V391H1002V313H643V76H1064ZM386 76H554V624H382Q330 624 289.5 610Q249 596 221.5 564Q194 532 179.5 479.5Q165 427 165 351Q165 273 180 220Q195 167 223.5 135Q252 103 293 89.5Q334 76 386 76Z" glyph-name="OE" horiz-adv-x="1104" unicode="&#338;" /><glyph d="M77 0ZM538 899 424 788H351V792L427 905H538ZM391 -12Q311 -12 252 8.5Q193 29 154 73.5Q115 118 96 186.5Q77 255 77 351Q77 447 96.5 515.5Q116 584 155 627.5Q194 671 253 691.5Q312 712 391 712Q473 712 532.5 691.5Q592 671 630.5 627.5Q669 584 687.5 515.5Q706 447 706 351Q706 159 627 73.5Q548 -12 391 -12ZM391 640Q336 640 294 626.5Q252 613 223.5 580Q195 547 180.5 491Q166 435 166 350Q166 267 180.5 211.5Q195 156 223.5 122Q252 88 294 74Q336 60 391 60Q446 60 488.5 74Q531 88 559.5 121.5Q588 155 602.5 211Q617 267 617 352Q617 434 602.5 489.5Q588 545 559.5 578.5Q531 612 488.5 626Q446 640 391 640Z" glyph-name="Oacute" horiz-adv-x="782" unicode="&#211;" /><glyph d="M77 0ZM391 -12Q311 -12 252 8.5Q193 29 154 73.5Q115 118 96 186.5Q77 255 77 351Q77 447 96.5 515.5Q116 584 155 627.5Q194 671 253 691.5Q312 712 391 712Q473 712 532.5 691.5Q592 671 630.5 627.5Q669 584 687.5 515.5Q706 447 706 351Q706 159 627 73.5Q548 -12 391 -12ZM391 640Q336 640 294 626.5Q252 613 223.5 580Q195 547 180.5 491Q166 435 166 350Q166 267 180.5 211.5Q195 156 223.5 122Q252 88 294 74Q336 60 391 60Q446 60 488.5 74Q531 88 559.5 121.5Q588 155 602.5 211Q617 267 617 352Q617 434 602.5 489.5Q588 545 559.5 578.5Q531 612 488.5 626Q446 640 391 640ZM467 905H533Q533 870 523 846Q513 822 495 808Q477 794 450.5 788Q424 782 391 782Q358 782 331.5 788Q305 794 286.5 808Q268 822 258 846Q248 870 248 905H314Q314 866 333 851.5Q352 837 390 837Q428 837 447.5 851.5Q467 866 467 905Z" glyph-name="Obreve" horiz-adv-x="782" unicode="&#334;" /><glyph d="M77 0ZM392 857 322 788H229V791L351 905H434L557 791V788H459ZM391 -12Q311 -12 252 8.5Q193 29 154 73.5Q115 118 96 186.5Q77 255 77 351Q77 447 96.5 515.5Q116 584 155 627.5Q194 671 253 691.5Q312 712 391 712Q473 712 532.5 691.5Q592 671 630.5 627.5Q669 584 687.5 515.5Q706 447 706 351Q706 159 627 73.5Q548 -12 391 -12ZM391 640Q336 640 294 626.5Q252 613 223.5 580Q195 547 180.5 491Q166 435 166 350Q166 267 180.5 211.5Q195 156 223.5 122Q252 88 294 74Q336 60 391 60Q446 60 488.5 74Q531 88 559.5 121.5Q588 155 602.5 211Q617 267 617 352Q617 434 602.5 489.5Q588 545 559.5 578.5Q531 612 488.5 626Q446 640 391 640Z" glyph-name="Ocircumflex" horiz-adv-x="782" unicode="&#212;" /><glyph d="M77 0ZM417 851Q417 879 433 893Q449 907 477 907Q505 907 520.5 893Q536 879 536 851Q536 823 520.5 808.5Q505 794 477 794Q449 794 433 808.5Q417 823 417 851ZM244 851Q244 879 260 893Q276 907 304 907Q332 907 347.5 893Q363 879 363 851Q363 823 347.5 808.5Q332 794 304 794Q276 794 260 808.5Q244 823 244 851ZM391 -12Q311 -12 252 8.5Q193 29 154 73.5Q115 118 96 186.5Q77 255 77 351Q77 447 96.5 515.5Q116 584 155 627.5Q194 671 253 691.5Q312 712 391 712Q473 712 532.5 691.5Q592 671 630.5 627.5Q669 584 687.5 515.5Q706 447 706 351Q706 159 627 73.5Q548 -12 391 -12ZM391 640Q336 640 294 626.5Q252 613 223.5 580Q195 547 180.5 491Q166 435 166 350Q166 267 180.5 211.5Q195 156 223.5 122Q252 88 294 74Q336 60 391 60Q446 60 488.5 74Q531 88 559.5 121.5Q588 155 602.5 211Q617 267 617 352Q617 434 602.5 489.5Q588 545 559.5 578.5Q531 612 488.5 626Q446 640 391 640Z" glyph-name="Odieresis" horiz-adv-x="782" unicode="&#214;" /><glyph d="M77 0ZM391 -12Q311 -12 252 8.5Q193 29 154 73.5Q115 118 96 186.5Q77 255 77 351Q77 447 96.5 515.5Q116 584 155 627.5Q194 671 253 691.5Q312 712 391 712Q473 712 532.5 691.5Q592 671 630.5 627.5Q669 584 687.5 515.5Q706 447 706 351Q706 159 627 73.5Q548 -12 391 -12ZM391 640Q336 640 294 626.5Q252 613 223.5 580Q195 547 180.5 491Q166 435 166 350Q166 267 180.5 211.5Q195 156 223.5 122Q252 88 294 74Q336 60 391 60Q446 60 488.5 74Q531 88 559.5 121.5Q588 155 602.5 211Q617 267 617 352Q617 434 602.5 489.5Q588 545 559.5 578.5Q531 612 488.5 626Q446 640 391 640ZM362 790 247 901V907H358L435 794V790Z" glyph-name="Ograve" horiz-adv-x="782" unicode="&#210;" /><glyph d="M77 0ZM601 899 481 788H411V792L488 905H601ZM444 899 352 788H282V792L344 905H444ZM391 -12Q311 -12 252 8.5Q193 29 154 73.5Q115 118 96 186.5Q77 255 77 351Q77 447 96.5 515.5Q116 584 155 627.5Q194 671 253 691.5Q312 712 391 712Q473 712 532.5 691.5Q592 671 630.5 627.5Q669 584 687.5 515.5Q706 447 706 351Q706 159 627 73.5Q548 -12 391 -12ZM391 640Q336 640 294 626.5Q252 613 223.5 580Q195 547 180.5 491Q166 435 166 350Q166 267 180.5 211.5Q195 156 223.5 122Q252 88 294 74Q336 60 391 60Q446 60 488.5 74Q531 88 559.5 121.5Q588 155 602.5 211Q617 267 617 352Q617 434 602.5 489.5Q588 545 559.5 578.5Q531 612 488.5 626Q446 640 391 640Z" glyph-name="Ohungarumlaut" horiz-adv-x="782" unicode="&#336;" /><glyph d="M77 0ZM519 874V815H265V874ZM391 -12Q311 -12 252 8.5Q193 29 154 73.5Q115 118 96 186.5Q77 255 77 351Q77 447 96.5 515.5Q116 584 155 627.5Q194 671 253 691.5Q312 712 391 712Q473 712 532.5 691.5Q592 671 630.5 627.5Q669 584 687.5 515.5Q706 447 706 351Q706 159 627 73.5Q548 -12 391 -12ZM391 640Q336 640 294 626.5Q252 613 223.5 580Q195 547 180.5 491Q166 435 166 350Q166 267 180.5 211.5Q195 156 223.5 122Q252 88 294 74Q336 60 391 60Q446 60 488.5 74Q531 88 559.5 121.5Q588 155 602.5 211Q617 267 617 352Q617 434 602.5 489.5Q588 545 559.5 578.5Q531 612 488.5 626Q446 640 391 640Z" glyph-name="Omacron" horiz-adv-x="782" unicode="&#332;" /><glyph d="M140 0H45L136 104Q82 191 82 351Q82 447 101.5 515.5Q121 584 160 627.5Q199 671 258 691.5Q317 712 396 712Q468 712 522 696.5Q576 681 614 648L660 700H754L660 593Q711 506 711 351Q711 159 632 73.5Q553 -12 396 -12Q327 -12 274 2.5Q221 17 183 49ZM559 584Q530 614 489.5 627Q449 640 396 640Q341 640 299 626.5Q257 613 228.5 580Q200 547 185.5 491Q171 435 171 350Q171 238 198 174ZM238 111Q266 83 305.5 71.5Q345 60 396 60Q451 60 493.5 74Q536 88 564.5 121.5Q593 155 607.5 211Q622 267 622 352Q622 459 597 521Z" glyph-name="Oslash" horiz-adv-x="792" unicode="&#216;" /><glyph d="M77 0ZM391 -12Q311 -12 252 8.5Q193 29 154 73.5Q115 118 96 186.5Q77 255 77 351Q77 447 96.5 515.5Q116 584 155 627.5Q194 671 253 691.5Q312 712 391 712Q473 712 532.5 691.5Q592 671 630.5 627.5Q669 584 687.5 515.5Q706 447 706 351Q706 159 627 73.5Q548 -12 391 -12ZM391 640Q336 640 294 626.5Q252 613 223.5 580Q195 547 180.5 491Q166 435 166 350Q166 267 180.5 211.5Q195 156 223.5 122Q252 88 294 74Q336 60 391 60Q446 60 488.5 74Q531 88 559.5 121.5Q588 155 602.5 211Q617 267 617 352Q617 434 602.5 489.5Q588 545 559.5 578.5Q531 612 488.5 626Q446 640 391 640ZM482 898H547Q549 869 541.5 849.5Q534 830 521 818.5Q508 807 491.5 802Q475 797 459 797Q438 797 420 803.5Q402 810 386 817.5Q370 825 355.5 831.5Q341 838 328 838Q310 838 304.5 826.5Q299 815 299 801H233Q231 830 238.5 849.5Q246 869 258.5 880.5Q271 892 287 897Q303 902 320 902Q342 902 360.5 895.5Q379 889 395 881.5Q411 874 425 867.5Q439 861 453 861Q471 861 476.5 872Q482 883 482 898Z" glyph-name="Otilde" horiz-adv-x="782" unicode="&#213;" /><glyph d="M110 0V700H389Q510 700 569.5 643Q629 586 629 480Q629 364 566 304.5Q503 245 379 245H199V0ZM390 624H199V321H389Q460 321 500 360Q540 399 540 477Q540 548 503 586Q466 624 390 624Z" glyph-name="P" horiz-adv-x="672" unicode="P" /><glyph d="M568 26 655 -92H554L488 -2Q445 -12 391 -12Q311 -12 252 8.5Q193 29 154 73.5Q115 118 96 186.5Q77 255 77 351Q77 447 96.5 515.5Q116 584 155 627.5Q194 671 253 691.5Q312 712 391 712Q473 712 532.5 691.5Q592 671 630.5 627.5Q669 584 687.5 515.5Q706 447 706 351Q706 223 671.5 143.5Q637 64 568 26ZM391 640Q336 640 294 626.5Q252 613 223.5 580Q195 547 180.5 491Q166 435 166 350Q166 267 180.5 211.5Q195 156 223.5 122Q252 88 294 74Q336 60 391 60Q416 60 439 63L344 192H446L521 89Q569 118 593.5 180Q618 242 618 352Q618 434 603 489.5Q588 545 559.5 578.5Q531 612 488.5 626Q446 640 391 640Z" glyph-name="Q" horiz-adv-x="779" unicode="Q" /><glyph d="M388 624H199V342H387Q456 342 495 377.5Q534 413 534 487Q534 553 498.5 588.5Q463 624 388 624ZM199 265V0H110V700H388Q507 700 565 645.5Q623 591 623 490Q623 407 587 355Q551 303 485 280L635 0H537L395 265Z" glyph-name="R" horiz-adv-x="676" unicode="R" /><glyph d="M110 0ZM511 899 397 788H324V792L400 905H511ZM388 624H199V342H387Q456 342 495 377.5Q534 413 534 487Q534 553 498.5 588.5Q463 624 388 624ZM199 265V0H110V700H388Q507 700 565 645.5Q623 591 623 490Q623 407 587 355Q551 303 485 280L635 0H537L395 265Z" glyph-name="Racute" horiz-adv-x="676" unicode="&#340;" /><glyph d="M110 0ZM365 838 436 905H529V903L406 788H323L201 903V905H297ZM388 624H199V342H387Q456 342 495 377.5Q534 413 534 487Q534 553 498.5 588.5Q463 624 388 624ZM199 265V0H110V700H388Q507 700 565 645.5Q623 591 623 490Q623 407 587 355Q551 303 485 280L635 0H537L395 265Z" glyph-name="Rcaron" horiz-adv-x="676" unicode="&#344;" /><glyph d="M110 0ZM307 -292 290 -252Q319 -244 334.5 -222.5Q350 -201 353 -172H348Q289 -172 289 -117Q289 -91 304 -77.5Q319 -64 345 -64Q374 -64 390 -82.5Q406 -101 406 -145Q406 -196 382 -237Q358 -278 307 -292ZM388 624H199V342H387Q456 342 495 377.5Q534 413 534 487Q534 553 498.5 588.5Q463 624 388 624ZM199 265V0H110V700H388Q507 700 565 645.5Q623 591 623 490Q623 407 587 355Q551 303 485 280L635 0H537L395 265Z" glyph-name="Rcommaaccent" horiz-adv-x="676" unicode="&#342;" /><glyph d="M552 588 482 544Q454 595 413.5 619Q373 643 307 643Q263 643 233 634Q203 625 184 608.5Q165 592 157 570Q149 548 149 522Q149 502 155 484Q161 466 176 451Q191 436 215.5 424.5Q240 413 277 405L348 390Q464 365 516.5 318Q569 271 569 189Q569 91 501.5 39.5Q434 -12 312 -12Q268 -12 228.5 -5Q189 2 154.5 18Q120 34 90.5 60Q61 86 38 124L108 168Q147 110 193 83.5Q239 57 310 57Q402 57 443 89.5Q484 122 484 180Q484 207 477 226.5Q470 246 453 260.5Q436 275 407 286Q378 297 335 307L264 323Q66 368 66 518Q66 561 81.5 597Q97 633 127.5 658.5Q158 684 203 698Q248 712 307 712Q405 712 461 679.5Q517 647 552 588Z" glyph-name="S" horiz-adv-x="629" unicode="S" /><glyph d="M38 0ZM456 899 342 788H269V792L345 905H456ZM552 588 482 544Q454 595 413.5 619Q373 643 307 643Q263 643 233 634Q203 625 184 608.5Q165 592 157 570Q149 548 149 522Q149 502 155 484Q161 466 176 451Q191 436 215.5 424.5Q240 413 277 405L348 390Q464 365 516.5 318Q569 271 569 189Q569 91 501.5 39.5Q434 -12 312 -12Q268 -12 228.5 -5Q189 2 154.5 18Q120 34 90.5 60Q61 86 38 124L108 168Q147 110 193 83.5Q239 57 310 57Q402 57 443 89.5Q484 122 484 180Q484 207 477 226.5Q470 246 453 260.5Q436 275 407 286Q378 297 335 307L264 323Q66 368 66 518Q66 561 81.5 597Q97 633 127.5 658.5Q158 684 203 698Q248 712 307 712Q405 712 461 679.5Q517 647 552 588Z" glyph-name="Sacute" horiz-adv-x="629" unicode="&#346;" /><glyph d="M38 0ZM310 838 381 905H474V903L351 788H268L146 903V905H242ZM552 588 482 544Q454 595 413.5 619Q373 643 307 643Q263 643 233 634Q203 625 184 608.5Q165 592 157 570Q149 548 149 522Q149 502 155 484Q161 466 176 451Q191 436 215.5 424.5Q240 413 277 405L348 390Q464 365 516.5 318Q569 271 569 189Q569 91 501.5 39.5Q434 -12 312 -12Q268 -12 228.5 -5Q189 2 154.5 18Q120 34 90.5 60Q61 86 38 124L108 168Q147 110 193 83.5Q239 57 310 57Q402 57 443 89.5Q484 122 484 180Q484 207 477 226.5Q470 246 453 260.5Q436 275 407 286Q378 297 335 307L264 323Q66 368 66 518Q66 561 81.5 597Q97 633 127.5 658.5Q158 684 203 698Q248 712 307 712Q405 712 461 679.5Q517 647 552 588Z" glyph-name="Scaron" horiz-adv-x="629" unicode="&#352;" /><glyph d="M302 -237Q264 -237 233.5 -223Q203 -209 184 -178L226 -138Q240 -161 256 -172.5Q272 -184 299 -184Q322 -184 337.5 -174.5Q353 -165 353 -145Q353 -125 338.5 -114Q324 -103 299 -103Q293 -103 287.5 -103.5Q282 -104 276 -105L260 -90L280 -11Q203 -6 141.5 24Q80 54 38 124L108 168Q147 110 193 83.5Q239 57 310 57Q402 57 443 89.5Q484 122 484 180Q484 207 477 226.5Q470 246 453 260.5Q436 275 407 286Q378 297 335 307L264 323Q66 368 66 518Q66 561 81.5 597Q97 633 127.5 658.5Q158 684 203 698Q248 712 307 712Q405 712 461 679.5Q517 647 552 588L482 544Q454 595 413.5 619Q373 643 307 643Q263 643 233 634Q203 625 184 608.5Q165 592 157 570Q149 548 149 522Q149 502 155 484Q161 466 176 451Q191 436 215.5 424.5Q240 413 277 405L348 390Q464 365 516.5 318Q569 271 569 189Q569 97 509.5 46Q450 -5 341 -11L327 -61H330Q365 -61 391 -82Q417 -103 417 -145Q417 -168 407.5 -185.5Q398 -203 382.5 -214.5Q367 -226 346 -231.5Q325 -237 302 -237Z" glyph-name="Scedilla" horiz-adv-x="629" unicode="&#350;" /><glyph d="M38 0ZM310 857 240 788H147V791L269 905H352L475 791V788H377ZM552 588 482 544Q454 595 413.5 619Q373 643 307 643Q263 643 233 634Q203 625 184 608.5Q165 592 157 570Q149 548 149 522Q149 502 155 484Q161 466 176 451Q191 436 215.5 424.5Q240 413 277 405L348 390Q464 365 516.5 318Q569 271 569 189Q569 91 501.5 39.5Q434 -12 312 -12Q268 -12 228.5 -5Q189 2 154.5 18Q120 34 90.5 60Q61 86 38 124L108 168Q147 110 193 83.5Q239 57 310 57Q402 57 443 89.5Q484 122 484 180Q484 207 477 226.5Q470 246 453 260.5Q436 275 407 286Q378 297 335 307L264 323Q66 368 66 518Q66 561 81.5 597Q97 633 127.5 658.5Q158 684 203 698Q248 712 307 712Q405 712 461 679.5Q517 647 552 588Z" glyph-name="Scircumflex" horiz-adv-x="629" unicode="&#348;" /><glyph d="M38 0ZM265 -292 248 -252Q277 -244 292.5 -222.5Q308 -201 311 -172H306Q247 -172 247 -117Q247 -91 262 -77.5Q277 -64 303 -64Q332 -64 348 -82.5Q364 -101 364 -145Q364 -196 340 -237Q316 -278 265 -292ZM552 588 482 544Q454 595 413.5 619Q373 643 307 643Q263 643 233 634Q203 625 184 608.5Q165 592 157 570Q149 548 149 522Q149 502 155 484Q161 466 176 451Q191 436 215.5 424.5Q240 413 277 405L348 390Q464 365 516.5 318Q569 271 569 189Q569 91 501.5 39.5Q434 -12 312 -12Q268 -12 228.5 -5Q189 2 154.5 18Q120 34 90.5 60Q61 86 38 124L108 168Q147 110 193 83.5Q239 57 310 57Q402 57 443 89.5Q484 122 484 180Q484 207 477 226.5Q470 246 453 260.5Q436 275 407 286Q378 297 335 307L264 323Q66 368 66 518Q66 561 81.5 597Q97 633 127.5 658.5Q158 684 203 698Q248 712 307 712Q405 712 461 679.5Q517 647 552 588Z" glyph-name="Scommaaccent" horiz-adv-x="629" unicode="&#536;" /><glyph d="M12 700H559V624H330V0H241V624H12Z" glyph-name="T" horiz-adv-x="571" unicode="T" /><glyph d="M13 700H559V624H331V381H511V321H331V0H241V321H61V381H241V624H13Z" glyph-name="Tbar" horiz-adv-x="571" unicode="&#358;" /><glyph d="M12 0ZM285 838 356 905H449V903L326 788H243L121 903V905H217ZM12 700H559V624H330V0H241V624H12Z" glyph-name="Tcaron" horiz-adv-x="571" unicode="&#356;" /><glyph d="M12 0ZM246 -292 229 -252Q258 -244 273.5 -222.5Q289 -201 292 -172H287Q228 -172 228 -117Q228 -91 243 -77.5Q258 -64 284 -64Q313 -64 329 -82.5Q345 -101 345 -145Q345 -196 321 -237Q297 -278 246 -292ZM12 700H559V624H330V0H241V624H12Z" glyph-name="Tcommaaccent" horiz-adv-x="571" unicode="&#354;" /><glyph d="M110 0V700H199V569H385Q500 569 555 516Q610 463 610 365Q610 256 548.5 201.5Q487 147 374 147H199V0ZM385 492H199V223H384Q450 223 485.5 256.5Q521 290 521 359Q521 423 488 457.5Q455 492 385 492Z" glyph-name="Thorn" horiz-adv-x="653" unicode="&#222;" /><glyph d="M571 271V700H660V275Q660 133 584.5 60.5Q509 -12 376 -12Q241 -12 166.5 60Q92 132 92 275V700H181V271Q181 215 195 175Q209 135 234.5 109.5Q260 84 296 72Q332 60 376 60Q420 60 456 72Q492 84 517.5 109.5Q543 135 557 175Q571 215 571 271Z" glyph-name="U" horiz-adv-x="752" unicode="U" /><glyph d="M92 0ZM524 899 410 788H337V792L413 905H524ZM571 271V700H660V275Q660 133 584.5 60.5Q509 -12 376 -12Q241 -12 166.5 60Q92 132 92 275V700H181V271Q181 215 195 175Q209 135 234.5 109.5Q260 84 296 72Q332 60 376 60Q420 60 456 72Q492 84 517.5 109.5Q543 135 557 175Q571 215 571 271Z" glyph-name="Uacute" horiz-adv-x="752" unicode="&#218;" /><glyph d="M92 0ZM571 271V700H660V275Q660 133 584.5 60.5Q509 -12 376 -12Q241 -12 166.5 60Q92 132 92 275V700H181V271Q181 215 195 175Q209 135 234.5 109.5Q260 84 296 72Q332 60 376 60Q420 60 456 72Q492 84 517.5 109.5Q543 135 557 175Q571 215 571 271ZM453 905H519Q519 870 509 846Q499 822 481 808Q463 794 436.5 788Q410 782 377 782Q344 782 317.5 788Q291 794 272.5 808Q254 822 244 846Q234 870 234 905H300Q300 866 319 851.5Q338 837 376 837Q414 837 433.5 851.5Q453 866 453 905Z" glyph-name="Ubreve" horiz-adv-x="752" unicode="&#364;" /><glyph d="M92 0ZM378 857 308 788H215V791L337 905H420L543 791V788H445ZM571 271V700H660V275Q660 133 584.5 60.5Q509 -12 376 -12Q241 -12 166.5 60Q92 132 92 275V700H181V271Q181 215 195 175Q209 135 234.5 109.5Q260 84 296 72Q332 60 376 60Q420 60 456 72Q492 84 517.5 109.5Q543 135 557 175Q571 215 571 271Z" glyph-name="Ucircumflex" horiz-adv-x="752" unicode="&#219;" /><glyph d="M92 0ZM404 851Q404 879 420 893Q436 907 464 907Q492 907 507.5 893Q523 879 523 851Q523 823 507.5 808.5Q492 794 464 794Q436 794 420 808.5Q404 823 404 851ZM231 851Q231 879 247 893Q263 907 291 907Q319 907 334.5 893Q350 879 350 851Q350 823 334.5 808.5Q319 794 291 794Q263 794 247 808.5Q231 823 231 851ZM571 271V700H660V275Q660 133 584.5 60.5Q509 -12 376 -12Q241 -12 166.5 60Q92 132 92 275V700H181V271Q181 215 195 175Q209 135 234.5 109.5Q260 84 296 72Q332 60 376 60Q420 60 456 72Q492 84 517.5 109.5Q543 135 557 175Q571 215 571 271Z" glyph-name="Udieresis" horiz-adv-x="752" unicode="&#220;" /><glyph d="M92 0ZM571 271V700H660V275Q660 133 584.5 60.5Q509 -12 376 -12Q241 -12 166.5 60Q92 132 92 275V700H181V271Q181 215 195 175Q209 135 234.5 109.5Q260 84 296 72Q332 60 376 60Q420 60 456 72Q492 84 517.5 109.5Q543 135 557 175Q571 215 571 271ZM349 790 234 901V907H345L422 794V790Z" glyph-name="Ugrave" horiz-adv-x="752" unicode="&#217;" /><glyph d="M92 0ZM571 271V700H660V275Q660 133 584.5 60.5Q509 -12 376 -12Q241 -12 166.5 60Q92 132 92 275V700H181V271Q181 215 195 175Q209 135 234.5 109.5Q260 84 296 72Q332 60 376 60Q420 60 456 72Q492 84 517.5 109.5Q543 135 557 175Q571 215 571 271ZM586 899 466 788H396V792L473 905H586ZM429 899 337 788H267V792L329 905H429Z" glyph-name="Uhungarumlaut" horiz-adv-x="752" unicode="&#368;" /><glyph d="M92 0ZM571 271V700H660V275Q660 133 584.5 60.5Q509 -12 376 -12Q241 -12 166.5 60Q92 132 92 275V700H181V271Q181 215 195 175Q209 135 234.5 109.5Q260 84 296 72Q332 60 376 60Q420 60 456 72Q492 84 517.5 109.5Q543 135 557 175Q571 215 571 271ZM505 874V815H251V874Z" glyph-name="Umacron" horiz-adv-x="752" unicode="&#362;" /><glyph d="M337 -99Q337 -72 346 -50Q355 -28 370 -11H366Q237 -7 165 64.5Q93 136 93 275V700H182V271Q182 215 196 175Q210 135 235.5 109.5Q261 84 297 72.5Q333 61 377 61Q421 61 457 72.5Q493 84 518.5 109.5Q544 135 558 175Q572 215 572 271V700H661V275Q661 159 610 91.5Q559 24 468 -2Q436 -12 418.5 -37.5Q401 -63 401 -89Q401 -124 416.5 -137.5Q432 -151 459 -151Q495 -151 525 -133L538 -189Q519 -200 498.5 -206Q478 -212 452 -212Q430 -212 409 -206.5Q388 -201 372 -188Q356 -175 346.5 -153.5Q337 -132 337 -99Z" glyph-name="Uogonek" horiz-adv-x="753" unicode="&#370;" /><glyph d="M92 0ZM281 855Q281 899 308.5 924Q336 949 378 949Q420 949 447 924Q474 899 474 855Q474 811 446.5 786Q419 761 377 761Q335 761 308 786Q281 811 281 855ZM329 855Q329 832 342.5 817Q356 802 377 802Q398 802 412 817Q426 832 426 855Q426 878 412 892.5Q398 907 378 907Q356 907 342.5 892.5Q329 878 329 855ZM571 271V700H660V275Q660 133 584.5 60.5Q509 -12 376 -12Q241 -12 166.5 60Q92 132 92 275V700H181V271Q181 215 195 175Q209 135 234.5 109.5Q260 84 296 72Q332 60 376 60Q420 60 456 72Q492 84 517.5 109.5Q543 135 557 175Q571 215 571 271Z" glyph-name="Uring" horiz-adv-x="752" unicode="&#366;" /><glyph d="M92 0ZM571 271V700H660V275Q660 133 584.5 60.5Q509 -12 376 -12Q241 -12 166.5 60Q92 132 92 275V700H181V271Q181 215 195 175Q209 135 234.5 109.5Q260 84 296 72Q332 60 376 60Q420 60 456 72Q492 84 517.5 109.5Q543 135 557 175Q571 215 571 271ZM468 898H533Q535 869 527.5 849.5Q520 830 507 818.5Q494 807 477.5 802Q461 797 445 797Q424 797 406 803.5Q388 810 372 817.5Q356 825 341.5 831.5Q327 838 314 838Q296 838 290.5 826.5Q285 815 285 801H219Q217 830 224.5 849.5Q232 869 244.5 880.5Q257 892 273 897Q289 902 306 902Q328 902 346.5 895.5Q365 889 381 881.5Q397 874 411 867.5Q425 861 439 861Q457 861 462.5 872Q468 883 468 898Z" glyph-name="Utilde" horiz-adv-x="752" unicode="&#360;" /><glyph d="M7 700H101L309 81L518 700H609L364 0H252Z" glyph-name="V" horiz-adv-x="616" unicode="V" /><glyph d="M413 698H500L658 129L818 700H904L699 0H614L455 572L297 0H211L7 700H98L255 125Z" glyph-name="W" horiz-adv-x="911" unicode="W" /><glyph d="M7 0ZM413 698H500L658 129L818 700H904L699 0H614L455 572L297 0H211L7 700H98L255 125ZM602 898 488 787H415V791L491 904H602Z" glyph-name="Wacute" horiz-adv-x="911" unicode="&#7810;" /><glyph d="M7 0ZM457 857 387 788H294V791L416 905H499L622 791V788H524ZM413 698H500L658 129L818 700H904L699 0H614L455 572L297 0H211L7 700H98L255 125Z" glyph-name="Wcircumflex" horiz-adv-x="911" unicode="&#372;" /><glyph d="M7 0ZM413 698H500L658 129L818 700H904L699 0H614L455 572L297 0H211L7 700H98L255 125ZM482 850Q482 878 498 892Q514 906 542 906Q570 906 585.5 892Q601 878 601 850Q601 822 585.5 807.5Q570 793 542 793Q514 793 498 807.5Q482 822 482 850ZM309 850Q309 878 325 892Q341 906 369 906Q397 906 412.5 892Q428 878 428 850Q428 822 412.5 807.5Q397 793 369 793Q341 793 325 807.5Q309 822 309 850Z" glyph-name="Wdieresis" horiz-adv-x="911" unicode="&#7812;" /><glyph d="M7 0ZM413 698H500L658 129L818 700H904L699 0H614L455 572L297 0H211L7 700H98L255 125ZM426 789 311 900V906H422L499 793V789Z" glyph-name="Wgrave" horiz-adv-x="911" unicode="&#7808;" /><glyph d="M517 0 315 291 112 0H13L265 358L29 700H132L320 425L506 700H605L369 360L621 0Z" glyph-name="X" horiz-adv-x="634" unicode="X" /><glyph d="M261 280 10 700H106L307 354L507 700H600L350 280V0H261Z" glyph-name="Y" horiz-adv-x="610" unicode="Y" /><glyph d="M10 0ZM261 280 10 700H106L307 354L507 700H600L350 280V0H261ZM453 899 339 788H266V792L342 905H453Z" glyph-name="Yacute" horiz-adv-x="610" unicode="&#221;" /><glyph d="M10 0ZM261 280 10 700H106L307 354L507 700H600L350 280V0H261ZM307 857 237 788H144V791L266 905H349L472 791V788H374Z" glyph-name="Ycircumflex" horiz-adv-x="610" unicode="&#374;" /><glyph d="M10 0ZM261 280 10 700H106L307 354L507 700H600L350 280V0H261ZM332 851Q332 879 348 893Q364 907 392 907Q420 907 435.5 893Q451 879 451 851Q451 823 435.5 808.5Q420 794 392 794Q364 794 348 808.5Q332 823 332 851ZM159 851Q159 879 175 893Q191 907 219 907Q247 907 262.5 893Q278 879 278 851Q278 823 262.5 808.5Q247 794 219 794Q191 794 175 808.5Q159 823 159 851Z" glyph-name="Ydieresis" horiz-adv-x="610" unicode="&#376;" /><glyph d="M20 0V67L443 625L45 624V700H549V633L123 75L552 76V0Z" glyph-name="Z" horiz-adv-x="570" unicode="Z" /><glyph d="M20 0ZM433 899 319 788H246V792L322 905H433ZM20 0V67L443 625L45 624V700H549V633L123 75L552 76V0Z" glyph-name="Zacute" horiz-adv-x="570" unicode="&#377;" /><glyph d="M20 0ZM286 838 357 905H450V903L327 788H244L122 903V905H218ZM20 0V67L443 625L45 624V700H549V633L123 75L552 76V0Z" glyph-name="Zcaron" horiz-adv-x="570" unicode="&#381;" /><glyph d="M20 0ZM20 0V67L443 625L45 624V700H549V633L123 75L552 76V0ZM228 851Q228 879 244 893Q260 907 288 907Q316 907 331.5 893Q347 879 347 851Q347 823 331.5 808.5Q316 794 288 794Q260 794 244 808.5Q228 823 228 851Z" glyph-name="Zdotaccent" horiz-adv-x="570" unicode="&#379;" /><glyph d="M247 57Q315 57 357 102Q399 147 400 229V231H275Q205 231 174.5 208Q144 185 144 137Q144 99 168.5 78Q193 57 247 57ZM405 89Q382 42 337.5 15Q293 -12 228 -12Q191 -12 160.5 -2.5Q130 7 107.5 25.5Q85 44 72.5 71.5Q60 99 60 134Q60 168 71 197.5Q82 227 107.5 249Q133 271 173.5 284Q214 297 274 297H400Q398 373 366 401.5Q334 430 269 430Q215 430 182 412Q149 394 128 365L80 417Q108 458 156.5 478.5Q205 499 277 499Q324 499 362.5 489Q401 479 428.5 455.5Q456 432 471 393.5Q486 355 486 298V0H412Z" glyph-name="a" horiz-adv-x="572" unicode="a" /><glyph d="M432 245Q432 294 420.5 329Q409 364 389.5 386.5Q370 409 343.5 419.5Q317 430 286 430Q213 430 178 385Q143 340 143 243Q143 146 178.5 101.5Q214 57 285 57Q316 57 343 67.5Q370 78 389.5 101Q409 124 420.5 159.5Q432 195 432 245ZM439 0 434 87Q410 37 366 12.5Q322 -12 262 -12Q162 -12 109.5 53.5Q57 119 57 244Q57 369 112.5 434Q168 499 273 499Q329 499 370.5 476Q412 453 436 405L445 487H518V0Z" glyph-name="a.school" horiz-adv-x="611" /><glyph d="M60 0ZM247 57Q315 57 357 102Q399 147 400 229V231H275Q205 231 174.5 208Q144 185 144 137Q144 99 168.5 78Q193 57 247 57ZM405 89Q382 42 337.5 15Q293 -12 228 -12Q191 -12 160.5 -2.5Q130 7 107.5 25.5Q85 44 72.5 71.5Q60 99 60 134Q60 168 71 197.5Q82 227 107.5 249Q133 271 173.5 284Q214 297 274 297H400Q398 373 366 401.5Q334 430 269 430Q215 430 182 412Q149 394 128 365L80 417Q108 458 156.5 478.5Q205 499 277 499Q324 499 362.5 489Q401 479 428.5 455.5Q456 432 471 393.5Q486 355 486 298V0H412ZM421 685 307 574H234V578L310 691H421Z" glyph-name="aacute" horiz-adv-x="572" unicode="&#225;" /><glyph d="M57 0ZM432 245Q432 294 420.5 329Q409 364 389.5 386.5Q370 409 343.5 419.5Q317 430 286 430Q213 430 178 385Q143 340 143 243Q143 146 178.5 101.5Q214 57 285 57Q316 57 343 67.5Q370 78 389.5 101Q409 124 420.5 159.5Q432 195 432 245ZM439 0 434 87Q410 37 366 12.5Q322 -12 262 -12Q162 -12 109.5 53.5Q57 119 57 244Q57 369 112.5 434Q168 499 273 499Q329 499 370.5 476Q412 453 436 405L445 487H518V0ZM430 685 316 574H243V578L319 691H430Z" glyph-name="aacute.school" horiz-adv-x="611" /><glyph d="M60 0ZM247 57Q315 57 357 102Q399 147 400 229V231H275Q205 231 174.5 208Q144 185 144 137Q144 99 168.5 78Q193 57 247 57ZM405 89Q382 42 337.5 15Q293 -12 228 -12Q191 -12 160.5 -2.5Q130 7 107.5 25.5Q85 44 72.5 71.5Q60 99 60 134Q60 168 71 197.5Q82 227 107.5 249Q133 271 173.5 284Q214 297 274 297H400Q398 373 366 401.5Q334 430 269 430Q215 430 182 412Q149 394 128 365L80 417Q108 458 156.5 478.5Q205 499 277 499Q324 499 362.5 489Q401 479 428.5 455.5Q456 432 471 393.5Q486 355 486 298V0H412ZM350 691H416Q416 656 406 632Q396 608 378 594Q360 580 333.5 574Q307 568 274 568Q241 568 214.5 574Q188 580 169.5 594Q151 608 141 632Q131 656 131 691H197Q197 652 216 637.5Q235 623 273 623Q311 623 330.5 637.5Q350 652 350 691Z" glyph-name="abreve" horiz-adv-x="572" unicode="&#259;" /><glyph d="M57 0ZM432 245Q432 294 420.5 329Q409 364 389.5 386.5Q370 409 343.5 419.5Q317 430 286 430Q213 430 178 385Q143 340 143 243Q143 146 178.5 101.5Q214 57 285 57Q316 57 343 67.5Q370 78 389.5 101Q409 124 420.5 159.5Q432 195 432 245ZM439 0 434 87Q410 37 366 12.5Q322 -12 262 -12Q162 -12 109.5 53.5Q57 119 57 244Q57 369 112.5 434Q168 499 273 499Q329 499 370.5 476Q412 453 436 405L445 487H518V0ZM359 691H425Q425 656 415 632Q405 608 387 594Q369 580 342.5 574Q316 568 283 568Q250 568 223.5 574Q197 580 178.5 594Q160 608 150 632Q140 656 140 691H206Q206 652 225 637.5Q244 623 282 623Q320 623 339.5 637.5Q359 652 359 691Z" glyph-name="abreve.school" horiz-adv-x="611" /><glyph d="M60 0ZM247 57Q315 57 357 102Q399 147 400 229V231H275Q205 231 174.5 208Q144 185 144 137Q144 99 168.5 78Q193 57 247 57ZM405 89Q382 42 337.5 15Q293 -12 228 -12Q191 -12 160.5 -2.5Q130 7 107.5 25.5Q85 44 72.5 71.5Q60 99 60 134Q60 168 71 197.5Q82 227 107.5 249Q133 271 173.5 284Q214 297 274 297H400Q398 373 366 401.5Q334 430 269 430Q215 430 182 412Q149 394 128 365L80 417Q108 458 156.5 478.5Q205 499 277 499Q324 499 362.5 489Q401 479 428.5 455.5Q456 432 471 393.5Q486 355 486 298V0H412ZM275 643 205 574H112V577L234 691H317L440 577V574H342Z" glyph-name="acircumflex" horiz-adv-x="572" unicode="&#226;" /><glyph d="M57 0ZM285 643 215 574H122V577L244 691H327L450 577V574H352ZM432 245Q432 294 420.5 329Q409 364 389.5 386.5Q370 409 343.5 419.5Q317 430 286 430Q213 430 178 385Q143 340 143 243Q143 146 178.5 101.5Q214 57 285 57Q316 57 343 67.5Q370 78 389.5 101Q409 124 420.5 159.5Q432 195 432 245ZM439 0 434 87Q410 37 366 12.5Q322 -12 262 -12Q162 -12 109.5 53.5Q57 119 57 244Q57 369 112.5 434Q168 499 273 499Q329 499 370.5 476Q412 453 436 405L445 487H518V0Z" glyph-name="acircumflex.school" horiz-adv-x="611" /><glyph d="M436 685 322 574H249V578L325 691H436Z" glyph-name="acute" horiz-adv-x="600" unicode="&#180;" /><glyph d="M60 0ZM247 57Q315 57 357 102Q399 147 400 229V231H275Q205 231 174.5 208Q144 185 144 137Q144 99 168.5 78Q193 57 247 57ZM405 89Q382 42 337.5 15Q293 -12 228 -12Q191 -12 160.5 -2.5Q130 7 107.5 25.5Q85 44 72.5 71.5Q60 99 60 134Q60 168 71 197.5Q82 227 107.5 249Q133 271 173.5 284Q214 297 274 297H400Q398 373 366 401.5Q334 430 269 430Q215 430 182 412Q149 394 128 365L80 417Q108 458 156.5 478.5Q205 499 277 499Q324 499 362.5 489Q401 479 428.5 455.5Q456 432 471 393.5Q486 355 486 298V0H412ZM300 637Q300 665 316 679Q332 693 360 693Q388 693 403.5 679Q419 665 419 637Q419 609 403.5 594.5Q388 580 360 580Q332 580 316 594.5Q300 609 300 637ZM127 637Q127 665 143 679Q159 693 187 693Q215 693 230.5 679Q246 665 246 637Q246 609 230.5 594.5Q215 580 187 580Q159 580 143 594.5Q127 609 127 637Z" glyph-name="adieresis" horiz-adv-x="572" unicode="&#228;" /><glyph d="M57 0ZM310 637Q310 665 326 679Q342 693 370 693Q398 693 413.5 679Q429 665 429 637Q429 609 413.5 594.5Q398 580 370 580Q342 580 326 594.5Q310 609 310 637ZM137 637Q137 665 153 679Q169 693 197 693Q225 693 240.5 679Q256 665 256 637Q256 609 240.5 594.5Q225 580 197 580Q169 580 153 594.5Q137 609 137 637ZM432 245Q432 294 420.5 329Q409 364 389.5 386.5Q370 409 343.5 419.5Q317 430 286 430Q213 430 178 385Q143 340 143 243Q143 146 178.5 101.5Q214 57 285 57Q316 57 343 67.5Q370 78 389.5 101Q409 124 420.5 159.5Q432 195 432 245ZM439 0 434 87Q410 37 366 12.5Q322 -12 262 -12Q162 -12 109.5 53.5Q57 119 57 244Q57 369 112.5 434Q168 499 273 499Q329 499 370.5 476Q412 453 436 405L445 487H518V0Z" glyph-name="adieresis.school" horiz-adv-x="611" /><glyph d="M629 -12Q557 -12 507.5 15.5Q458 43 433 102Q409 49 357.5 18.5Q306 -12 228 -12Q191 -12 160.5 -2.5Q130 7 107.5 25.5Q85 44 72.5 71.5Q60 99 60 134Q60 167 71 195.5Q82 224 107.5 245.5Q133 267 173.5 279.5Q214 292 274 292H400Q399 371 367 400.5Q335 430 269 430Q215 430 182 412Q149 394 128 365L80 417Q108 458 156.5 478.5Q205 499 277 499Q337 499 382.5 480.5Q428 462 452 415Q509 499 631 499Q685 499 724 481.5Q763 464 788.5 433.5Q814 403 826 361Q838 319 838 271V248Q838 237 836 226H483Q486 133 523.5 95Q561 57 631 57Q683 57 717 74.5Q751 92 774 142L838 109Q809 45 755 16.5Q701 -12 629 -12ZM247 57Q313 57 356 101.5Q399 146 400 226H275Q205 226 174.5 203Q144 180 144 132Q144 97 168.5 77Q193 57 247 57ZM627 431Q565 431 529 399Q493 367 485 292H753Q748 369 716 400Q684 431 627 431Z" glyph-name="ae" horiz-adv-x="891" unicode="&#230;" /><glyph d="M60 0ZM247 57Q315 57 357 102Q399 147 400 229V231H275Q205 231 174.5 208Q144 185 144 137Q144 99 168.5 78Q193 57 247 57ZM405 89Q382 42 337.5 15Q293 -12 228 -12Q191 -12 160.5 -2.5Q130 7 107.5 25.5Q85 44 72.5 71.5Q60 99 60 134Q60 168 71 197.5Q82 227 107.5 249Q133 271 173.5 284Q214 297 274 297H400Q398 373 366 401.5Q334 430 269 430Q215 430 182 412Q149 394 128 365L80 417Q108 458 156.5 478.5Q205 499 277 499Q324 499 362.5 489Q401 479 428.5 455.5Q456 432 471 393.5Q486 355 486 298V0H412ZM245 574 130 685V691H241L318 578V574Z" glyph-name="agrave" horiz-adv-x="572" unicode="&#224;" /><glyph d="M57 0ZM432 245Q432 294 420.5 329Q409 364 389.5 386.5Q370 409 343.5 419.5Q317 430 286 430Q213 430 178 385Q143 340 143 243Q143 146 178.5 101.5Q214 57 285 57Q316 57 343 67.5Q370 78 389.5 101Q409 124 420.5 159.5Q432 195 432 245ZM439 0 434 87Q410 37 366 12.5Q322 -12 262 -12Q162 -12 109.5 53.5Q57 119 57 244Q57 369 112.5 434Q168 499 273 499Q329 499 370.5 476Q412 453 436 405L445 487H518V0ZM255 576 140 687V693H251L328 580V576Z" glyph-name="agrave.school" horiz-adv-x="611" /><glyph d="M60 0ZM247 57Q315 57 357 102Q399 147 400 229V231H275Q205 231 174.5 208Q144 185 144 137Q144 99 168.5 78Q193 57 247 57ZM405 89Q382 42 337.5 15Q293 -12 228 -12Q191 -12 160.5 -2.5Q130 7 107.5 25.5Q85 44 72.5 71.5Q60 99 60 134Q60 168 71 197.5Q82 227 107.5 249Q133 271 173.5 284Q214 297 274 297H400Q398 373 366 401.5Q334 430 269 430Q215 430 182 412Q149 394 128 365L80 417Q108 458 156.5 478.5Q205 499 277 499Q324 499 362.5 489Q401 479 428.5 455.5Q456 432 471 393.5Q486 355 486 298V0H412ZM401 660V601H147V660Z" glyph-name="amacron" horiz-adv-x="572" unicode="&#257;" /><glyph d="M57 0ZM432 245Q432 294 420.5 329Q409 364 389.5 386.5Q370 409 343.5 419.5Q317 430 286 430Q213 430 178 385Q143 340 143 243Q143 146 178.5 101.5Q214 57 285 57Q316 57 343 67.5Q370 78 389.5 101Q409 124 420.5 159.5Q432 195 432 245ZM439 0 434 87Q410 37 366 12.5Q322 -12 262 -12Q162 -12 109.5 53.5Q57 119 57 244Q57 369 112.5 434Q168 499 273 499Q329 499 370.5 476Q412 453 436 405L445 487H518V0ZM412 660V601H158V660Z" glyph-name="amacron.school" horiz-adv-x="611" /><glyph d="M564 476H646Q646 370 625.5 285.5Q605 201 566 139Q597 117 630.5 95Q664 73 702 49L661 -12Q621 13 585.5 35Q550 57 518 80Q472 35 411.5 11.5Q351 -12 275 -12Q225 -12 181 -1Q137 10 105 32.5Q73 55 54.5 90Q36 125 36 174Q36 214 47.5 243.5Q59 273 79 296Q99 319 125 338Q151 357 180 375Q135 435 120 480Q105 525 105 557Q105 631 152 671.5Q199 712 293 712Q381 712 420 677.5Q459 643 459 580Q459 545 447.5 516Q436 487 414 461.5Q392 436 361.5 412Q331 388 292 363Q327 325 378.5 280.5Q430 236 502 184Q534 236 550 309Q566 382 564 476ZM187 553Q187 529 199 495Q211 461 246 416Q280 438 305 457Q330 476 346.5 493.5Q363 511 370.5 529Q378 547 378 568Q378 644 289 644Q237 644 212 620Q187 596 187 553ZM281 57Q332 57 376 73.5Q420 90 455 124Q377 181 321 229.5Q265 278 226 321Q203 307 184 292.5Q165 278 151.5 261Q138 244 130 223.5Q122 203 122 178Q122 122 163.5 89.5Q205 57 281 57Z" glyph-name="ampersand" horiz-adv-x="708" unicode="&amp;" /><glyph d="M526 -189Q488 -212 440 -212Q418 -212 397 -207Q376 -202 360 -190.5Q344 -179 334 -159.5Q324 -140 324 -111Q324 -62 349.5 -29Q375 4 410 21L405 89Q382 42 337.5 15Q293 -12 228 -12Q191 -12 160.5 -2.5Q130 7 107.5 25.5Q85 44 72.5 71.5Q60 99 60 134Q60 168 71 197.5Q82 227 107.5 249Q133 271 173.5 284Q214 297 274 297H400Q398 373 366 401.5Q334 430 269 430Q215 430 182 412Q149 394 128 365L80 417Q108 458 156.5 478.5Q205 499 277 499Q324 499 362.5 489Q401 479 428.5 455.5Q456 432 471 393.5Q486 355 486 298V0H485Q462 -2 444 -11.5Q426 -21 414 -35Q402 -49 395.5 -66.5Q389 -84 389 -101Q389 -129 404 -140Q419 -151 447 -151Q483 -151 513 -133ZM247 57Q315 57 357 102Q399 147 400 229V231H275Q205 231 174.5 208Q144 185 144 137Q144 99 168.5 78Q193 57 247 57Z" glyph-name="aogonek" horiz-adv-x="572" unicode="&#261;" /><glyph d="M440 18 435 85Q411 36 367 12Q323 -12 262 -12Q162 -12 109.5 53Q57 118 57 244Q57 370 112 434.5Q167 499 272 499Q329 499 371 476Q413 453 436 406L445 487H518V0Q495 -2 477 -11.5Q459 -21 447 -35Q435 -49 428.5 -66.5Q422 -84 422 -101Q422 -129 437 -140Q452 -151 480 -151Q516 -151 546 -133L559 -189Q521 -212 473 -212Q451 -212 430 -207Q409 -202 393 -190.5Q377 -179 367 -159.5Q357 -140 357 -111Q357 -63 381.5 -31Q406 1 440 18ZM432 245Q432 342 390.5 386Q349 430 285 430Q212 430 177.5 385Q143 340 143 243Q143 146 178.5 101.5Q214 57 285 57Q317 57 344 67.5Q371 78 390.5 101Q410 124 421 159.5Q432 195 432 245Z" glyph-name="aogonek.school" horiz-adv-x="611" /><glyph d="M347 398Q357 398 370.5 399.5Q384 401 399 404Q414 407 428.5 412.5Q443 418 456 427V355Q434 342 401 335.5Q368 329 339 329Q312 329 290 334.5Q268 340 248 346Q228 352 207.5 357.5Q187 363 162 363Q141 363 109 357.5Q77 352 50 335V407Q73 420 104.5 426Q136 432 165 432Q193 432 215.5 426.5Q238 421 259 415Q280 409 301 403.5Q322 398 347 398ZM347 248Q357 248 370.5 249.5Q384 251 399 254Q414 257 428.5 262.5Q443 268 456 277V205Q434 192 401 185.5Q368 179 339 179Q312 179 290 184.5Q268 190 248 196Q228 202 207.5 207.5Q187 213 162 213Q141 213 109 207.5Q77 202 50 185V257Q73 270 104.5 276Q136 282 165 282Q193 282 215.5 276.5Q238 271 259 265Q280 259 301 253.5Q322 248 347 248Z" glyph-name="approxequal" horiz-adv-x="506" unicode="&#8776;" /><glyph d="M60 0ZM247 57Q315 57 357 102Q399 147 400 229V231H275Q205 231 174.5 208Q144 185 144 137Q144 99 168.5 78Q193 57 247 57ZM405 89Q382 42 337.5 15Q293 -12 228 -12Q191 -12 160.5 -2.5Q130 7 107.5 25.5Q85 44 72.5 71.5Q60 99 60 134Q60 168 71 197.5Q82 227 107.5 249Q133 271 173.5 284Q214 297 274 297H400Q398 373 366 401.5Q334 430 269 430Q215 430 182 412Q149 394 128 365L80 417Q108 458 156.5 478.5Q205 499 277 499Q324 499 362.5 489Q401 479 428.5 455.5Q456 432 471 393.5Q486 355 486 298V0H412ZM178 641Q178 685 205.5 710Q233 735 275 735Q317 735 344 710Q371 685 371 641Q371 597 343.5 572Q316 547 274 547Q232 547 205 572Q178 597 178 641ZM226 641Q226 618 239.5 603Q253 588 274 588Q295 588 309 603Q323 618 323 641Q323 664 309 678.5Q295 693 275 693Q253 693 239.5 678.5Q226 664 226 641Z" glyph-name="aring" horiz-adv-x="572" unicode="&#229;" /><glyph d="M57 0ZM432 245Q432 294 420.5 329Q409 364 389.5 386.5Q370 409 343.5 419.5Q317 430 286 430Q213 430 178 385Q143 340 143 243Q143 146 178.5 101.5Q214 57 285 57Q316 57 343 67.5Q370 78 389.5 101Q409 124 420.5 159.5Q432 195 432 245ZM439 0 434 87Q410 37 366 12.5Q322 -12 262 -12Q162 -12 109.5 53.5Q57 119 57 244Q57 369 112.5 434Q168 499 273 499Q329 499 370.5 476Q412 453 436 405L445 487H518V0ZM187 641Q187 685 214.5 710Q242 735 284 735Q326 735 353 710Q380 685 380 641Q380 597 352.5 572Q325 547 283 547Q241 547 214 572Q187 597 187 641ZM235 641Q235 618 248.5 603Q262 588 283 588Q304 588 318 603Q332 618 332 641Q332 664 318 678.5Q304 693 284 693Q262 693 248.5 678.5Q235 664 235 641Z" glyph-name="aring.school" horiz-adv-x="611" /><glyph d="M175 700H260L409 385V383H321L217 614L110 383H25V385Z" glyph-name="asciicircum" horiz-adv-x="434" unicode="^" /><glyph d="M432 415 508 405Q504 337 468 304Q432 271 374 271Q342 271 311.5 283Q281 295 253 309Q230 320 207.5 329.5Q185 339 163 339Q138 339 121.5 323Q105 307 102 273L26 283Q30 352 66.5 384.5Q103 417 162 417Q196 417 226 405.5Q256 394 283 380Q306 369 328 360Q350 351 371 351Q397 351 413.5 366.5Q430 382 432 415Z" glyph-name="asciitilde" horiz-adv-x="532" unicode="~" /><glyph d="M120 349 63 394 154 503 25 536 44 605 171 561 164 712H243L234 561L363 605L382 537L254 503L344 394L287 349L203 465Z" glyph-name="asterisk" horiz-adv-x="417" unicode="*" /><glyph d="M683 -2Q638 -50 572 -75.5Q506 -101 419 -101Q337 -101 272.5 -76.5Q208 -52 163.5 -7Q119 38 95.5 101.5Q72 165 72 242Q72 319 95.5 382Q119 445 163.5 489.5Q208 534 272.5 558.5Q337 583 419 583Q498 583 559 560.5Q620 538 661.5 497Q703 456 724 398.5Q745 341 745 271Q745 183 706 132Q667 81 592 81Q554 81 528 96Q502 111 494 146Q478 111 447 92Q416 73 370 73Q320 73 287.5 98.5Q255 124 255 175Q255 198 263.5 217.5Q272 237 290 251.5Q308 266 337 274Q366 282 407 282H489Q487 334 465 352.5Q443 371 398 371Q361 371 338.5 359.5Q316 348 302 328L270 363Q289 392 321.5 406.5Q354 421 404 421Q436 421 462.5 413.5Q489 406 508 389.5Q527 373 537.5 346.5Q548 320 548 281V187Q548 154 561 137.5Q574 121 606 121Q648 121 675 158Q702 195 702 269Q702 338 681.5 389.5Q661 441 623.5 475.5Q586 510 534 527Q482 544 419 544Q351 544 295.5 525Q240 506 200 468Q160 430 138 373.5Q116 317 116 242Q116 167 138 110Q160 53 200 15Q240 -23 296 -42Q352 -61 420 -61Q495 -61 555 -39.5Q615 -18 657 27ZM383 121Q429 121 458 151.5Q487 182 488 236V237H405Q359 237 336.5 223Q314 209 314 177Q314 121 383 121Z" glyph-name="at" horiz-adv-x="818" unicode="@" /><glyph d="M72 7ZM683 106Q638 58 572 32.5Q506 7 419 7Q337 7 272.5 31.5Q208 56 163.5 101Q119 146 95.5 209.5Q72 273 72 350Q72 427 95.5 490Q119 553 163.5 597.5Q208 642 272.5 666.5Q337 691 419 691Q498 691 559 668.5Q620 646 661.5 605Q703 564 724 506.5Q745 449 745 379Q745 291 706 240Q667 189 592 189Q554 189 528 204Q502 219 494 254Q478 219 447 200Q416 181 370 181Q320 181 287.5 206.5Q255 232 255 283Q255 306 263.5 325.5Q272 345 290 359.5Q308 374 337 382Q366 390 407 390H489Q487 442 465 460.5Q443 479 398 479Q361 479 338.5 467.5Q316 456 302 436L270 471Q289 500 321.5 514.5Q354 529 404 529Q436 529 462.5 521.5Q489 514 508 497.5Q527 481 537.5 454.5Q548 428 548 389V295Q548 262 561 245.5Q574 229 606 229Q648 229 675 266Q702 303 702 377Q702 446 681.5 497.5Q661 549 623.5 583.5Q586 618 534 635Q482 652 419 652Q351 652 295.5 633Q240 614 200 576Q160 538 138 481.5Q116 425 116 350Q116 275 138 218Q160 161 200 123Q240 85 296 66Q352 47 420 47Q495 47 555 68.5Q615 90 657 135ZM383 229Q429 229 458 259.5Q487 290 488 344V345H405Q359 345 336.5 331Q314 317 314 285Q314 229 383 229Z" glyph-name="at.cap" horiz-adv-x="818" /><glyph d="M60 0ZM247 57Q315 57 357 102Q399 147 400 229V231H275Q205 231 174.5 208Q144 185 144 137Q144 99 168.5 78Q193 57 247 57ZM405 89Q382 42 337.5 15Q293 -12 228 -12Q191 -12 160.5 -2.5Q130 7 107.5 25.5Q85 44 72.5 71.5Q60 99 60 134Q60 168 71 197.5Q82 227 107.5 249Q133 271 173.5 284Q214 297 274 297H400Q398 373 366 401.5Q334 430 269 430Q215 430 182 412Q149 394 128 365L80 417Q108 458 156.5 478.5Q205 499 277 499Q324 499 362.5 489Q401 479 428.5 455.5Q456 432 471 393.5Q486 355 486 298V0H412ZM365 684H430Q432 655 424.5 635.5Q417 616 404 604.5Q391 593 374.5 588Q358 583 342 583Q321 583 303 589.5Q285 596 269 603.5Q253 611 238.5 617.5Q224 624 211 624Q193 624 187.5 612.5Q182 601 182 587H116Q114 616 121.5 635.5Q129 655 141.5 666.5Q154 678 170 683Q186 688 203 688Q225 688 243.5 681.5Q262 675 278 667.5Q294 660 308 653.5Q322 647 336 647Q354 647 359.5 658Q365 669 365 684Z" glyph-name="atilde" horiz-adv-x="572" unicode="&#227;" /><glyph d="M57 0ZM432 245Q432 294 420.5 329Q409 364 389.5 386.5Q370 409 343.5 419.5Q317 430 286 430Q213 430 178 385Q143 340 143 243Q143 146 178.5 101.5Q214 57 285 57Q316 57 343 67.5Q370 78 389.5 101Q409 124 420.5 159.5Q432 195 432 245ZM439 0 434 87Q410 37 366 12.5Q322 -12 262 -12Q162 -12 109.5 53.5Q57 119 57 244Q57 369 112.5 434Q168 499 273 499Q329 499 370.5 476Q412 453 436 405L445 487H518V0ZM375 684H440Q442 655 434.5 635.5Q427 616 414 604.5Q401 593 384.5 588Q368 583 352 583Q331 583 313 589.5Q295 596 279 603.5Q263 611 248.5 617.5Q234 624 221 624Q203 624 197.5 612.5Q192 601 192 587H126Q124 616 131.5 635.5Q139 655 151.5 666.5Q164 678 180 683Q196 688 213 688Q235 688 253.5 681.5Q272 675 288 667.5Q304 660 318 653.5Q332 647 346 647Q364 647 369.5 658Q375 669 375 684Z" glyph-name="atilde.school" horiz-adv-x="611" /><glyph d="M179 700V405Q204 453 248 476Q292 499 353 499Q453 499 505 435.5Q557 372 557 244Q557 119 501 53.5Q445 -12 340 -12Q285 -12 243 9.5Q201 31 175 79L170 0H93V700ZM179 242Q179 193 190 158Q201 123 220.5 100.5Q240 78 267.5 67.5Q295 57 327 57Q399 57 435 101.5Q471 146 471 243Q471 340 435 385Q399 430 330 430Q264 430 221.5 385.5Q179 341 179 242Z" glyph-name="b" horiz-adv-x="614" unicode="b" /><glyph d="M408 0 5 700H94L497 0Z" glyph-name="backslash" horiz-adv-x="511" unicode="\" /><glyph d="M110 -65V766H188V-65Z" glyph-name="bar" horiz-adv-x="297" unicode="|" /><glyph d="M293 -82Q217 -75 178 -41Q139 -7 139 62Q139 94 144 123Q149 152 149 181Q149 238 123.5 263.5Q98 289 44 289H9V354H44Q98 354 123.5 379.5Q149 405 149 462Q149 491 144 520Q139 549 139 582Q139 651 178 684.5Q217 718 293 725L299 660Q260 655 239 636Q218 617 218 575Q218 544 222.5 514.5Q227 485 227 453Q227 355 140 322Q227 287 227 190Q227 158 222.5 128.5Q218 99 218 69Q218 27 239 7.5Q260 -12 299 -17Z" glyph-name="braceleft" horiz-adv-x="347" unicode="{" /><glyph d="M46 -17Q85 -12 106 7.5Q127 27 127 69Q127 99 122.5 128.5Q118 158 118 190Q118 287 205 322Q118 355 118 453Q118 485 122.5 514.5Q127 544 127 575Q127 617 106 636Q85 655 46 660L52 725Q128 718 167 684.5Q206 651 206 582Q206 549 201 520Q196 491 196 462Q196 405 221.5 379.5Q247 354 301 354H336V289H301Q247 289 221.5 263.5Q196 238 196 181Q196 152 201 123Q206 94 206 62Q206 -7 167 -41Q128 -75 52 -82Z" glyph-name="braceright" horiz-adv-x="347" unicode="}" /><glyph d="M72 -105V716H296V651H150V-40H299V-105Z" glyph-name="bracketleft" horiz-adv-x="339" unicode="[" /><glyph d="M40 -105V-40H189V651H43V716H267V-105Z" glyph-name="bracketright" horiz-adv-x="339" unicode="]" /><glyph d="M376 691H442Q442 656 432 632Q422 608 404 594Q386 580 359.5 574Q333 568 300 568Q267 568 240.5 574Q214 580 195.5 594Q177 608 167 632Q157 656 157 691H223Q223 652 242 637.5Q261 623 299 623Q337 623 356.5 637.5Q376 652 376 691Z" glyph-name="breve" horiz-adv-x="600" unicode="&#728;" /><glyph d="M110 388V766H188V388ZM110 -65V314H188V-65Z" glyph-name="brokenbar" horiz-adv-x="297" unicode="&#166;" /><glyph d="M60 327Q60 396 101 438Q142 480 216 480Q289 480 330 438Q371 396 371 327Q371 257 330 215.5Q289 174 216 174Q142 174 101 215.5Q60 257 60 327Z" glyph-name="bullet" horiz-adv-x="431" unicode="&#8226;" /><glyph d="M289 -12Q178 -12 117.5 48.5Q57 109 57 244Q57 376 117.5 437.5Q178 499 290 499Q366 499 413.5 471Q461 443 490 390L428 350Q408 388 373.5 409Q339 430 290 430Q252 430 224 420.5Q196 411 178 389Q160 367 151.5 331Q143 295 143 243Q143 140 179 98.5Q215 57 289 57Q342 57 375 76Q408 95 431 143L496 109Q467 45 415 16.5Q363 -12 289 -12Z" glyph-name="c" horiz-adv-x="532" unicode="c" /><glyph d="M57 0ZM436 685 322 574H249V578L325 691H436ZM289 -12Q178 -12 117.5 48.5Q57 109 57 244Q57 376 117.5 437.5Q178 499 290 499Q366 499 413.5 471Q461 443 490 390L428 350Q408 388 373.5 409Q339 430 290 430Q252 430 224 420.5Q196 411 178 389Q160 367 151.5 331Q143 295 143 243Q143 140 179 98.5Q215 57 289 57Q342 57 375 76Q408 95 431 143L496 109Q467 45 415 16.5Q363 -12 289 -12Z" glyph-name="cacute" horiz-adv-x="532" unicode="&#263;" /><glyph d="M299 624 370 691H463V689L340 574H257L135 689V691H231Z" glyph-name="caron" horiz-adv-x="600" unicode="&#711;" /><glyph d="M318 481H259L266 701H350Z" glyph-name="caronSlovak" horiz-adv-x="600" /><glyph d="M57 0ZM290 624 361 691H454V689L331 574H248L126 689V691H222ZM289 -12Q178 -12 117.5 48.5Q57 109 57 244Q57 376 117.5 437.5Q178 499 290 499Q366 499 413.5 471Q461 443 490 390L428 350Q408 388 373.5 409Q339 430 290 430Q252 430 224 420.5Q196 411 178 389Q160 367 151.5 331Q143 295 143 243Q143 140 179 98.5Q215 57 289 57Q342 57 375 76Q408 95 431 143L496 109Q467 45 415 16.5Q363 -12 289 -12Z" glyph-name="ccaron" horiz-adv-x="532" unicode="&#269;" /><glyph d="M282 -237Q244 -237 213.5 -223Q183 -209 164 -178L206 -138Q220 -161 236 -172.5Q252 -184 279 -184Q302 -184 317.5 -174.5Q333 -165 333 -145Q333 -125 318.5 -114Q304 -103 279 -103Q273 -103 267.5 -103.5Q262 -104 256 -105L240 -90L260 -11Q162 -4 109.5 57Q57 118 57 244Q57 376 117.5 437.5Q178 499 290 499Q366 499 413.5 471Q461 443 490 390L428 350Q408 388 373.5 409Q339 430 290 430Q252 430 224 420.5Q196 411 178 389Q160 367 151.5 331Q143 295 143 243Q143 140 179 98.5Q215 57 289 57Q342 57 375 76Q408 95 431 143L496 109Q470 52 426.5 23.5Q383 -5 321 -11L307 -61H310Q345 -61 371 -82Q397 -103 397 -145Q397 -168 387.5 -185.5Q378 -203 362.5 -214.5Q347 -226 326 -231.5Q305 -237 282 -237Z" glyph-name="ccedilla" horiz-adv-x="532" unicode="&#231;" /><glyph d="M57 0ZM290 643 220 574H127V577L249 691H332L455 577V574H357ZM289 -12Q178 -12 117.5 48.5Q57 109 57 244Q57 376 117.5 437.5Q178 499 290 499Q366 499 413.5 471Q461 443 490 390L428 350Q408 388 373.5 409Q339 430 290 430Q252 430 224 420.5Q196 411 178 389Q160 367 151.5 331Q143 295 143 243Q143 140 179 98.5Q215 57 289 57Q342 57 375 76Q408 95 431 143L496 109Q467 45 415 16.5Q363 -12 289 -12Z" glyph-name="ccircumflex" horiz-adv-x="532" unicode="&#265;" /><glyph d="M57 0ZM289 -12Q178 -12 117.5 48.5Q57 109 57 244Q57 376 117.5 437.5Q178 499 290 499Q366 499 413.5 471Q461 443 490 390L428 350Q408 388 373.5 409Q339 430 290 430Q252 430 224 420.5Q196 411 178 389Q160 367 151.5 331Q143 295 143 243Q143 140 179 98.5Q215 57 289 57Q342 57 375 76Q408 95 431 143L496 109Q467 45 415 16.5Q363 -12 289 -12ZM231 637Q231 665 247 679Q263 693 291 693Q319 693 334.5 679Q350 665 350 637Q350 609 334.5 594.5Q319 580 291 580Q263 580 247 594.5Q231 609 231 637Z" glyph-name="cdotaccent" horiz-adv-x="532" unicode="&#267;" /><glyph d="M300 0H361L344 -61H347Q382 -61 408 -82Q434 -103 434 -145Q434 -168 424.5 -185.5Q415 -203 399.5 -214.5Q384 -226 363 -231.5Q342 -237 319 -237Q281 -237 250.5 -223Q220 -209 201 -178L243 -138Q257 -161 273 -172.5Q289 -184 316 -184Q339 -184 354.5 -174.5Q370 -165 370 -145Q370 -125 355.5 -114Q341 -103 316 -103Q310 -103 304.5 -103.5Q299 -104 293 -105L277 -90Z" glyph-name="cedilla" horiz-adv-x="600" unicode="&#184;" /><glyph d="M152 256Q152 173 177.5 133.5Q203 94 257 85V428Q202 419 177 379.5Q152 340 152 256ZM257 -62V15Q165 25 115.5 82.5Q66 140 66 257Q66 372 115 430Q164 488 257 498V578H328V499Q388 494 426.5 467.5Q465 441 489 396L427 356Q396 417 328 428V83Q366 88 390.5 106.5Q415 125 435 163L500 129Q475 74 431.5 46.5Q388 19 328 14V-62Z" glyph-name="cent" horiz-adv-x="549" unicode="&#162;" /><glyph d="M298 643 228 574H135V577L257 691H340L463 577V574H365Z" glyph-name="circumflex" horiz-adv-x="600" unicode="&#710;" /><glyph d="M56 0ZM56 52Q56 81 72 95Q88 109 116 109Q143 109 158.5 95Q174 81 174 52Q174 25 158.5 10Q143 -5 116 -5Q88 -5 72 10Q56 25 56 52ZM56 429Q56 458 72 472Q88 486 116 486Q143 486 158.5 472Q174 458 174 429Q174 402 158.5 387Q143 372 116 372Q88 372 72 387Q56 402 56 429Z" glyph-name="colon" horiz-adv-x="230" unicode=":" /><glyph d="M72 -130 55 -91Q84 -81 101 -57.5Q118 -34 121 -2Q97 -5 76.5 8Q56 21 56 53Q56 82 71.5 95.5Q87 109 113 109Q142 109 158 90Q174 71 174 26Q174 -1 168 -26Q162 -51 149 -72Q136 -93 117 -108Q98 -123 72 -130Z" glyph-name="comma" horiz-adv-x="230" unicode="," /><glyph d="M258 -292 241 -252Q270 -244 285.5 -222.5Q301 -201 304 -172H299Q240 -172 240 -117Q240 -91 255 -77.5Q270 -64 296 -64Q325 -64 341 -82.5Q357 -101 357 -145Q357 -196 333 -237Q309 -278 258 -292Z" glyph-name="commaaccent" horiz-adv-x="600" unicode="&#63171;" /><glyph d="M72 350Q72 427 95 490Q118 553 162.5 597.5Q207 642 271 666.5Q335 691 417 691Q498 691 562 666.5Q626 642 670.5 597.5Q715 553 738 490Q761 427 761 350Q761 273 738 210Q715 147 670.5 102Q626 57 562 32.5Q498 8 417 8Q335 8 271 32.5Q207 57 162.5 102Q118 147 95 210Q72 273 72 350ZM116 350Q116 275 138 218.5Q160 162 199.5 124Q239 86 294.5 67Q350 48 417 48Q484 48 539.5 67Q595 86 634.5 124Q674 162 696 218.5Q718 275 718 350Q718 425 696 481.5Q674 538 634.5 576Q595 614 539.5 633Q484 652 417 652Q350 652 294.5 633Q239 614 199.5 576Q160 538 138 481.5Q116 425 116 350ZM421 176Q337 176 294 219Q251 262 251 353Q251 444 294 488Q337 532 421 532Q476 532 511 512Q546 492 566 455L518 424Q504 450 480 465Q456 480 421 480Q367 480 341.5 450Q316 420 316 353Q316 286 341.5 258Q367 230 421 230Q459 230 481.5 242.5Q504 255 520 287L570 261Q550 216 512.5 196Q475 176 421 176Z" glyph-name="copyright" horiz-adv-x="833" unicode="&#169;" /><glyph d="M209 348Q130 348 86.5 391Q43 434 43 531Q43 625 86.5 668.5Q130 712 210 712Q264 712 298 692Q332 672 352 635L304 602Q290 629 267 644Q244 659 210 659Q158 659 133.5 630.5Q109 602 109 530Q109 460 134 431.5Q159 403 210 403Q246 403 268.5 416Q291 429 306 461L357 435Q337 389 300 368.5Q263 348 209 348Z" glyph-name="cordinal" horiz-adv-x="394" /><glyph d="M435 245Q435 294 423.5 329Q412 364 392 386.5Q372 409 345 419.5Q318 430 286 430Q213 430 178 385Q143 340 143 243Q143 146 178.5 101.5Q214 57 285 57Q317 57 344.5 67.5Q372 78 392 101Q412 124 423.5 159.5Q435 195 435 245ZM442 0 437 87Q413 37 368.5 12.5Q324 -12 262 -12Q162 -12 109.5 53.5Q57 119 57 244Q57 369 112.5 434Q168 499 273 499Q383 499 435 417V700H521V0Z" glyph-name="d" horiz-adv-x="614" unicode="d" /><glyph d="M258 527H190L189 296H118V527H49V590H117L114 710H194L191 590H258Z" glyph-name="dagger" horiz-adv-x="308" unicode="&#8224;" /><glyph d="M49 476H119V536H49V599H117L114 710H194L190 599H258V536H189V476H258V413H190L194 296H114L117 413H49Z" glyph-name="daggerdbl" horiz-adv-x="308" unicode="&#8225;" /><glyph d="M57 0ZM665 480H606L613 700H697ZM435 245Q435 294 423.5 329Q412 364 392 386.5Q372 409 345 419.5Q318 430 286 430Q213 430 178 385Q143 340 143 243Q143 146 178.5 101.5Q214 57 285 57Q317 57 344.5 67.5Q372 78 392 101Q412 124 423.5 159.5Q435 195 435 245ZM442 0 437 87Q413 37 368.5 12.5Q324 -12 262 -12Q162 -12 109.5 53.5Q57 119 57 244Q57 369 112.5 434Q168 499 273 499Q383 499 435 417V700H521V0Z" glyph-name="dcaron" horiz-adv-x="662" unicode="&#271;" /><glyph d="M435 245Q435 294 423.5 329Q412 364 392 386.5Q372 409 345 420Q318 431 286 431Q213 431 178 385.5Q143 340 143 243Q143 147 178.5 102Q214 57 285 57Q317 57 344.5 68Q372 79 392 101.5Q412 124 423.5 159.5Q435 195 435 245ZM600 615V557H521V0H442L437 87Q413 38 368.5 13Q324 -12 262 -12Q162 -12 109.5 53.5Q57 119 57 244Q57 369 112.5 434Q168 499 273 499Q327 499 368 479Q409 459 435 418V557H278V615H435V700H521V615Z" glyph-name="dcroat" horiz-adv-x="631" unicode="&#273;" /><glyph d="M235 350Q147 350 99.5 400Q52 450 52 531Q52 613 99.5 662.5Q147 712 235 712Q321 712 369 662.5Q417 613 417 531Q417 490 404.5 457Q392 424 368.5 400Q345 376 311.5 363Q278 350 235 350ZM235 654Q182 654 150.5 623Q119 592 119 531Q119 470 150.5 439Q182 408 235 408Q286 408 317.5 439Q349 470 349 531Q349 592 317.5 623Q286 654 235 654Z" glyph-name="degree" horiz-adv-x="467" unicode="&#176;" /><glyph d="M332 637Q332 665 348 679Q364 693 392 693Q420 693 435.5 679Q451 665 451 637Q451 609 435.5 594.5Q420 580 392 580Q364 580 348 594.5Q332 609 332 637ZM159 637Q159 665 175 679Q191 693 219 693Q247 693 262.5 679Q278 665 278 637Q278 609 262.5 594.5Q247 580 219 580Q191 580 175 594.5Q159 609 159 637Z" glyph-name="dieresis" horiz-adv-x="600" unicode="&#168;" /><glyph d="M193 475Q193 503 208.5 517.5Q224 532 252 532Q280 532 296 517.5Q312 503 312 475Q312 448 296 433Q280 418 252 418Q224 418 208.5 433Q193 448 193 475ZM456 345V274H50V345ZM193 147Q193 176 208.5 190Q224 204 252 204Q280 204 296 190Q312 176 312 147Q312 119 296 104.5Q280 90 252 90Q224 90 208.5 104.5Q193 119 193 147Z" glyph-name="divide" horiz-adv-x="506" unicode="&#247;" /><glyph d="M264 402V609Q155 600 155 515Q155 474 179 446Q203 418 264 402ZM335 91Q395 98 422.5 125Q450 152 450 199Q450 242 424.5 266Q399 290 335 307ZM335 -62H264V20Q195 25 141 54Q87 83 49 146L112 188Q145 142 179.5 119.5Q214 97 264 92V323Q161 349 118 397Q75 445 75 511Q75 583 121 628Q167 673 264 680V766H335V679Q402 674 446 647Q490 620 519 571L453 528Q432 564 404.5 583.5Q377 603 335 608V385Q440 359 486.5 318.5Q533 278 533 204Q533 118 481 73Q429 28 335 20Z" glyph-name="dollar" horiz-adv-x="588" unicode="$" /><glyph d="M242 637Q242 665 258 679Q274 693 302 693Q330 693 345.5 679Q361 665 361 637Q361 609 345.5 594.5Q330 580 302 580Q274 580 258 594.5Q242 609 242 637Z" glyph-name="dotaccent" horiz-adv-x="600" unicode="&#729;" /><glyph d="M95 487H181V0H95Z" glyph-name="dotlessi" horiz-adv-x="276" unicode="&#305;" /><glyph d="M95 -33V487H181V-44Q181 -134 140.5 -175Q100 -216 28 -216Q8 -216 -9 -213.5Q-26 -211 -49 -203L-35 -131Q-21 -136 -8.5 -139Q4 -142 23 -142Q40 -142 53.5 -137Q67 -132 76 -119.5Q85 -107 90 -86Q95 -65 95 -33Z" glyph-name="dotlessj" horiz-adv-x="276" unicode="&#567;" /><glyph d="M260 -65V766H338V-65ZM110 -65V766H188V-65Z" glyph-name="doublebar" horiz-adv-x="447" /><glyph d="M287 -12Q177 -12 117 49.5Q57 111 57 243Q57 369 116 434Q175 499 289 499Q343 499 382 481.5Q421 464 446.5 432.5Q472 401 484.5 358Q497 315 497 264Q497 253 496.5 241.5Q496 230 495 218H142Q147 129 183.5 93Q220 57 289 57Q341 57 375 74.5Q409 92 432 142L496 109Q467 45 413 16.5Q359 -12 287 -12ZM285 431Q222 431 186 397.5Q150 364 143 284H412Q409 363 376 397Q343 431 285 431Z" glyph-name="e" horiz-adv-x="547" unicode="e" /><glyph d="M57 0ZM430 685 316 574H243V578L319 691H430ZM287 -12Q177 -12 117 49.5Q57 111 57 243Q57 369 116 434Q175 499 289 499Q343 499 382 481.5Q421 464 446.5 432.5Q472 401 484.5 358Q497 315 497 264Q497 253 496.5 241.5Q496 230 495 218H142Q147 129 183.5 93Q220 57 289 57Q341 57 375 74.5Q409 92 432 142L496 109Q467 45 413 16.5Q359 -12 287 -12ZM285 431Q222 431 186 397.5Q150 364 143 284H412Q409 363 376 397Q343 431 285 431Z" glyph-name="eacute" horiz-adv-x="547" unicode="&#233;" /><glyph d="M57 0ZM287 -12Q177 -12 117 49.5Q57 111 57 243Q57 369 116 434Q175 499 289 499Q343 499 382 481.5Q421 464 446.5 432.5Q472 401 484.5 358Q497 315 497 264Q497 253 496.5 241.5Q496 230 495 218H142Q147 129 183.5 93Q220 57 289 57Q341 57 375 74.5Q409 92 432 142L496 109Q467 45 413 16.5Q359 -12 287 -12ZM285 431Q222 431 186 397.5Q150 364 143 284H412Q409 363 376 397Q343 431 285 431ZM359 691H425Q425 656 415 632Q405 608 387 594Q369 580 342.5 574Q316 568 283 568Q250 568 223.5 574Q197 580 178.5 594Q160 608 150 632Q140 656 140 691H206Q206 652 225 637.5Q244 623 282 623Q320 623 339.5 637.5Q359 652 359 691Z" glyph-name="ebreve" horiz-adv-x="547" unicode="&#277;" /><glyph d="M57 0ZM284 624 355 691H448V689L325 574H242L120 689V691H216ZM287 -12Q177 -12 117 49.5Q57 111 57 243Q57 369 116 434Q175 499 289 499Q343 499 382 481.5Q421 464 446.5 432.5Q472 401 484.5 358Q497 315 497 264Q497 253 496.5 241.5Q496 230 495 218H142Q147 129 183.5 93Q220 57 289 57Q341 57 375 74.5Q409 92 432 142L496 109Q467 45 413 16.5Q359 -12 287 -12ZM285 431Q222 431 186 397.5Q150 364 143 284H412Q409 363 376 397Q343 431 285 431Z" glyph-name="ecaron" horiz-adv-x="547" unicode="&#283;" /><glyph d="M57 0ZM284 643 214 574H121V577L243 691H326L449 577V574H351ZM287 -12Q177 -12 117 49.5Q57 111 57 243Q57 369 116 434Q175 499 289 499Q343 499 382 481.5Q421 464 446.5 432.5Q472 401 484.5 358Q497 315 497 264Q497 253 496.5 241.5Q496 230 495 218H142Q147 129 183.5 93Q220 57 289 57Q341 57 375 74.5Q409 92 432 142L496 109Q467 45 413 16.5Q359 -12 287 -12ZM285 431Q222 431 186 397.5Q150 364 143 284H412Q409 363 376 397Q343 431 285 431Z" glyph-name="ecircumflex" horiz-adv-x="547" unicode="&#234;" /><glyph d="M57 0ZM309 637Q309 665 325 679Q341 693 369 693Q397 693 412.5 679Q428 665 428 637Q428 609 412.5 594.5Q397 580 369 580Q341 580 325 594.5Q309 609 309 637ZM136 637Q136 665 152 679Q168 693 196 693Q224 693 239.5 679Q255 665 255 637Q255 609 239.5 594.5Q224 580 196 580Q168 580 152 594.5Q136 609 136 637ZM287 -12Q177 -12 117 49.5Q57 111 57 243Q57 369 116 434Q175 499 289 499Q343 499 382 481.5Q421 464 446.5 432.5Q472 401 484.5 358Q497 315 497 264Q497 253 496.5 241.5Q496 230 495 218H142Q147 129 183.5 93Q220 57 289 57Q341 57 375 74.5Q409 92 432 142L496 109Q467 45 413 16.5Q359 -12 287 -12ZM285 431Q222 431 186 397.5Q150 364 143 284H412Q409 363 376 397Q343 431 285 431Z" glyph-name="edieresis" horiz-adv-x="547" unicode="&#235;" /><glyph d="M57 0ZM287 -12Q177 -12 117 49.5Q57 111 57 243Q57 369 116 434Q175 499 289 499Q343 499 382 481.5Q421 464 446.5 432.5Q472 401 484.5 358Q497 315 497 264Q497 253 496.5 241.5Q496 230 495 218H142Q147 129 183.5 93Q220 57 289 57Q341 57 375 74.5Q409 92 432 142L496 109Q467 45 413 16.5Q359 -12 287 -12ZM285 431Q222 431 186 397.5Q150 364 143 284H412Q409 363 376 397Q343 431 285 431ZM225 637Q225 665 241 679Q257 693 285 693Q313 693 328.5 679Q344 665 344 637Q344 609 328.5 594.5Q313 580 285 580Q257 580 241 594.5Q225 609 225 637Z" glyph-name="edotaccent" horiz-adv-x="547" unicode="&#279;" /><glyph d="M57 0ZM287 -12Q177 -12 117 49.5Q57 111 57 243Q57 369 116 434Q175 499 289 499Q343 499 382 481.5Q421 464 446.5 432.5Q472 401 484.5 358Q497 315 497 264Q497 253 496.5 241.5Q496 230 495 218H142Q147 129 183.5 93Q220 57 289 57Q341 57 375 74.5Q409 92 432 142L496 109Q467 45 413 16.5Q359 -12 287 -12ZM285 431Q222 431 186 397.5Q150 364 143 284H412Q409 363 376 397Q343 431 285 431ZM254 574 139 685V691H250L327 578V574Z" glyph-name="egrave" horiz-adv-x="547" unicode="&#232;" /><glyph d="M312 -12Q191 -12 125 42.5Q59 97 59 192Q59 265 97.5 307.5Q136 350 194 364Q143 381 113 421.5Q83 462 83 524Q83 618 141.5 665Q200 712 312 712Q424 712 483 665Q542 618 542 525Q542 463 512.5 422Q483 381 432 364Q489 350 527.5 307.5Q566 265 566 192Q566 97 499.5 42.5Q433 -12 312 -12ZM458 524Q458 584 420.5 614.5Q383 645 312 645Q241 645 204 614.5Q167 584 167 524Q167 467 203.5 434Q240 401 312 401Q386 401 422 434.5Q458 468 458 524ZM480 195Q480 260 435 294Q390 328 313 328Q235 328 190 294Q145 260 145 195Q145 127 188.5 92.5Q232 58 312 58Q392 58 436 92.5Q480 127 480 195Z" glyph-name="eight" horiz-adv-x="625" unicode="8" /><glyph d="M325 -12Q204 -12 138 42.5Q72 97 72 192Q72 265 110.5 307.5Q149 350 207 364Q156 381 126 421.5Q96 462 96 524Q96 618 154.5 665Q213 712 325 712Q437 712 496 665Q555 618 555 525Q555 463 525.5 422Q496 381 445 364Q502 350 540.5 307.5Q579 265 579 192Q579 97 512.5 42.5Q446 -12 325 -12ZM471 524Q471 584 433.5 614.5Q396 645 325 645Q254 645 217 614.5Q180 584 180 524Q180 467 216.5 434Q253 401 325 401Q399 401 435 434.5Q471 468 471 524ZM493 195Q493 260 448 294Q403 328 326 328Q248 328 203 294Q158 260 158 195Q158 127 201.5 92.5Q245 58 325 58Q405 58 449 92.5Q493 127 493 195Z" glyph-name="eight.LP" horiz-adv-x="652" /><glyph d="M309 -12Q194 -12 131.5 42.5Q69 97 69 192Q69 265 105.5 307.5Q142 350 197 364Q149 381 120 421.5Q91 462 91 524Q91 618 147 665Q203 712 309 712Q416 712 472 665Q528 618 528 525Q528 463 499.5 422Q471 381 423 364Q477 350 513.5 307.5Q550 265 550 192Q550 97 487 42.5Q424 -12 309 -12ZM445 524Q445 645 309 645Q174 645 174 524Q174 467 207 434Q240 401 309 401Q379 401 412 434.5Q445 468 445 524ZM466 195Q466 260 424.5 294Q383 328 310 328Q236 328 194.5 294Q153 260 153 195Q153 127 193 93Q233 59 309 59Q385 59 425.5 93Q466 127 466 195Z" glyph-name="eight.OP" horiz-adv-x="620" /><glyph d="M312 -12Q191 -12 125 42.5Q59 97 59 192Q59 265 97.5 307.5Q136 350 194 364Q143 381 113 421.5Q83 462 83 524Q83 618 141.5 665Q200 712 312 712Q424 712 483 665Q542 618 542 525Q542 463 512.5 422Q483 381 432 364Q489 350 527.5 307.5Q566 265 566 192Q566 97 499.5 42.5Q433 -12 312 -12ZM458 524Q458 584 420.5 614.5Q383 645 312 645Q241 645 204 614.5Q167 584 167 524Q167 467 203.5 434Q240 401 312 401Q386 401 422 434.5Q458 468 458 524ZM480 195Q480 260 435 294Q390 328 313 328Q235 328 190 294Q145 260 145 195Q145 127 188.5 92.5Q232 58 312 58Q392 58 436 92.5Q480 127 480 195Z" glyph-name="eight.OT" horiz-adv-x="625" /><glyph d="M42 0ZM197 -210Q122 -210 82 -178.5Q42 -147 42 -89Q42 -47 62 -23Q82 1 115 12Q88 24 72.5 47Q57 70 57 103Q57 218 197 218Q266 218 302 189.5Q338 161 338 104Q338 70 322 47Q306 24 280 12Q312 1 332 -23.5Q352 -48 352 -89Q352 -147 312 -178.5Q272 -210 197 -210ZM272 102Q272 131 252.5 145.5Q233 160 198 160Q122 160 122 102Q122 73 141 56.5Q160 40 197 40Q234 40 253 56.5Q272 73 272 102ZM280 -87Q280 -55 258 -37.5Q236 -20 198 -20Q158 -20 135.5 -37.5Q113 -55 113 -87Q113 -119 135 -136.5Q157 -154 197 -154Q237 -154 258.5 -136.5Q280 -119 280 -87Z" glyph-name="eight.inf" horiz-adv-x="397" /><glyph d="M517 52Q517 81 533 95Q549 109 576 109Q604 109 619.5 95Q635 81 635 52Q635 25 619.5 10Q604 -5 576 -5Q549 -5 533 10Q517 25 517 52ZM286 52Q286 81 302 95Q318 109 346 109Q374 109 389.5 95Q405 81 405 52Q405 25 389.5 10Q374 -5 346 -5Q318 -5 302 10Q286 25 286 52ZM56 52Q56 81 72 95Q88 109 116 109Q143 109 158.5 95Q174 81 174 52Q174 25 158.5 10Q143 -5 116 -5Q88 -5 72 10Q56 25 56 52Z" glyph-name="ellipsis" horiz-adv-x="691" unicode="&#8230;" /><glyph d="M57 0ZM287 -12Q177 -12 117 49.5Q57 111 57 243Q57 369 116 434Q175 499 289 499Q343 499 382 481.5Q421 464 446.5 432.5Q472 401 484.5 358Q497 315 497 264Q497 253 496.5 241.5Q496 230 495 218H142Q147 129 183.5 93Q220 57 289 57Q341 57 375 74.5Q409 92 432 142L496 109Q467 45 413 16.5Q359 -12 287 -12ZM285 431Q222 431 186 397.5Q150 364 143 284H412Q409 363 376 397Q343 431 285 431ZM411 660V601H157V660Z" glyph-name="emacron" horiz-adv-x="547" unicode="&#275;" /><glyph d="M740 291V219H49V291Z" glyph-name="emdash" horiz-adv-x="788" unicode="&#8212;" /><glyph d="M740 385V313H49V385Z" glyph-name="emdash.cap" horiz-adv-x="788" /><glyph glyph-name="emspace" horiz-adv-x="1000" unicode="&#8195;" /><glyph d="M540 291V219H49V291Z" glyph-name="endash" horiz-adv-x="588" unicode="&#8211;" /><glyph d="M540 385V313H49V385Z" glyph-name="endash.cap" horiz-adv-x="588" /><glyph d="M458 -33V284Q458 361 427 393.5Q396 426 338 426Q266 426 223.5 378.5Q181 331 179 243V0H93V487H168L178 396Q205 452 255 475.5Q305 499 364 499Q456 499 500 450Q544 401 544 304V-44Q544 -134 503.5 -175Q463 -216 391 -216Q371 -216 354.5 -213.5Q338 -211 315 -203L329 -131Q342 -136 354.5 -139Q367 -142 386 -142Q403 -142 416.5 -137Q430 -132 439 -119.5Q448 -107 453 -86Q458 -65 458 -33Z" glyph-name="eng" horiz-adv-x="630" unicode="&#331;" /><glyph glyph-name="enspace" horiz-adv-x="500" unicode="&#8194;" /><glyph d="M222 -111Q222 -79 233 -54Q244 -29 262 -11Q163 -4 110 57Q57 118 57 243Q57 369 116 434Q175 499 289 499Q343 499 382 481.5Q421 464 446.5 432.5Q472 401 484.5 358Q497 315 497 264Q497 253 496.5 241.5Q496 230 495 218H141Q146 129 183 93Q220 57 289 57Q341 57 375 74.5Q409 92 432 142L496 109Q475 63 441.5 35.5Q408 8 363 -3Q326 -13 306.5 -41.5Q287 -70 287 -101Q287 -129 302 -140Q317 -151 345 -151Q381 -151 411 -133L424 -189Q386 -212 338 -212Q316 -212 295 -207Q274 -202 258 -190.5Q242 -179 232 -159.5Q222 -140 222 -111ZM285 431Q222 431 185.5 397.5Q149 364 142 284H412Q409 363 376 397Q343 431 285 431Z" glyph-name="eogonek" horiz-adv-x="547" unicode="&#281;" /><glyph d="M456 417V346H50V417ZM456 273V202H50V273Z" glyph-name="equal" horiz-adv-x="506" unicode="=" /><glyph d="M34 0ZM276 51V-4H34V51ZM276 -36V-91H34V-36Z" glyph-name="equal.inf" horiz-adv-x="309" /><glyph d="M479 718 511 671 431 620Q485 555 507.5 463.5Q530 372 530 254V242Q530 111 470.5 49.5Q411 -12 295 -12Q180 -12 118.5 48Q57 108 57 242Q57 374 119.5 435Q182 496 295 496Q382 496 430 449Q421 487 405 519.5Q389 552 365 579L282 526L251 573L323 620Q271 660 192 681L220 740Q324 716 390 660ZM444 242Q444 343 407.5 385.5Q371 428 295 428Q217 428 180 385.5Q143 343 143 242Q143 141 180.5 99Q218 57 295 57Q371 57 407.5 99Q444 141 444 242Z" glyph-name="eth" horiz-adv-x="592" unicode="&#240;" /><glyph d="M161 700 149 194H78L66 700ZM55 52Q55 81 70.5 95Q86 109 114 109Q141 109 157 95Q173 81 173 52Q173 25 157 10Q141 -5 114 -5Q86 -5 70.5 10Q55 25 55 52Z" glyph-name="exclam" horiz-adv-x="227" unicode="!" /><glyph d="M66 -202 78 304H149L161 -202ZM172 446Q172 417 156.5 403Q141 389 113 389Q86 389 70 403Q54 417 54 446Q54 473 70 488Q86 503 113 503Q141 503 156.5 488Q172 473 172 446Z" glyph-name="exclamdown" horiz-adv-x="227" unicode="&#161;" /><glyph d="M70 0 82 506H153L165 0ZM176 648Q176 619 160.5 605Q145 591 117 591Q90 591 74 605Q58 619 58 648Q58 675 74 690Q90 705 117 705Q145 705 160.5 690Q176 675 176 648Z" glyph-name="exclamdown.cap" horiz-adv-x="231" /><glyph d="M26 487H116V546Q116 638 157.5 678Q199 718 272 718Q292 718 313 714.5Q334 711 351 704L337 632Q323 637 310 640.5Q297 644 278 644Q242 644 221 622.5Q200 601 200 541V487H341V420H200V0H116V420H26Z" glyph-name="f" horiz-adv-x="353" unicode="f" /><glyph d="M432 638Q432 666 447.5 680Q463 694 491 694Q519 694 534.5 680Q550 666 550 638Q550 610 534.5 595.5Q519 581 491 581Q463 581 447.5 595.5Q432 610 432 638ZM116 0V420H26V487H116V546Q116 638 157.5 678Q199 718 272 718Q292 718 313 714.5Q334 711 351 704L337 632Q323 637 310 640.5Q297 644 278 644Q242 644 221 622.5Q200 601 200 541V487H341V420H200V0ZM448 487H534V0H448Z" glyph-name="fi" horiz-adv-x="629" unicode="&#64257;" /><glyph d="M540 291V219H49V291Z" glyph-name="figuredash" horiz-adv-x="588" unicode="&#8210;" /><glyph d="M540 385V313H49V385Z" glyph-name="figuredash.cap" horiz-adv-x="588" /><glyph glyph-name="figurespace" horiz-adv-x="625" unicode="&#8199;" /><glyph d="M191 624 170 405Q202 425 244 435Q286 445 329 445Q376 445 418.5 433Q461 421 493.5 395Q526 369 545.5 327.5Q565 286 565 228Q565 175 548 131Q531 87 497.5 55Q464 23 414.5 5.5Q365 -12 300 -12Q219 -12 157 17Q95 46 60 108L123 158Q182 57 301 57Q386 57 432 102.5Q478 148 478 226Q478 302 434 339Q390 376 311 376Q255 376 212.5 359.5Q170 343 135 315L86 341L121 700H528V624Z" glyph-name="five" horiz-adv-x="625" unicode="5" /><glyph d="M177 624 156 405Q188 425 230 435Q272 445 315 445Q362 445 404.5 433Q447 421 479.5 395Q512 369 531.5 327.5Q551 286 551 228Q551 175 534 131Q517 87 483.5 55Q450 23 400.5 5.5Q351 -12 286 -12Q205 -12 143 17Q81 46 46 108L109 158Q168 57 287 57Q372 57 418 102.5Q464 148 464 226Q464 302 420 339Q376 376 297 376Q241 376 198.5 359.5Q156 343 121 315L72 341L107 700H514V624Z" glyph-name="five.LP" horiz-adv-x="592" /><glyph d="M172 526 151 305Q182 325 221 335Q260 345 300 345Q345 345 385.5 333Q426 321 457.5 295Q489 269 507.5 227.5Q526 186 526 126Q526 74 509.5 30Q493 -14 461 -45.5Q429 -77 382 -94.5Q335 -112 274 -112Q193 -112 134 -83Q75 -54 41 8L103 56Q131 5 172.5 -19.5Q214 -44 274 -44Q312 -44 343 -32Q374 -20 395.5 2.5Q417 25 428.5 55.5Q440 86 440 124Q440 202 399 238.5Q358 275 278 275Q230 275 190 259Q150 243 116 215L67 241L102 600H489V526Z" glyph-name="five.OP" horiz-adv-x="562" /><glyph d="M191 524 170 305Q202 325 244 335Q286 345 329 345Q376 345 418.5 333Q461 321 493.5 295Q526 269 545.5 227.5Q565 186 565 128Q565 75 548 31Q531 -13 497.5 -45Q464 -77 414.5 -94.5Q365 -112 300 -112Q219 -112 157 -83Q95 -54 60 8L123 58Q182 -43 301 -43Q386 -43 432 2.5Q478 48 478 126Q478 202 434 239Q390 276 311 276Q255 276 212.5 259.5Q170 243 135 215L86 241L121 600H528V524Z" glyph-name="five.OT" horiz-adv-x="625" /><glyph d="M25 0ZM119 147 108 41Q145 59 193 59Q222 59 247.5 52Q273 45 292 29.5Q311 14 322 -10.5Q333 -35 333 -69Q333 -133 293 -171.5Q253 -210 175 -210Q124 -210 86 -193.5Q48 -177 25 -140Q26 -139 33.5 -132.5Q41 -126 50 -119.5Q59 -113 66 -107Q73 -101 75 -100Q106 -150 173 -150Q213 -150 237 -129Q261 -108 261 -70Q261 -32 238.5 -14Q216 4 174 4Q148 4 125.5 -3.5Q103 -11 85 -24L42 -2L62 207H313V146Z" glyph-name="five.inf" horiz-adv-x="360" /><glyph d="M116 0V420H26V487H116V546Q116 638 157.5 678Q199 718 272 718Q292 718 313 714.5Q334 711 351 704L337 632Q323 637 310 640.5Q297 644 278 644Q242 644 221 622.5Q200 601 200 541V487H341V420H200V0ZM549 0Q501 0 472 25Q443 50 443 110V700H529V115Q529 89 539.5 78.5Q550 68 576 68H621V0Z" glyph-name="fl" horiz-adv-x="629" unicode="&#64258;" /><glyph d="M116 0V420H26V487H116V546Q116 638 157.5 678Q199 718 272 718Q292 718 313 714.5Q334 711 351 704L337 632Q323 637 310 640.5Q297 644 278 644Q242 644 221 622.5Q200 601 200 541V487H341V420H200V0ZM534 700V0H448V700Z" glyph-name="fl.alt" horiz-adv-x="629" /><glyph d="M65 -38 119 306H32L42 372H129L142 448Q156 540 202 580Q248 620 320 620Q340 620 362 616.5Q384 613 400 606L375 534Q362 539 349.5 542Q337 545 319 545Q284 545 260 524Q236 503 226 443L214 372H352L342 306H204L150 -44Q136 -133 91.5 -174.5Q47 -216 -25 -216Q-45 -216 -65 -213Q-85 -210 -102 -203L-77 -131Q-64 -136 -52.5 -139Q-41 -142 -23 -142Q10 -142 32.5 -120.5Q55 -99 65 -38Z" glyph-name="florin" horiz-adv-x="380" unicode="&#402;" /><glyph d="M22 183V243L256 700H347L117 259H410V578H497V259H603V183H497V0H410V183Z" glyph-name="four" horiz-adv-x="625" unicode="4" /><glyph d="M36 183V243L270 700H361L131 259H424V578H511V259H617V183H511V0H424V183Z" glyph-name="four.LP" horiz-adv-x="639" /><glyph d="M35 83V140L257 600H343L126 152H403V478H487V152H586V83H487V-100H403V83Z" glyph-name="four.OP" horiz-adv-x="607" /><glyph d="M22 83V143L256 600H347L117 159H410V478H497V159H603V83H497V-100H410V83Z" glyph-name="four.OT" horiz-adv-x="625" /><glyph d="M25 0ZM25 -103V-52L155 208H227L101 -39H251V128H318V-39H375V-103H318V-200H251V-103Z" glyph-name="four.inf" horiz-adv-x="395" /><glyph glyph-name="fourperemspace" horiz-adv-x="250" unicode="&#8197;" /><glyph d="M462 700 124 0H43L382 700Z" glyph-name="fraction" horiz-adv-x="506" unicode="&#8260;" /><glyph d="M434 253Q434 301 422.5 334.5Q411 368 391 389.5Q371 411 343.5 421Q316 431 284 431Q212 431 177.5 388Q143 345 143 252Q143 158 178 114.5Q213 71 284 71Q316 71 343.5 81Q371 91 391 113Q411 135 422.5 169.5Q434 204 434 253ZM520 487V14Q520 -47 502 -90.5Q484 -134 451.5 -162Q419 -190 374 -203Q329 -216 275 -216Q203 -216 149.5 -191Q96 -166 65 -101L127 -57Q152 -107 188 -126.5Q224 -146 275 -146Q310 -146 339 -137.5Q368 -129 389 -111Q410 -93 422 -64.5Q434 -36 434 5V93Q410 46 367 23.5Q324 1 264 1Q166 1 111.5 64Q57 127 57 251Q57 372 110 435.5Q163 499 265 499Q325 499 369 476.5Q413 454 437 408L446 487Z" glyph-name="g" horiz-adv-x="613" unicode="g" /><glyph d="M57 0ZM434 253Q434 301 422.5 334.5Q411 368 391 389.5Q371 411 343.5 421Q316 431 284 431Q212 431 177.5 388Q143 345 143 252Q143 158 178 114.5Q213 71 284 71Q316 71 343.5 81Q371 91 391 113Q411 135 422.5 169.5Q434 204 434 253ZM520 487V14Q520 -47 502 -90.5Q484 -134 451.5 -162Q419 -190 374 -203Q329 -216 275 -216Q203 -216 149.5 -191Q96 -166 65 -101L127 -57Q152 -107 188 -126.5Q224 -146 275 -146Q310 -146 339 -137.5Q368 -129 389 -111Q410 -93 422 -64.5Q434 -36 434 5V93Q410 46 367 23.5Q324 1 264 1Q166 1 111.5 64Q57 127 57 251Q57 372 110 435.5Q163 499 265 499Q325 499 369 476.5Q413 454 437 408L446 487ZM353 691H419Q419 656 409 632Q399 608 381 594Q363 580 336.5 574Q310 568 277 568Q244 568 217.5 574Q191 580 172.5 594Q154 608 144 632Q134 656 134 691H200Q200 652 219 637.5Q238 623 276 623Q314 623 333.5 637.5Q353 652 353 691Z" glyph-name="gbreve" horiz-adv-x="613" unicode="&#287;" /><glyph d="M57 0ZM279 643 209 574H116V577L238 691H321L444 577V574H346ZM434 253Q434 301 422.5 334.5Q411 368 391 389.5Q371 411 343.5 421Q316 431 284 431Q212 431 177.5 388Q143 345 143 252Q143 158 178 114.5Q213 71 284 71Q316 71 343.5 81Q371 91 391 113Q411 135 422.5 169.5Q434 204 434 253ZM520 487V14Q520 -47 502 -90.5Q484 -134 451.5 -162Q419 -190 374 -203Q329 -216 275 -216Q203 -216 149.5 -191Q96 -166 65 -101L127 -57Q152 -107 188 -126.5Q224 -146 275 -146Q310 -146 339 -137.5Q368 -129 389 -111Q410 -93 422 -64.5Q434 -36 434 5V93Q410 46 367 23.5Q324 1 264 1Q166 1 111.5 64Q57 127 57 251Q57 372 110 435.5Q163 499 265 499Q325 499 369 476.5Q413 454 437 408L446 487Z" glyph-name="gcircumflex" horiz-adv-x="613" unicode="&#285;" /><glyph d="M318 792 335 752Q306 744 290.5 722.5Q275 701 272 672H277Q336 672 336 617Q336 591 321 577.5Q306 564 280 564Q251 564 235 582.5Q219 601 219 645Q219 696 243 737Q267 778 318 792ZM434 253Q434 301 422.5 334.5Q411 368 391 389.5Q371 411 343.5 421Q316 431 284 431Q212 431 177.5 388Q143 345 143 252Q143 158 178 114.5Q213 71 284 71Q316 71 343.5 81Q371 91 391 113Q411 135 422.5 169.5Q434 204 434 253ZM520 487V14Q520 -47 502 -90.5Q484 -134 451.5 -162Q419 -190 374 -203Q329 -216 275 -216Q203 -216 149.5 -191Q96 -166 65 -101L127 -57Q152 -107 188 -126.5Q224 -146 275 -146Q310 -146 339 -137.5Q368 -129 389 -111Q410 -93 422 -64.5Q434 -36 434 5V93Q410 46 367 23.5Q324 1 264 1Q166 1 111.5 64Q57 127 57 251Q57 372 110 435.5Q163 499 265 499Q325 499 369 476.5Q413 454 437 408L446 487Z" glyph-name="gcommaaccent" horiz-adv-x="613" unicode="&#291;" /><glyph d="M57 0ZM434 253Q434 301 422.5 334.5Q411 368 391 389.5Q371 411 343.5 421Q316 431 284 431Q212 431 177.5 388Q143 345 143 252Q143 158 178 114.5Q213 71 284 71Q316 71 343.5 81Q371 91 391 113Q411 135 422.5 169.5Q434 204 434 253ZM520 487V14Q520 -47 502 -90.5Q484 -134 451.5 -162Q419 -190 374 -203Q329 -216 275 -216Q203 -216 149.5 -191Q96 -166 65 -101L127 -57Q152 -107 188 -126.5Q224 -146 275 -146Q310 -146 339 -137.5Q368 -129 389 -111Q410 -93 422 -64.5Q434 -36 434 5V93Q410 46 367 23.5Q324 1 264 1Q166 1 111.5 64Q57 127 57 251Q57 372 110 435.5Q163 499 265 499Q325 499 369 476.5Q413 454 437 408L446 487ZM219 637Q219 665 235 679Q251 693 279 693Q307 693 322.5 679Q338 665 338 637Q338 609 322.5 594.5Q307 580 279 580Q251 580 235 594.5Q219 609 219 637Z" glyph-name="gdotaccent" horiz-adv-x="613" unicode="&#289;" /><glyph d="M342 342H291V410H342Q371 410 391 419Q411 428 423.5 444Q436 460 441.5 480.5Q447 501 447 525Q447 587 412.5 614Q378 641 316 641Q246 641 210 599.5Q174 558 174 480V0H88V487Q88 596 148.5 654Q209 712 315 712Q419 712 475.5 663.5Q532 615 532 528Q532 478 513.5 442Q495 406 463 384Q520 366 549.5 321Q579 276 579 210Q579 162 564 122.5Q549 83 520.5 54.5Q492 26 451.5 10Q411 -6 360 -6Q332 -6 309.5 -2.5Q287 1 262 11L279 80Q298 73 313.5 69.5Q329 66 349 66Q419 66 456.5 101Q494 136 494 207Q494 237 486.5 261.5Q479 286 461.5 304Q444 322 414.5 332Q385 342 342 342Z" glyph-name="germandbls" horiz-adv-x="622" unicode="&#223;" /><glyph d="M275 574 160 685V691H271L348 578V574Z" glyph-name="grave" horiz-adv-x="600" unicode="`" /><glyph d="M129 93 87 149 307 307 86 465 130 524 407 328V290Z" glyph-name="greater" horiz-adv-x="490" unicode="&gt;" /><glyph d="M139 140 103 197 307 331 102 465 140 523 413 352V314ZM421 71V0H86V71Z" glyph-name="greaterequal" horiz-adv-x="510" unicode="&#8805;" /><glyph d="M466 0 268 244V247L460 487H559L365 248L566 0ZM247 0 55 242V245L246 487H344L152 246L348 0Z" glyph-name="guillemotleft" horiz-adv-x="634" unicode="&#171;" /><glyph d="M168 487 366 243V240L174 0H75L269 239L68 487ZM387 487 579 245V242L388 0H290L482 241L286 487Z" glyph-name="guillemotright" horiz-adv-x="634" unicode="&#187;" /><glyph d="M246 0 55 242V245L246 487H344L152 246L347 0Z" glyph-name="guilsinglleft" horiz-adv-x="414" unicode="&#8249;" /><glyph d="M168 487 359 245V242L168 0H70L262 241L67 487Z" glyph-name="guilsinglright" horiz-adv-x="414" unicode="&#8250;" /><glyph d="M179 700V393Q206 450 256.5 474.5Q307 499 364 499Q456 499 500 450Q544 401 544 304V0H458V282Q458 360 426.5 393Q395 426 338 426Q266 426 223.5 378.5Q181 331 179 243V0H93V700Z" glyph-name="h" horiz-adv-x="630" unicode="h" /><glyph glyph-name="hairspace" horiz-adv-x="100" unicode="&#8202;" /><glyph d="M30 557V615H108V700H194V615H351V557H194V392Q221 450 271.5 475Q322 500 379 500Q471 500 515 450.5Q559 401 559 304V0H473V282Q473 360 441.5 392.5Q410 425 353 425Q281 425 238.5 378Q196 331 194 243V0H108V557Z" glyph-name="hbar" horiz-adv-x="645" unicode="&#295;" /><glyph d="M0 0ZM143 823 73 754H-20V757L102 871H185L308 757V754H210ZM179 700V393Q206 450 256.5 474.5Q307 499 364 499Q456 499 500 450Q544 401 544 304V0H458V282Q458 360 426.5 393Q395 426 338 426Q266 426 223.5 378.5Q181 331 179 243V0H93V700Z" glyph-name="hcircumflex" horiz-adv-x="630" unicode="&#293;" /><glyph d="M507 685 387 574H317V578L394 691H507ZM350 685 258 574H188V578L250 691H350Z" glyph-name="hungarumlaut" horiz-adv-x="600" unicode="&#733;" /><glyph d="M383 291V219H49V291Z" glyph-name="hyphen" horiz-adv-x="431" unicode="-" /><glyph d="M383 385V313H49V385Z" glyph-name="hyphen.cap" horiz-adv-x="431" /><glyph d="M79 638Q79 666 94.5 680Q110 694 138 694Q166 694 181.5 680Q197 666 197 638Q197 610 181.5 595.5Q166 581 138 581Q110 581 94.5 595.5Q79 610 79 638ZM95 487H181V0H95Z" glyph-name="i" horiz-adv-x="276" unicode="i" /><glyph d="M95 0ZM285 685 171 574H98V578L174 691H285ZM95 487H181V0H95Z" glyph-name="iacute" horiz-adv-x="276" unicode="&#237;" /><glyph d="M0 0ZM95 487H181V0H95ZM214 691H280Q280 656 270 632Q260 608 242 594Q224 580 197.5 574Q171 568 138 568Q105 568 78.5 574Q52 580 33.5 594Q15 608 5 632Q-5 656 -5 691H61Q61 652 80 637.5Q99 623 137 623Q175 623 194.5 637.5Q214 652 214 691Z" glyph-name="ibreve" horiz-adv-x="276" unicode="&#301;" /><glyph d="M0 0ZM139 643 69 574H-24V577L98 691H181L304 577V574H206ZM95 487H181V0H95Z" glyph-name="icircumflex" horiz-adv-x="276" unicode="&#238;" /><glyph d="M0 0ZM164 637Q164 665 180 679Q196 693 224 693Q252 693 267.5 679Q283 665 283 637Q283 609 267.5 594.5Q252 580 224 580Q196 580 180 594.5Q164 609 164 637ZM-9 637Q-9 665 7 679Q23 693 51 693Q79 693 94.5 679Q110 665 110 637Q110 609 94.5 594.5Q79 580 51 580Q23 580 7 594.5Q-9 609 -9 637ZM95 487H181V0H95Z" glyph-name="idieresis" horiz-adv-x="276" unicode="&#239;" /><glyph d="M79 638Q79 666 94.5 680Q110 694 138 694Q166 694 181.5 680Q197 666 197 638Q197 610 181.5 595.5Q166 581 138 581Q110 581 94.5 595.5Q79 610 79 638ZM95 487H181V0H95Z" glyph-name="idotaccent" horiz-adv-x="276" /><glyph d="M0 0ZM95 487H181V0H95ZM109 574 -6 685V691H105L182 578V574Z" glyph-name="igrave" horiz-adv-x="276" unicode="&#236;" /><glyph d="M79 0ZM79 638Q79 666 94.5 680Q110 694 138 694Q166 694 181.5 680Q197 666 197 638Q197 610 181.5 595.5Q166 581 138 581Q110 581 94.5 595.5Q79 610 79 638ZM95 487H181V0H95ZM355 638Q355 666 370.5 680Q386 694 414 694Q442 694 457.5 680Q473 666 473 638Q473 610 457.5 595.5Q442 581 414 581Q386 581 370.5 595.5Q355 610 355 638ZM371 -33V487H457V-44Q457 -134 416.5 -175Q376 -216 304 -216Q284 -216 267 -213.5Q250 -211 227 -203L241 -131Q255 -136 267.5 -139Q280 -142 299 -142Q316 -142 329.5 -137Q343 -132 352 -119.5Q361 -107 366 -86Q371 -65 371 -33Z" glyph-name="ij" horiz-adv-x="551" unicode="&#307;" /><glyph d="M12 0ZM95 487H181V0H95ZM266 660V601H12V660Z" glyph-name="imacron" horiz-adv-x="276" unicode="&#299;" /><glyph d="M79 638Q79 666 94.5 680Q110 694 138 694Q166 694 181.5 680Q197 666 197 638Q197 610 181.5 595.5Q166 581 138 581Q110 581 94.5 595.5Q79 610 79 638ZM100 -212Q78 -212 57.5 -207Q37 -202 21 -190.5Q5 -179 -5 -159.5Q-15 -140 -15 -111Q-15 -83 -6 -59.5Q3 -36 18.5 -18.5Q34 -1 54 11.5Q74 24 95 30V487H181V0H146Q123 -2 105 -11.5Q87 -21 75 -35Q63 -49 56.5 -66.5Q50 -84 50 -101Q50 -129 65 -140Q80 -151 108 -151Q143 -151 173 -133L187 -189Q149 -212 100 -212Z" glyph-name="iogonek" horiz-adv-x="276" unicode="&#303;" /><glyph d="M0 0ZM95 487H181V0H95ZM229 684H294Q296 655 288.5 635.5Q281 616 268 604.5Q255 593 238.5 588Q222 583 206 583Q185 583 167 589.5Q149 596 133 603.5Q117 611 102.5 617.5Q88 624 75 624Q57 624 51.5 612.5Q46 601 46 587H-20Q-22 616 -14.5 635.5Q-7 655 5.5 666.5Q18 678 34 683Q50 688 67 688Q89 688 107.5 681.5Q126 675 142 667.5Q158 660 172 653.5Q186 647 200 647Q218 647 223.5 658Q229 669 229 684Z" glyph-name="itilde" horiz-adv-x="276" unicode="&#297;" /><glyph d="M79 638Q79 666 94.5 680Q110 694 138 694Q166 694 181.5 680Q197 666 197 638Q197 610 181.5 595.5Q166 581 138 581Q110 581 94.5 595.5Q79 610 79 638ZM95 -33V487H181V-44Q181 -134 140.5 -175Q100 -216 28 -216Q8 -216 -9 -213.5Q-26 -211 -49 -203L-35 -131Q-21 -136 -8.5 -139Q4 -142 23 -142Q40 -142 53.5 -137Q67 -132 76 -119.5Q85 -107 90 -86Q95 -65 95 -33Z" glyph-name="j" horiz-adv-x="276" unicode="j" /><glyph d="M0 0ZM95 -33V487H181V-44Q181 -134 140.5 -175Q100 -216 28 -216Q8 -216 -9 -213.5Q-26 -211 -49 -203L-35 -131Q-21 -136 -8.5 -139Q4 -142 23 -142Q40 -142 53.5 -137Q67 -132 76 -119.5Q85 -107 90 -86Q95 -65 95 -33ZM138 643 68 574H-25V577L97 691H180L303 577V574H205Z" glyph-name="jcircumflex" horiz-adv-x="276" unicode="&#309;" /><glyph d="M93 0V700H179V225L411 487H515L314 269L517 0H415L259 211L179 126V0Z" glyph-name="k" horiz-adv-x="524" unicode="k" /><glyph d="M94 0V700H180V0ZM415 -1 193 237V240L410 487H508L289 245L518 0Z" glyph-name="k.alt" horiz-adv-x="532" /><glyph d="M93 0ZM244 -292 227 -252Q256 -244 271.5 -222.5Q287 -201 290 -172H285Q226 -172 226 -117Q226 -91 241 -77.5Q256 -64 282 -64Q311 -64 327 -82.5Q343 -101 343 -145Q343 -196 319 -237Q295 -278 244 -292ZM93 0V700H179V225L411 487H515L314 269L517 0H415L259 211L179 126V0Z" glyph-name="kcommaaccent" horiz-adv-x="524" unicode="&#311;" /><glyph d="M94 0ZM246 -292 229 -252Q258 -244 273.5 -222.5Q289 -201 292 -172H287Q228 -172 228 -117Q228 -91 243 -77.5Q258 -64 284 -64Q313 -64 329 -82.5Q345 -101 345 -145Q345 -196 321 -237Q297 -278 246 -292ZM94 0V700H180V0ZM415 -1 193 237V240L410 487H508L289 245L518 0Z" glyph-name="kcommaaccent.alt" horiz-adv-x="532" /><glyph d="M93 0V487H179V226L411 487H515L314 269L517 0H415L260 211L179 126V0Z" glyph-name="kgreenlandic" horiz-adv-x="524" unicode="&#312;" /><glyph d="M196 0Q148 0 119 25Q90 50 90 110V700H176V115Q176 89 186.5 78.5Q197 68 223 68H268V0Z" glyph-name="l" horiz-adv-x="281" unicode="l" /><glyph d="M181 700V0H95V700Z" glyph-name="l.alt" horiz-adv-x="276" /><glyph d="M89 0ZM276 900 162 789H89V793L165 906H276ZM196 0Q148 0 119 25Q90 50 90 110V700H176V115Q176 89 186.5 78.5Q197 68 223 68H268V0Z" glyph-name="lacute" horiz-adv-x="281" unicode="&#314;" /><glyph d="M90 0ZM323 481H264L271 701H355ZM196 0Q148 0 119 25Q90 50 90 110V700H176V115Q176 89 186.5 78.5Q197 68 223 68H268V0Z" glyph-name="lcaron" horiz-adv-x="320" unicode="&#318;" /><glyph d="M90 0ZM196 0Q148 0 119 25Q90 50 90 110V700H176V115Q176 89 186.5 78.5Q197 68 223 68H268V0ZM135 -292 118 -252Q147 -244 162.5 -222.5Q178 -201 181 -172H176Q117 -172 117 -117Q117 -91 132 -77.5Q147 -64 173 -64Q202 -64 218 -82.5Q234 -101 234 -145Q234 -196 210 -237Q186 -278 135 -292Z" glyph-name="lcommaaccent" horiz-adv-x="281" unicode="&#316;" /><glyph d="M90 0ZM196 0Q148 0 119 25Q90 50 90 110V700H176V115Q176 89 186.5 78.5Q197 68 223 68H268V0ZM251 306Q251 334 267 348Q283 362 311 362Q339 362 354.5 348Q370 334 370 306Q370 278 354.5 263.5Q339 249 311 249Q283 249 267 263.5Q251 278 251 306Z" glyph-name="ldot" horiz-adv-x="359" unicode="&#320;" /><glyph d="M361 524 403 468 184 310 404 153 360 93 83 289V328Z" glyph-name="less" horiz-adv-x="490" unicode="&lt;" /><glyph d="M375 523 412 467 208 333 413 200 375 140 102 312V351ZM86 0V71H421V0Z" glyph-name="lessequal" horiz-adv-x="510" unicode="&#8804;" /><glyph d="M288 68V0H216Q168 0 139 25Q110 50 110 110V263L13 188V269L110 345V700H196V411L304 496V414L196 330V115Q196 89 206.5 78.5Q217 68 243 68Z" glyph-name="lslash" horiz-adv-x="306" unicode="&#322;" /><glyph d="M93 0V487H167L176 397Q203 453 249.5 476Q296 499 344 499Q410 499 446.5 465Q483 431 494 380Q519 444 570 471.5Q621 499 680 499Q764 499 803.5 450.5Q843 402 843 308V0H757V286Q757 362 730.5 393.5Q704 425 654 425Q590 425 551 381.5Q512 338 510 253V0H424V282Q424 360 396.5 392.5Q369 425 317 425Q255 425 218 381.5Q181 338 179 251V0Z" glyph-name="m" horiz-adv-x="929" unicode="m" /><glyph d="M431 660V601H177V660Z" glyph-name="macron" horiz-adv-x="600" unicode="&#175;" /><glyph d="M456 345V274H50V345Z" glyph-name="minus" horiz-adv-x="506" unicode="&#8722;" /><glyph d="M34 0ZM276 7V-46H34V7Z" glyph-name="minus.inf" horiz-adv-x="309" /><glyph d="M120 140 71 189 196 313 70 440 122 492 248 365 374 491 422 443 296 317 423 191 371 139 244 265Z" glyph-name="multiply" horiz-adv-x="493" unicode="&#215;" /><glyph d="M93 487H168L177 394Q205 451 254.5 475Q304 499 364 499Q456 499 500 450Q544 401 544 304V0H458V284Q458 361 427 393.5Q396 426 338 426Q266 426 223.5 378.5Q181 331 179 243V0H93Z" glyph-name="n" horiz-adv-x="630" unicode="n" /><glyph d="M93 0ZM478 685 364 574H291V578L367 691H478ZM93 487H168L177 394Q205 451 254.5 475Q304 499 364 499Q456 499 500 450Q544 401 544 304V0H458V284Q458 361 427 393.5Q396 426 338 426Q266 426 223.5 378.5Q181 331 179 243V0H93Z" glyph-name="nacute" horiz-adv-x="630" unicode="&#324;" /><glyph d="M93 0ZM332 624 403 691H496V689L373 574H290L168 689V691H264ZM93 487H168L177 394Q205 451 254.5 475Q304 499 364 499Q456 499 500 450Q544 401 544 304V0H458V284Q458 361 427 393.5Q396 426 338 426Q266 426 223.5 378.5Q181 331 179 243V0H93Z" glyph-name="ncaron" horiz-adv-x="630" unicode="&#328;" /><glyph d="M93 0ZM286 -292 269 -252Q298 -244 313.5 -222.5Q329 -201 332 -172H327Q268 -172 268 -117Q268 -91 283 -77.5Q298 -64 324 -64Q353 -64 369 -82.5Q385 -101 385 -145Q385 -196 361 -237Q337 -278 286 -292ZM93 487H168L177 394Q205 451 254.5 475Q304 499 364 499Q456 499 500 450Q544 401 544 304V0H458V284Q458 361 427 393.5Q396 426 338 426Q266 426 223.5 378.5Q181 331 179 243V0H93Z" glyph-name="ncommaaccent" horiz-adv-x="630" unicode="&#326;" /><glyph d="M464 491Q464 559 420.5 601Q377 643 299 643Q228 643 183 603.5Q138 564 138 482Q138 407 178 366.5Q218 326 301 326Q375 326 419.5 371.5Q464 417 464 491ZM291 -12Q209 -12 152.5 15.5Q96 43 65 102L130 149Q157 101 198 79.5Q239 58 295 58Q336 58 371.5 72Q407 86 433 120.5Q459 155 473.5 213.5Q488 272 488 360V386Q467 325 412 290.5Q357 256 286 256Q174 256 112.5 314Q51 372 51 479Q51 531 66.5 574Q82 617 112.5 647.5Q143 678 189 695Q235 712 295 712Q357 712 408.5 691.5Q460 671 496.5 627.5Q533 584 553.5 515.5Q574 447 574 352Q574 256 555 187Q536 118 499.5 74Q463 30 410.5 9Q358 -12 291 -12Z" glyph-name="nine" horiz-adv-x="625" unicode="9" /><glyph d="M483 491Q483 559 439.5 601Q396 643 318 643Q247 643 202 603.5Q157 564 157 482Q157 407 197 366.5Q237 326 320 326Q394 326 438.5 371.5Q483 417 483 491ZM310 -12Q228 -12 171.5 15.5Q115 43 84 102L149 149Q176 101 217 79.5Q258 58 314 58Q355 58 390.5 72Q426 86 452 120.5Q478 155 492.5 213.5Q507 272 507 360V386Q486 325 431 290.5Q376 256 305 256Q193 256 131.5 314Q70 372 70 479Q70 531 85.5 574Q101 617 131.5 647.5Q162 678 208 695Q254 712 314 712Q376 712 427.5 691.5Q479 671 515.5 627.5Q552 584 572.5 515.5Q593 447 593 352Q593 256 574 187Q555 118 518.5 74Q482 30 429.5 9Q377 -12 310 -12Z" glyph-name="nine.LP" horiz-adv-x="676" /><glyph d="M458 391Q458 459 417 501Q376 543 303 543Q237 543 194.5 504Q152 465 152 382Q152 307 189.5 266.5Q227 226 305 226Q339 226 367.5 238Q396 250 416 271.5Q436 293 447 323.5Q458 354 458 391ZM295 -112Q216 -112 162 -84.5Q108 -57 79 2L144 49Q170 1 208 -20.5Q246 -42 299 -42Q338 -42 371.5 -28Q405 -14 430 20.5Q455 55 469 113.5Q483 172 483 260V286Q463 225 410.5 190.5Q358 156 290 156Q183 156 124.5 214Q66 272 66 379Q66 431 80.5 474Q95 517 124.5 547.5Q154 578 197.5 595Q241 612 299 612Q359 612 408.5 591.5Q458 571 493.5 527.5Q529 484 548.5 415.5Q568 347 568 252Q568 156 549.5 87Q531 18 496 -26Q461 -70 410 -91Q359 -112 295 -112Z" glyph-name="nine.OP" horiz-adv-x="642" /><glyph d="M464 391Q464 459 420.5 501Q377 543 299 543Q228 543 183 503.5Q138 464 138 382Q138 307 178 266.5Q218 226 301 226Q375 226 419.5 271.5Q464 317 464 391ZM291 -112Q209 -112 152.5 -84.5Q96 -57 65 2L130 49Q157 1 198 -20.5Q239 -42 295 -42Q336 -42 371.5 -28Q407 -14 433 20.5Q459 55 473.5 113.5Q488 172 488 260V286Q467 225 412 190.5Q357 156 286 156Q174 156 112.5 214Q51 272 51 379Q51 431 66.5 474Q82 517 112.5 547.5Q143 578 189 595Q235 612 295 612Q357 612 408.5 591.5Q460 571 496.5 527.5Q533 484 553.5 415.5Q574 347 574 252Q574 156 555 87Q536 18 499.5 -26Q463 -70 410.5 -91Q358 -112 291 -112Z" glyph-name="nine.OT" horiz-adv-x="625" /><glyph d="M40 0ZM275 81Q275 117 252.5 137.5Q230 158 192 158Q156 158 133 138.5Q110 119 110 81Q110 45 130 24.5Q150 4 192 4Q231 4 253 25Q275 46 275 81ZM185 -210Q136 -210 100.5 -193.5Q65 -177 46 -144L94 -105Q122 -150 184 -150Q214 -150 234.5 -138.5Q255 -127 267 -106.5Q279 -86 284 -57.5Q289 -29 288 5V17Q276 -14 247 -33Q218 -52 176 -52Q112 -52 76 -18.5Q40 15 40 78Q40 141 77 179.5Q114 218 189 218Q268 218 314 167.5Q360 117 360 5Q360 -106 315 -158Q270 -210 185 -210Z" glyph-name="nine.inf" horiz-adv-x="408" /><glyph d="M50 346V417H293L355 502H431L369 417H456V346H318L265 273H456V202H213L154 119H77L137 202H50V273H188L242 346Z" glyph-name="notequal" horiz-adv-x="506" unicode="&#8800;" /><glyph d="M93 0ZM93 487H168L177 394Q205 451 254.5 475Q304 499 364 499Q456 499 500 450Q544 401 544 304V0H458V284Q458 361 427 393.5Q396 426 338 426Q266 426 223.5 378.5Q181 331 179 243V0H93ZM422 684H487Q489 655 481.5 635.5Q474 616 461 604.5Q448 593 431.5 588Q415 583 399 583Q378 583 360 589.5Q342 596 326 603.5Q310 611 295.5 617.5Q281 624 268 624Q250 624 244.5 612.5Q239 601 239 587H173Q171 616 178.5 635.5Q186 655 198.5 666.5Q211 678 227 683Q243 688 260 688Q282 688 300.5 681.5Q319 675 335 667.5Q351 660 365 653.5Q379 647 393 647Q411 647 416.5 658Q422 669 422 684Z" glyph-name="ntilde" horiz-adv-x="630" unicode="&#241;" /><glyph d="M298 441 246 278H436L487 441ZM98 441 118 507H230L291 700H379L318 507H508L570 700H658L596 507H705L686 441H575L524 278H643L623 212H502L436 0H348L414 212H225L159 0H70L137 212H36L56 278H158L209 441Z" glyph-name="numbersign" horiz-adv-x="724" unicode="#" /><glyph d="M57 245Q57 377 118.5 438Q180 499 293 499Q412 499 470.5 439Q529 379 529 245Q529 113 469 50.5Q409 -12 293 -12Q178 -12 117.5 49Q57 110 57 245ZM443 244Q443 296 434 331.5Q425 367 406.5 389Q388 411 359.5 420.5Q331 430 293 430Q254 430 225.5 420.5Q197 411 179 389Q161 367 152 331.5Q143 296 143 244Q143 141 179.5 99Q216 57 293 57Q370 57 406.5 99Q443 141 443 244Z" glyph-name="o" horiz-adv-x="586" unicode="o" /><glyph d="M57 0ZM440 685 326 574H253V578L329 691H440ZM57 245Q57 377 118.5 438Q180 499 293 499Q412 499 470.5 439Q529 379 529 245Q529 113 469 50.5Q409 -12 293 -12Q178 -12 117.5 49Q57 110 57 245ZM443 244Q443 296 434 331.5Q425 367 406.5 389Q388 411 359.5 420.5Q331 430 293 430Q254 430 225.5 420.5Q197 411 179 389Q161 367 152 331.5Q143 296 143 244Q143 141 179.5 99Q216 57 293 57Q370 57 406.5 99Q443 141 443 244Z" glyph-name="oacute" horiz-adv-x="586" unicode="&#243;" /><glyph d="M57 0ZM57 245Q57 377 118.5 438Q180 499 293 499Q412 499 470.5 439Q529 379 529 245Q529 113 469 50.5Q409 -12 293 -12Q178 -12 117.5 49Q57 110 57 245ZM443 244Q443 296 434 331.5Q425 367 406.5 389Q388 411 359.5 420.5Q331 430 293 430Q254 430 225.5 420.5Q197 411 179 389Q161 367 152 331.5Q143 296 143 244Q143 141 179.5 99Q216 57 293 57Q370 57 406.5 99Q443 141 443 244ZM368 691H434Q434 656 424 632Q414 608 396 594Q378 580 351.5 574Q325 568 292 568Q259 568 232.5 574Q206 580 187.5 594Q169 608 159 632Q149 656 149 691H215Q215 652 234 637.5Q253 623 291 623Q329 623 348.5 637.5Q368 652 368 691Z" glyph-name="obreve" horiz-adv-x="586" unicode="&#335;" /><glyph d="M57 0ZM293 643 223 574H130V577L252 691H335L458 577V574H360ZM57 245Q57 377 118.5 438Q180 499 293 499Q412 499 470.5 439Q529 379 529 245Q529 113 469 50.5Q409 -12 293 -12Q178 -12 117.5 49Q57 110 57 245ZM443 244Q443 296 434 331.5Q425 367 406.5 389Q388 411 359.5 420.5Q331 430 293 430Q254 430 225.5 420.5Q197 411 179 389Q161 367 152 331.5Q143 296 143 244Q143 141 179.5 99Q216 57 293 57Q370 57 406.5 99Q443 141 443 244Z" glyph-name="ocircumflex" horiz-adv-x="586" unicode="&#244;" /><glyph d="M57 0ZM319 637Q319 665 335 679Q351 693 379 693Q407 693 422.5 679Q438 665 438 637Q438 609 422.5 594.5Q407 580 379 580Q351 580 335 594.5Q319 609 319 637ZM146 637Q146 665 162 679Q178 693 206 693Q234 693 249.5 679Q265 665 265 637Q265 609 249.5 594.5Q234 580 206 580Q178 580 162 594.5Q146 609 146 637ZM57 245Q57 377 118.5 438Q180 499 293 499Q412 499 470.5 439Q529 379 529 245Q529 113 469 50.5Q409 -12 293 -12Q178 -12 117.5 49Q57 110 57 245ZM443 244Q443 296 434 331.5Q425 367 406.5 389Q388 411 359.5 420.5Q331 430 293 430Q254 430 225.5 420.5Q197 411 179 389Q161 367 152 331.5Q143 296 143 244Q143 141 179.5 99Q216 57 293 57Q370 57 406.5 99Q443 141 443 244Z" glyph-name="odieresis" horiz-adv-x="586" unicode="&#246;" /><glyph d="M57 245Q57 377 118.5 438Q180 499 293 499Q436 499 489 407Q545 499 678 499Q732 499 771 481.5Q810 464 835.5 432.5Q861 401 873.5 358Q886 315 886 264Q886 253 885.5 241.5Q885 230 884 218H530Q535 129 572 93Q609 57 678 57Q730 57 764 74.5Q798 92 821 142L885 109Q856 45 802 16.5Q748 -12 676 -12Q610 -12 562.5 10Q515 32 487 80Q431 -12 293 -12Q178 -12 117.5 49Q57 110 57 245ZM531 284H801Q798 363 765 397Q732 431 674 431Q611 431 574.5 397.5Q538 364 531 284ZM293 57Q370 57 406.5 99Q443 141 443 244Q443 296 434 331.5Q425 367 406.5 389Q388 411 359.5 420.5Q331 430 293 430Q254 430 225.5 420.5Q197 411 179 389Q161 367 152 331.5Q143 296 143 244Q143 141 179.5 99Q216 57 293 57Z" glyph-name="oe" horiz-adv-x="937" unicode="&#339;" /><glyph d="M308 -212Q286 -212 265 -207Q244 -202 228 -190.5Q212 -179 202 -159.5Q192 -140 192 -111Q192 -75 207 -47Q222 -19 245 -0.5Q268 18 295.5 27.5Q323 37 349 37L353 0Q330 -2 312 -11.5Q294 -21 282 -35Q270 -49 263.5 -66.5Q257 -84 257 -101Q257 -129 272 -140Q287 -151 315 -151Q351 -151 381 -133L394 -189Q356 -212 308 -212Z" glyph-name="ogonek" horiz-adv-x="600" unicode="&#731;" /><glyph d="M57 0ZM57 245Q57 377 118.5 438Q180 499 293 499Q412 499 470.5 439Q529 379 529 245Q529 113 469 50.5Q409 -12 293 -12Q178 -12 117.5 49Q57 110 57 245ZM443 244Q443 296 434 331.5Q425 367 406.5 389Q388 411 359.5 420.5Q331 430 293 430Q254 430 225.5 420.5Q197 411 179 389Q161 367 152 331.5Q143 296 143 244Q143 141 179.5 99Q216 57 293 57Q370 57 406.5 99Q443 141 443 244ZM264 574 149 685V691H260L337 578V574Z" glyph-name="ograve" horiz-adv-x="586" unicode="&#242;" /><glyph d="M57 0ZM501 685 381 574H311V578L388 691H501ZM344 685 252 574H182V578L244 691H344ZM57 245Q57 377 118.5 438Q180 499 293 499Q412 499 470.5 439Q529 379 529 245Q529 113 469 50.5Q409 -12 293 -12Q178 -12 117.5 49Q57 110 57 245ZM443 244Q443 296 434 331.5Q425 367 406.5 389Q388 411 359.5 420.5Q331 430 293 430Q254 430 225.5 420.5Q197 411 179 389Q161 367 152 331.5Q143 296 143 244Q143 141 179.5 99Q216 57 293 57Q370 57 406.5 99Q443 141 443 244Z" glyph-name="ohungarumlaut" horiz-adv-x="586" unicode="&#337;" /><glyph d="M57 0ZM420 660V601H166V660ZM57 245Q57 377 118.5 438Q180 499 293 499Q412 499 470.5 439Q529 379 529 245Q529 113 469 50.5Q409 -12 293 -12Q178 -12 117.5 49Q57 110 57 245ZM443 244Q443 296 434 331.5Q425 367 406.5 389Q388 411 359.5 420.5Q331 430 293 430Q254 430 225.5 420.5Q197 411 179 389Q161 367 152 331.5Q143 296 143 244Q143 141 179.5 99Q216 57 293 57Q370 57 406.5 99Q443 141 443 244Z" glyph-name="omacron" horiz-adv-x="586" unicode="&#333;" /><glyph d="M89 0V78H263V589L169 525L131 594L294 700H349V78H535V0Z" glyph-name="one" horiz-adv-x="625" unicode="1" /><glyph d="M230 0H143V589L48 525L10 594L173 700H230Z" glyph-name="one.LP" horiz-adv-x="337" /><glyph d="M218 0H134V489L46 425L9 494L164 600H218Z" glyph-name="one.OP" horiz-adv-x="306" /><glyph d="M102 0V78H265V489L178 425L141 494L296 600H351V78H523V0Z" glyph-name="one.OT" horiz-adv-x="625" /><glyph d="M11 0ZM162 -200H90V120L39 88L11 145L116 209H162Z" glyph-name="one.inf" horiz-adv-x="225" /><glyph d="M11 0ZM490 0V61L623 180Q665 218 684 243Q703 268 703 296Q703 328 684 342Q665 356 631 356Q593 356 571.5 341Q550 326 533 293L483 330Q507 378 544.5 398Q582 418 638 418Q701 418 738.5 389.5Q776 361 776 303Q776 283 770 264.5Q764 246 752 227Q740 208 720.5 187Q701 166 674 142L589 64L792 67V0ZM162 293H90V613L39 581L11 638L116 702H162ZM556 700 218 0H137L476 700Z" glyph-name="onehalf" horiz-adv-x="827" unicode="&#189;" /><glyph d="M11 0ZM162 293H90V613L39 581L11 638L116 702H162ZM556 700 218 0H137L476 700ZM482 97V148L612 408H684L558 161H708V328H775V161H832V97H775V0H708V97Z" glyph-name="onequarter" horiz-adv-x="852" unicode="&#188;" /><glyph d="M11 294ZM162 294H90V614L39 582L11 639L116 703H162Z" glyph-name="onesuperior" horiz-adv-x="225" unicode="&#185;" /><glyph d="M332 291V219H49V291Z" glyph-name="onethirdemdash" horiz-adv-x="380" /><glyph d="M181 403Q228 403 256.5 433.5Q285 464 285 517V519H200Q152 519 130.5 504Q109 489 109 457Q109 432 126.5 417.5Q144 403 181 403ZM288 417Q272 385 241 366.5Q210 348 163 348Q111 348 77.5 375.5Q44 403 44 456Q44 480 52.5 500Q61 520 79.5 535Q98 550 128 558.5Q158 567 201 567H285Q283 620 260.5 638.5Q238 657 194 657Q157 657 133 644Q109 631 94 611L58 653Q100 712 201 712Q235 712 262.5 704.5Q290 697 310 680.5Q330 664 341 636Q352 608 352 568V359H293Z" glyph-name="ordfeminine" horiz-adv-x="410" unicode="&#170;" /><glyph d="M305 531Q305 598 277 628Q249 658 207 658Q157 658 133 627Q109 596 109 530Q109 464 133.5 433.5Q158 403 206 403Q250 403 277.5 433Q305 463 305 531ZM311 359 307 416Q274 348 187 348Q117 348 79.5 394Q42 440 42 530Q42 621 81.5 666.5Q121 712 195 712Q234 712 263 695.5Q292 679 309 646L316 701H372V359Z" glyph-name="ordfeminine.school" horiz-adv-x="441" /><glyph d="M42 531Q42 625 86.5 668.5Q131 712 212 712Q297 712 339.5 669.5Q382 627 382 531Q382 437 338.5 392.5Q295 348 212 348Q130 348 86 391Q42 434 42 531ZM315 531Q315 600 289.5 629.5Q264 659 212 659Q159 659 134 629.5Q109 600 109 531Q109 460 134.5 431Q160 402 212 402Q264 402 289.5 431Q315 460 315 531Z" glyph-name="ordmasculine" horiz-adv-x="424" unicode="&#186;" /><glyph d="M580 487 499 404Q534 343 534 245Q534 113 474 50.5Q414 -12 298 -12Q199 -12 141 34L108 0H21L99 81Q62 140 62 245Q62 377 123.5 438Q185 499 298 499Q400 499 459 452L493 487ZM160 144 404 396Q386 414 359.5 422Q333 430 298 430Q259 430 230.5 420.5Q202 411 184 389Q166 367 157 331.5Q148 296 148 244Q148 183 160 144ZM448 244Q448 273 445 296Q442 319 437 339L194 89Q213 72 238.5 64.5Q264 57 298 57Q375 57 411.5 99Q448 141 448 244Z" glyph-name="oslash" horiz-adv-x="596" unicode="&#248;" /><glyph d="M57 0ZM57 245Q57 377 118.5 438Q180 499 293 499Q412 499 470.5 439Q529 379 529 245Q529 113 469 50.5Q409 -12 293 -12Q178 -12 117.5 49Q57 110 57 245ZM443 244Q443 296 434 331.5Q425 367 406.5 389Q388 411 359.5 420.5Q331 430 293 430Q254 430 225.5 420.5Q197 411 179 389Q161 367 152 331.5Q143 296 143 244Q143 141 179.5 99Q216 57 293 57Q370 57 406.5 99Q443 141 443 244ZM383 684H448Q450 655 442.5 635.5Q435 616 422 604.5Q409 593 392.5 588Q376 583 360 583Q339 583 321 589.5Q303 596 287 603.5Q271 611 256.5 617.5Q242 624 229 624Q211 624 205.5 612.5Q200 601 200 587H134Q132 616 139.5 635.5Q147 655 159.5 666.5Q172 678 188 683Q204 688 221 688Q243 688 261.5 681.5Q280 675 296 667.5Q312 660 326 653.5Q340 647 354 647Q372 647 377.5 658Q383 669 383 684Z" glyph-name="otilde" horiz-adv-x="586" unicode="&#245;" /><glyph d="M179 243Q179 145 220 101Q261 57 326 57Q399 57 435 102.5Q471 148 471 244Q471 341 435.5 385.5Q400 430 330 430Q297 430 269.5 419.5Q242 409 222 386Q202 363 190.5 327.5Q179 292 179 243ZM93 487H167L176 399Q200 449 245 474Q290 499 353 499Q453 499 505 434.5Q557 370 557 245Q557 120 501 54Q445 -12 339 -12Q285 -12 244.5 8Q204 28 179 69V-187H93Z" glyph-name="p" horiz-adv-x="614" unicode="p" /><glyph d="M174 477Q174 399 214 360.5Q254 322 325 322H349V625H324Q248 625 211 586.5Q174 548 174 477ZM509 625H436V322H509ZM595 700V0H509V245H436V0H349V245H344Q217 245 152.5 304.5Q88 364 88 480Q88 586 148.5 643Q209 700 334 700Z" glyph-name="paragraph" horiz-adv-x="660" unicode="&#182;" /><glyph d="M305 -17 299 -81Q168 -68 106.5 31Q45 130 45 322Q45 514 106.5 613Q168 712 299 725L305 661Q261 654 227 633Q193 612 170.5 572Q148 532 136.5 470.5Q125 409 125 322Q125 235 136.5 173.5Q148 112 170.5 72Q193 32 227 11Q261 -10 305 -17Z" glyph-name="parenleft" horiz-adv-x="344" unicode="(" /><glyph d="M28 0ZM193 -207 187 -265Q105 -257 66.5 -197Q28 -137 28 -20Q28 95 66.5 155.5Q105 216 187 223L193 165Q167 162 148 151Q129 140 116 118.5Q103 97 96.5 63Q90 29 90 -20Q90 -70 96.5 -104Q103 -138 116 -159.5Q129 -181 148 -192Q167 -203 193 -207Z" glyph-name="parenleft.inf" horiz-adv-x="216" /><glyph d="M39 -17Q83 -10 117 11Q151 32 173.5 72Q196 112 207.5 173.5Q219 235 219 322Q219 409 207.5 470.5Q196 532 173.5 572Q151 612 117 633Q83 654 39 661L45 725Q176 712 237.5 613Q299 514 299 322Q299 130 237.5 31Q176 -68 45 -81Z" glyph-name="parenright" horiz-adv-x="344" unicode=")" /><glyph d="M23 0ZM29 -265 23 -207Q48 -203 67.5 -192Q87 -181 100 -159.5Q113 -138 119.5 -104Q126 -70 126 -20Q126 29 119.5 63Q113 97 100 118.5Q87 140 67.5 151Q48 162 23 165L30 223Q111 216 150 155.5Q189 95 189 -20Q189 -137 150 -197Q111 -257 29 -265Z" glyph-name="parenright.inf" horiz-adv-x="216" /><glyph d="M43 0ZM655 204Q655 316 696 367Q737 418 827 418Q916 418 956.5 367Q997 316 997 204Q997 93 956 41.5Q915 -10 827 -10Q737 -10 696 41Q655 92 655 204ZM925 204Q925 291 899.5 324Q874 357 827 357Q803 357 784 349.5Q765 342 752.5 324Q740 306 733.5 276.5Q727 247 727 203Q727 116 752.5 83.5Q778 51 826 51Q850 51 868.5 58.5Q887 66 899.5 83.5Q912 101 918.5 130.5Q925 160 925 204ZM43 497Q43 609 84 660Q125 711 215 711Q304 711 344.5 660Q385 609 385 497Q385 386 344 334.5Q303 283 215 283Q125 283 84 334Q43 385 43 497ZM313 497Q313 584 287.5 617Q262 650 215 650Q191 650 172 642.5Q153 635 140.5 617Q128 599 121.5 569.5Q115 540 115 496Q115 409 140.5 376.5Q166 344 214 344Q238 344 256.5 351.5Q275 359 287.5 376.5Q300 394 306.5 423.5Q313 453 313 497ZM726 700 388 0H307L646 700Z" glyph-name="percent" horiz-adv-x="1044" unicode="%" /><glyph d="M56 52Q56 81 72 95Q88 109 116 109Q143 109 158.5 95Q174 81 174 52Q174 25 158.5 10Q143 -5 116 -5Q88 -5 72 10Q56 25 56 52Z" glyph-name="period" horiz-adv-x="230" unicode="." /><glyph d="M56 280ZM56 337Q56 366 72 380Q88 394 116 394Q143 394 158.5 380Q174 366 174 337Q174 310 158.5 295Q143 280 116 280Q88 280 72 295Q56 310 56 337Z" glyph-name="periodcentered" horiz-adv-x="230" unicode="&#183;" /><glyph d="M43 0ZM655 204Q655 316 696 367Q737 418 827 418Q916 418 956.5 367Q997 316 997 204Q997 93 956 41.5Q915 -10 827 -10Q737 -10 696 41Q655 92 655 204ZM925 204Q925 291 899.5 324Q874 357 827 357Q803 357 784 349.5Q765 342 752.5 324Q740 306 733.5 276.5Q727 247 727 203Q727 116 752.5 83.5Q778 51 826 51Q850 51 868.5 58.5Q887 66 899.5 83.5Q912 101 918.5 130.5Q925 160 925 204ZM43 497Q43 609 84 660Q125 711 215 711Q304 711 344.5 660Q385 609 385 497Q385 386 344 334.5Q303 283 215 283Q125 283 84 334Q43 385 43 497ZM313 497Q313 584 287.5 617Q262 650 215 650Q191 650 172 642.5Q153 635 140.5 617Q128 599 121.5 569.5Q115 540 115 496Q115 409 140.5 376.5Q166 344 214 344Q238 344 256.5 351.5Q275 359 287.5 376.5Q300 394 306.5 423.5Q313 453 313 497ZM1080 204Q1080 316 1121 367Q1162 418 1252 418Q1341 418 1381.5 367Q1422 316 1422 204Q1422 93 1381 41.5Q1340 -10 1252 -10Q1162 -10 1121 41Q1080 92 1080 204ZM1350 204Q1350 291 1324.5 324Q1299 357 1252 357Q1228 357 1209 349.5Q1190 342 1177.5 324Q1165 306 1158.5 276.5Q1152 247 1152 203Q1152 116 1177.5 83.5Q1203 51 1251 51Q1275 51 1293.5 58.5Q1312 66 1324.5 83.5Q1337 101 1343.5 130.5Q1350 160 1350 204ZM726 700 388 0H307L646 700Z" glyph-name="perthousand" horiz-adv-x="1469" unicode="&#8240;" /><glyph d="M291 110H216V274H50V345H216V510H291V345H456V274H291Z" glyph-name="plus" horiz-adv-x="506" unicode="+" /><glyph d="M34 0ZM184 -138H126V-46H34V7H126V100H184V7H276V-46H184Z" glyph-name="plus.inf" horiz-adv-x="309" /><glyph d="M291 136H216V287H50V357H216V510H291V357H456V287H291ZM456 71V0H50V71Z" glyph-name="plusminus" horiz-adv-x="506" unicode="&#177;" /><glyph glyph-name="punctuationspace" horiz-adv-x="230" unicode="&#8200;" /><glyph d="M521 -186H435V81Q383 -12 261 -12Q162 -12 109.5 51.5Q57 115 57 243Q57 368 112.5 433.5Q168 499 273 499Q329 499 370.5 476.5Q412 454 437 407L446 487H521ZM435 245Q435 294 424 329Q413 364 393 386.5Q373 409 345.5 419.5Q318 430 286 430Q214 430 178.5 385.5Q143 341 143 244Q143 147 179 102Q215 57 285 57Q318 57 345.5 67.5Q373 78 393 101Q413 124 424 159.5Q435 195 435 245Z" glyph-name="q" horiz-adv-x="614" unicode="q" /><glyph d="M196 194V349H240Q401 349 401 499Q401 568 359.5 603Q318 638 241 638Q182 638 140.5 613Q99 588 67 524L5 569Q41 645 101 678.5Q161 712 251 712Q305 712 349 697.5Q393 683 423.5 656.5Q454 630 471 591.5Q488 553 488 505Q488 410 435.5 356.5Q383 303 282 295V194ZM179 52Q179 81 195 95Q211 109 239 109Q266 109 281.5 95Q297 81 297 52Q297 25 281.5 10Q266 -5 239 -5Q211 -5 195 10Q179 25 179 52Z" glyph-name="question" horiz-adv-x="507" unicode="?" /><glyph d="M303 304V149H259Q98 149 98 -1Q98 -70 139.5 -105Q181 -140 258 -140Q317 -140 358.5 -115.5Q400 -91 432 -26L494 -71Q458 -147 398 -180.5Q338 -214 248 -214Q194 -214 150 -199.5Q106 -185 75.5 -158.5Q45 -132 28 -93.5Q11 -55 11 -7Q11 88 63.5 141.5Q116 195 217 203V304ZM320 446Q320 417 304 403Q288 389 260 389Q233 389 217.5 403Q202 417 202 446Q202 473 217.5 488Q233 503 260 503Q288 503 304 488Q320 473 320 446Z" glyph-name="questiondown" horiz-adv-x="507" unicode="&#191;" /><glyph d="M294 510V355H250Q89 355 89 205Q89 136 130.5 101Q172 66 249 66Q308 66 349.5 90.5Q391 115 423 180L485 135Q449 59 389 25.5Q329 -8 239 -8Q185 -8 141 6.5Q97 21 66.5 47.5Q36 74 19 112.5Q2 151 2 199Q2 294 54.5 347.5Q107 401 208 409V510ZM311 652Q311 623 295 609Q279 595 251 595Q224 595 208.5 609Q193 623 193 652Q193 679 208.5 694Q224 709 251 709Q279 709 295 694Q311 679 311 652Z" glyph-name="questiondown.cap" horiz-adv-x="503" /><glyph d="M184 501 177 712H258L250 501ZM130 501H63L56 712H136Z" glyph-name="quotedbl" horiz-adv-x="309" unicode="&quot;" /><glyph d="M72 -127 55 -89Q84 -79 100.5 -56.5Q117 -34 120 -2Q96 -5 76 7.5Q56 20 56 52Q56 80 71 93.5Q86 107 112 107Q140 107 156 88.5Q172 70 172 25Q172 -28 147.5 -70.5Q123 -113 72 -127ZM228 -127 211 -89Q240 -79 256.5 -56.5Q273 -34 276 -2Q252 -5 232 7.5Q212 20 212 52Q212 80 227 93.5Q242 107 268 107Q296 107 312 88.5Q328 70 328 25Q328 -28 303.5 -70.5Q279 -113 228 -127Z" glyph-name="quotedblbase" horiz-adv-x="382" unicode="&#8222;" /><glyph d="M158 735 175 696Q146 686 129 662.5Q112 639 109 607Q133 610 153.5 597Q174 584 174 552Q174 523 158.5 509.5Q143 496 117 496Q88 496 72 515Q56 534 56 579Q56 606 62 631Q68 656 81 677Q94 698 113 713Q132 728 158 735ZM314 735 331 696Q302 686 285 662.5Q268 639 265 607Q289 610 309.5 597Q330 584 330 552Q330 523 314.5 509.5Q299 496 273 496Q244 496 228 515Q212 534 212 579Q212 606 218 631Q224 656 237 677Q250 698 269 713Q288 728 314 735Z" glyph-name="quotedblleft" horiz-adv-x="384" unicode="&#8220;" /><glyph d="M53 483ZM70 483 53 522Q82 532 99 555.5Q116 579 119 611Q95 608 74.5 621Q54 634 54 666Q54 695 69.5 708.5Q85 722 111 722Q140 722 156 703Q172 684 172 639Q172 612 166 587Q160 562 147 541Q134 520 115 505Q96 490 70 483ZM228 483 211 522Q240 532 257 555.5Q274 579 277 611Q253 608 232.5 621Q212 634 212 666Q212 695 227.5 708.5Q243 722 269 722Q298 722 314 703Q330 684 330 639Q330 612 324 587Q318 562 305 541Q292 520 273 505Q254 490 228 483Z" glyph-name="quotedblright" horiz-adv-x="384" unicode="&#8221;" /><glyph d="M158 735 175 696Q146 686 129 662.5Q112 639 109 607Q133 610 153.5 597Q174 584 174 552Q174 523 158.5 509.5Q143 496 117 496Q88 496 72 515Q56 534 56 579Q56 606 62 631Q68 656 81 677Q94 698 113 713Q132 728 158 735Z" glyph-name="quoteleft" horiz-adv-x="228" unicode="&#8216;" /><glyph d="M56 484ZM73 484 56 523Q85 533 102 556.5Q119 580 122 612Q98 609 77.5 622Q57 635 57 667Q57 696 72.5 709.5Q88 723 114 723Q143 723 159 704Q175 685 175 640Q175 613 169 588Q163 563 150 542Q137 521 118 506Q99 491 73 484Z" glyph-name="quoteright" horiz-adv-x="228" unicode="&#8217;" /><glyph d="M72 -126 55 -88Q84 -78 100.5 -55.5Q117 -33 120 -1Q96 -4 76 8.5Q56 21 56 53Q56 81 71 94.5Q86 108 112 108Q140 108 156 89.5Q172 71 172 26Q172 -27 147.5 -69.5Q123 -112 72 -126Z" glyph-name="quotesinglbase" horiz-adv-x="226" unicode="&#8218;" /><glyph d="M63 501 56 712H136L130 501Z" glyph-name="quotesingle" horiz-adv-x="187" unicode="'" /><glyph d="M93 0V487H167L176 384Q202 444 250.5 472Q299 500 362 495V413Q271 422 226 375Q181 328 179 234V0Z" glyph-name="r" horiz-adv-x="381" unicode="r" /><glyph d="M93 0ZM362 685 248 574H175V578L251 691H362ZM93 0V487H167L176 384Q202 444 250.5 472Q299 500 362 495V413Q271 422 226 375Q181 328 179 234V0Z" glyph-name="racute" horiz-adv-x="381" unicode="&#341;" /><glyph d="M62 0ZM226 624 297 691H390V689L267 574H184L62 689V691H158ZM93 0V487H167L176 384Q202 444 250.5 472Q299 500 362 495V413Q271 422 226 375Q181 328 179 234V0Z" glyph-name="rcaron" horiz-adv-x="381" unicode="&#345;" /><glyph d="M78 0ZM96 -292 79 -252Q108 -244 123.5 -222.5Q139 -201 142 -172H137Q78 -172 78 -117Q78 -91 93 -77.5Q108 -64 134 -64Q163 -64 179 -82.5Q195 -101 195 -145Q195 -196 171 -237Q147 -278 96 -292ZM93 0V487H167L176 384Q202 444 250.5 472Q299 500 362 495V413Q271 422 226 375Q181 328 179 234V0Z" glyph-name="rcommaaccent" horiz-adv-x="381" unicode="&#343;" /><glyph d="M48 525Q48 609 97.5 660.5Q147 712 237 712Q282 712 317 698.5Q352 685 376 660.5Q400 636 413 601.5Q426 567 426 525Q426 483 413 448.5Q400 414 376 389.5Q352 365 317 351.5Q282 338 237 338Q147 338 97.5 389.5Q48 441 48 525ZM78 525Q78 445 122 404Q166 363 237 363Q307 363 351 404Q395 445 395 525Q395 604 351 645Q307 686 237 686Q166 686 122 645Q78 604 78 525ZM243 592H199V527H238Q257 527 267 534Q277 541 277 560Q277 592 243 592ZM165 437V621H243Q277 621 294.5 605Q312 589 312 562Q312 538 302 524Q292 510 275 503L311 437H273L240 498H199V437Z" glyph-name="registered" horiz-adv-x="473" unicode="&#174;" /><glyph d="M156 483Q130 490 111 505Q92 520 79 541Q66 562 60 587Q54 612 54 639Q54 684 70 703Q86 722 115 722Q141 722 156.5 708.5Q172 695 172 666Q172 634 151.5 621Q131 608 107 611Q110 579 127 555.5Q144 532 173 522ZM314 483Q288 490 269 505Q250 520 237 541Q224 562 218 587Q212 612 212 639Q212 684 228 703Q244 722 273 722Q299 722 314.5 708.5Q330 695 330 666Q330 634 309.5 621Q289 608 265 611Q268 579 285 555.5Q302 532 331 522Z" glyph-name="reversequotedblleft" horiz-adv-x="384" /><glyph d="M158 484Q132 491 113 506Q94 521 81 542Q68 563 62 588Q56 613 56 640Q56 685 72 704Q88 723 117 723Q143 723 158.5 709.5Q174 696 174 667Q174 635 153.5 622Q133 609 109 612Q112 580 129 556.5Q146 533 175 523Z" glyph-name="reversequoteleft" horiz-adv-x="228" /><glyph d="M206 641Q206 685 233.5 710Q261 735 303 735Q345 735 372 710Q399 685 399 641Q399 597 371.5 572Q344 547 302 547Q260 547 233 572Q206 597 206 641ZM254 641Q254 618 267.5 603Q281 588 302 588Q323 588 337 603Q351 618 351 641Q351 664 337 678.5Q323 693 303 693Q281 693 267.5 678.5Q254 664 254 641Z" glyph-name="ring" horiz-adv-x="600" unicode="&#730;" /><glyph d="M249 53Q310 53 336.5 73Q363 93 363 125Q363 160 341 176Q319 192 269 202L216 213Q132 230 97.5 267.5Q63 305 63 355Q63 386 74 412Q85 438 108 457.5Q131 477 166 488Q201 499 249 499Q314 499 354.5 479Q395 459 426 421L371 368Q345 400 317.5 416Q290 432 243 432Q193 432 168 414.5Q143 397 143 366Q143 352 147 340.5Q151 329 161 319Q171 309 188.5 301Q206 293 232 287L287 275Q333 265 363 251Q393 237 411 219.5Q429 202 436.5 180Q444 158 444 131Q444 105 434 79Q424 53 401.5 33Q379 13 341 0.5Q303 -12 248 -12Q176 -12 124.5 10Q73 32 40 87L101 131Q127 87 162 70Q197 53 249 53Z" glyph-name="s" horiz-adv-x="511" unicode="s" /><glyph d="M40 0ZM389 685 275 574H202V578L278 691H389ZM249 53Q310 53 336.5 73Q363 93 363 125Q363 160 341 176Q319 192 269 202L216 213Q132 230 97.5 267.5Q63 305 63 355Q63 386 74 412Q85 438 108 457.5Q131 477 166 488Q201 499 249 499Q314 499 354.5 479Q395 459 426 421L371 368Q345 400 317.5 416Q290 432 243 432Q193 432 168 414.5Q143 397 143 366Q143 352 147 340.5Q151 329 161 319Q171 309 188.5 301Q206 293 232 287L287 275Q333 265 363 251Q393 237 411 219.5Q429 202 436.5 180Q444 158 444 131Q444 105 434 79Q424 53 401.5 33Q379 13 341 0.5Q303 -12 248 -12Q176 -12 124.5 10Q73 32 40 87L101 131Q127 87 162 70Q197 53 249 53Z" glyph-name="sacute" horiz-adv-x="511" unicode="&#347;" /><glyph d="M40 0ZM243 624 314 691H407V689L284 574H201L79 689V691H175ZM249 53Q310 53 336.5 73Q363 93 363 125Q363 160 341 176Q319 192 269 202L216 213Q132 230 97.5 267.5Q63 305 63 355Q63 386 74 412Q85 438 108 457.5Q131 477 166 488Q201 499 249 499Q314 499 354.5 479Q395 459 426 421L371 368Q345 400 317.5 416Q290 432 243 432Q193 432 168 414.5Q143 397 143 366Q143 352 147 340.5Q151 329 161 319Q171 309 188.5 301Q206 293 232 287L287 275Q333 265 363 251Q393 237 411 219.5Q429 202 436.5 180Q444 158 444 131Q444 105 434 79Q424 53 401.5 33Q379 13 341 0.5Q303 -12 248 -12Q176 -12 124.5 10Q73 32 40 87L101 131Q127 87 162 70Q197 53 249 53Z" glyph-name="scaron" horiz-adv-x="511" unicode="&#353;" /><glyph d="M238 -237Q200 -237 169.5 -223Q139 -209 120 -178L162 -138Q176 -161 192 -172.5Q208 -184 235 -184Q258 -184 273.5 -174.5Q289 -165 289 -145Q289 -125 274.5 -114Q260 -103 235 -103Q229 -103 223.5 -103.5Q218 -104 212 -105L196 -90L216 -11Q156 -6 112.5 16Q69 38 40 87L101 131Q127 87 162 70Q197 53 249 53Q310 53 336.5 73Q363 93 363 125Q363 160 341 176Q319 192 269 202L216 213Q132 230 97.5 267.5Q63 305 63 355Q63 386 74 412Q85 438 108 457.5Q131 477 166 488Q201 499 249 499Q314 499 354.5 479Q395 459 426 421L371 368Q345 400 317.5 416Q290 432 243 432Q193 432 168 414.5Q143 397 143 366Q143 352 147 340.5Q151 329 161 319Q171 309 188.5 301Q206 293 232 287L287 275Q333 265 363 251Q393 237 411 219.5Q429 202 436.5 180Q444 158 444 131Q444 107 435.5 83Q427 59 407.5 39Q388 19 356 5.5Q324 -8 277 -11L263 -61H266Q301 -61 327 -82Q353 -103 353 -145Q353 -168 343.5 -185.5Q334 -203 318.5 -214.5Q303 -226 282 -231.5Q261 -237 238 -237Z" glyph-name="scedilla" horiz-adv-x="511" unicode="&#351;" /><glyph d="M40 0ZM243 643 173 574H80V577L202 691H285L408 577V574H310ZM249 53Q310 53 336.5 73Q363 93 363 125Q363 160 341 176Q319 192 269 202L216 213Q132 230 97.5 267.5Q63 305 63 355Q63 386 74 412Q85 438 108 457.5Q131 477 166 488Q201 499 249 499Q314 499 354.5 479Q395 459 426 421L371 368Q345 400 317.5 416Q290 432 243 432Q193 432 168 414.5Q143 397 143 366Q143 352 147 340.5Q151 329 161 319Q171 309 188.5 301Q206 293 232 287L287 275Q333 265 363 251Q393 237 411 219.5Q429 202 436.5 180Q444 158 444 131Q444 105 434 79Q424 53 401.5 33Q379 13 341 0.5Q303 -12 248 -12Q176 -12 124.5 10Q73 32 40 87L101 131Q127 87 162 70Q197 53 249 53Z" glyph-name="scircumflex" horiz-adv-x="511" unicode="&#349;" /><glyph d="M40 0ZM209 -292 192 -252Q221 -244 236.5 -222.5Q252 -201 255 -172H250Q191 -172 191 -117Q191 -91 206 -77.5Q221 -64 247 -64Q276 -64 292 -82.5Q308 -101 308 -145Q308 -196 284 -237Q260 -278 209 -292ZM249 53Q310 53 336.5 73Q363 93 363 125Q363 160 341 176Q319 192 269 202L216 213Q132 230 97.5 267.5Q63 305 63 355Q63 386 74 412Q85 438 108 457.5Q131 477 166 488Q201 499 249 499Q314 499 354.5 479Q395 459 426 421L371 368Q345 400 317.5 416Q290 432 243 432Q193 432 168 414.5Q143 397 143 366Q143 352 147 340.5Q151 329 161 319Q171 309 188.5 301Q206 293 232 287L287 275Q333 265 363 251Q393 237 411 219.5Q429 202 436.5 180Q444 158 444 131Q444 105 434 79Q424 53 401.5 33Q379 13 341 0.5Q303 -12 248 -12Q176 -12 124.5 10Q73 32 40 87L101 131Q127 87 162 70Q197 53 249 53Z" glyph-name="scommaaccent" horiz-adv-x="511" unicode="&#537;" /><glyph d="M382 333Q383 362 362 384Q341 406 282 417L252 423Q226 427 207.5 422.5Q189 418 177 407.5Q165 397 159 383Q153 369 153 354Q152 330 170.5 306Q189 282 235 274L265 268Q318 258 349.5 275.5Q381 293 382 333ZM260 -23Q195 -23 146 -3.5Q97 16 65 70L126 111Q151 72 181.5 56.5Q212 41 260 41Q320 41 344 61Q368 81 368 115Q368 143 347 161.5Q326 180 270 193L226 203Q143 223 110 261Q77 299 77 349Q77 383 94.5 415Q112 447 160 461Q123 482 107.5 511Q92 540 92 574Q92 600 100 625Q108 650 127.5 669.5Q147 689 179.5 700.5Q212 712 261 712Q321 712 357.5 695Q394 678 424 643L370 593Q347 622 322.5 635.5Q298 649 258 649Q208 649 187.5 629.5Q167 610 167 577Q167 553 185.5 531Q204 509 252 497L305 484Q391 462 427 429Q463 396 463 340Q463 306 444.5 275Q426 244 377 229Q414 210 431 183Q448 156 448 117Q448 91 439.5 66.5Q431 42 409.5 22Q388 2 351.5 -10.5Q315 -23 260 -23Z" glyph-name="section" horiz-adv-x="519" unicode="&#167;" /><glyph d="M55 0ZM72 -130 55 -91Q84 -81 101 -57.5Q118 -34 121 -2Q97 -5 76.5 8Q56 21 56 53Q56 82 71.5 95.5Q87 109 113 109Q142 109 158 90Q174 71 174 26Q174 -1 168 -26Q162 -51 149 -72Q136 -93 117 -108Q98 -123 72 -130ZM57 429Q57 458 73 472Q89 486 117 486Q144 486 159.5 472Q175 458 175 429Q175 402 159.5 387Q144 372 117 372Q89 372 73 387Q57 402 57 429Z" glyph-name="semicolon" horiz-adv-x="230" unicode=";" /><glyph d="M206 0Q206 83 221.5 170Q237 257 266.5 339.5Q296 422 338.5 495Q381 568 436 624H78V700H547V623Q488 588 441 522.5Q394 457 361 373Q328 289 310.5 192.5Q293 96 293 0Z" glyph-name="seven" horiz-adv-x="625" unicode="7" /><glyph d="M163 0Q163 83 178.5 170Q194 257 223.5 339.5Q253 422 295.5 495Q338 568 393 624H35V700H504V623Q445 588 398 522.5Q351 457 318 373Q285 289 267.5 192.5Q250 96 250 0Z" glyph-name="seven.LP" horiz-adv-x="498" /><glyph d="M155 -100Q155 -17 169.5 70Q184 157 212 239.5Q240 322 281 395Q322 468 374 524H34V600H479V523Q423 488 378.5 422.5Q334 357 303 273Q272 189 255 92.5Q238 -4 238 -100Z" glyph-name="seven.OP" horiz-adv-x="474" /><glyph d="M206 -100Q206 -17 221.5 70Q237 157 266.5 239.5Q296 322 338.5 395Q381 468 436 524H78V600H547V523Q488 488 441 422.5Q394 357 361 273Q328 189 310.5 92.5Q293 -4 293 -100Z" glyph-name="seven.OT" horiz-adv-x="625" /><glyph d="M23 0ZM171 -200H96Q96 -151 105 -102.5Q114 -54 131 -9.5Q148 35 172.5 74Q197 113 227 143L23 142V207H309V148Q276 125 250.5 88.5Q225 52 207.5 6.5Q190 -39 180.5 -91.5Q171 -144 171 -200Z" glyph-name="seven.inf" horiz-adv-x="313" /><glyph d="M330 -12Q268 -12 216.5 8.5Q165 29 128 72.5Q91 116 71 184.5Q51 253 51 348Q51 444 70 513Q89 582 125.5 626Q162 670 214.5 691Q267 712 334 712Q416 712 472.5 684.5Q529 657 560 598L495 551Q468 599 427 620.5Q386 642 330 642Q289 642 253.5 628Q218 614 192 579.5Q166 545 151.5 486.5Q137 428 137 340V314Q158 373 213 406Q268 439 339 439Q451 439 512.5 382.5Q574 326 574 221Q574 169 558.5 126Q543 83 512.5 52.5Q482 22 436 5Q390 -12 330 -12ZM161 209Q161 141 204.5 99Q248 57 326 57Q361 57 390.5 66.5Q420 76 441.5 95Q463 114 475 143.5Q487 173 487 213Q487 288 447 328.5Q407 369 324 369Q287 369 257 357.5Q227 346 205.5 325Q184 304 172.5 274.5Q161 245 161 209Z" glyph-name="six" horiz-adv-x="625" unicode="6" /><glyph d="M365 -12Q303 -12 251.5 8.5Q200 29 163 72.5Q126 116 106 184.5Q86 253 86 348Q86 444 105 513Q124 582 160.5 626Q197 670 249.5 691Q302 712 369 712Q451 712 507.5 684.5Q564 657 595 598L530 551Q503 599 462 620.5Q421 642 365 642Q324 642 288.5 628Q253 614 227 579.5Q201 545 186.5 486.5Q172 428 172 340V314Q193 373 248 406Q303 439 374 439Q486 439 547.5 382.5Q609 326 609 221Q609 169 593.5 126Q578 83 547.5 52.5Q517 22 471 5Q425 -12 365 -12ZM196 209Q196 141 239.5 99Q283 57 361 57Q396 57 425.5 66.5Q455 76 476.5 95Q498 114 510 143.5Q522 173 522 213Q522 288 482 328.5Q442 369 359 369Q322 369 292 357.5Q262 346 240.5 325Q219 304 207.5 274.5Q196 245 196 209Z" glyph-name="six.LP" horiz-adv-x="677" /><glyph d="M350 -12Q290 -12 240.5 8.5Q191 29 155.5 72.5Q120 116 100.5 184.5Q81 253 81 348Q81 444 99.5 513Q118 582 153 626Q188 670 238.5 691Q289 712 354 712Q433 712 487 684.5Q541 657 570 598L505 551Q479 599 441 620.5Q403 642 350 642Q311 642 277.5 628Q244 614 219 579.5Q194 545 180 486.5Q166 428 166 340V314Q186 373 238.5 406Q291 439 359 439Q466 439 524.5 382.5Q583 326 583 221Q583 169 568.5 126Q554 83 524.5 52.5Q495 22 451.5 5Q408 -12 350 -12ZM191 209Q191 141 232 99Q273 57 346 57Q412 57 454.5 95Q497 133 497 213Q497 288 459.5 328.5Q422 369 344 369Q309 369 281 357.5Q253 346 233 325Q213 304 202 274.5Q191 245 191 209Z" glyph-name="six.OP" horiz-adv-x="643" /><glyph d="M330 -12Q268 -12 216.5 8.5Q165 29 128 72.5Q91 116 71 184.5Q51 253 51 348Q51 444 70 513Q89 582 125.5 626Q162 670 214.5 691Q267 712 334 712Q416 712 472.5 684.5Q529 657 560 598L495 551Q468 599 427 620.5Q386 642 330 642Q289 642 253.5 628Q218 614 192 579.5Q166 545 151.5 486.5Q137 428 137 340V314Q158 373 213 406Q268 439 339 439Q451 439 512.5 382.5Q574 326 574 221Q574 169 558.5 126Q543 83 512.5 52.5Q482 22 436 5Q390 -12 330 -12ZM161 209Q161 141 204.5 99Q248 57 326 57Q361 57 390.5 66.5Q420 76 441.5 95Q463 114 475 143.5Q487 173 487 213Q487 288 447 328.5Q407 369 324 369Q287 369 257 357.5Q227 346 205.5 325Q184 304 172.5 274.5Q161 245 161 209Z" glyph-name="six.OT" horiz-adv-x="625" /><glyph d="M43 0ZM216 -210Q136 -210 89.5 -160Q43 -110 43 3Q43 112 87.5 165Q132 218 218 218Q267 218 302.5 201Q338 184 357 149L308 110Q282 158 218 158Q195 158 175.5 150.5Q156 143 142.5 125Q129 107 121.5 76.5Q114 46 114 1V-12Q127 18 156 36.5Q185 55 227 55Q291 55 326.5 22Q362 -11 362 -72Q362 -133 326 -171.5Q290 -210 216 -210ZM128 -76Q128 -110 150 -130.5Q172 -151 210 -151Q246 -151 269.5 -132Q293 -113 293 -75Q293 -40 273 -20.5Q253 -1 211 -1Q171 -1 149.5 -21.5Q128 -42 128 -76Z" glyph-name="six.inf" horiz-adv-x="408" /><glyph glyph-name="sixperemspace" horiz-adv-x="167" unicode="&#8198;" /><glyph d="M501 700 97 0H5L408 700Z" glyph-name="slash" horiz-adv-x="506" unicode="/" /><glyph glyph-name="space" horiz-adv-x="235" unicode=" " /><glyph d="M34 0V69H72Q108 69 116.5 98.5Q125 128 123 182L119 302H34V370H117L114 487Q111 601 167 656.5Q223 712 328 712Q399 712 445.5 682Q492 652 521 595L455 552Q435 596 404 619.5Q373 643 326 643Q260 643 229 605Q198 567 200 486L204 370H392V302H207L210 178Q211 141 206 113Q201 85 187 69H364Q410 69 441 83Q472 97 498 130L546 82Q513 37 471 18.5Q429 0 366 0Z" glyph-name="sterling" horiz-adv-x="569" unicode="&#163;" /><glyph d="M17 487H103V630H187V487H328V420H187V165Q187 133 193 112.5Q199 92 210 81Q221 70 236 66Q251 62 269 62Q288 62 301 64.5Q314 67 328 72L342 2Q316 -7 298 -9.5Q280 -12 259 -12Q187 -12 145 29Q103 70 103 162V420H17Z" glyph-name="t" horiz-adv-x="360" unicode="t" /><glyph d="M328 487V420H187V328H328V270H187V165Q187 133 193 112.5Q199 92 210 81Q221 70 236 66Q251 62 269 62Q288 62 301 64.5Q314 67 328 72L342 2Q316 -7 298 -9.5Q280 -12 259 -12Q187 -12 145 29Q103 70 103 162V270H17V328H103V420H17V487H103V630H187V487Z" glyph-name="tbar" horiz-adv-x="352" unicode="&#359;" /><glyph d="M317 555H258L265 750H349ZM17 487H103V630H187V487H328V420H187V165Q187 133 193 112.5Q199 92 210 81Q221 70 236 66Q251 62 269 62Q288 62 301 64.5Q314 67 328 72L342 2Q316 -7 298 -9.5Q280 -12 259 -12Q187 -12 145 29Q103 70 103 162V420H17Z" glyph-name="tcaron" horiz-adv-x="360" unicode="&#357;" /><glyph d="M17 0ZM213 -292 196 -252Q225 -244 240.5 -222.5Q256 -201 259 -172H254Q195 -172 195 -117Q195 -91 210 -77.5Q225 -64 251 -64Q280 -64 296 -82.5Q312 -101 312 -145Q312 -196 288 -237Q264 -278 213 -292ZM17 487H103V630H187V487H328V420H187V165Q187 133 193 112.5Q199 92 210 81Q221 70 236 66Q251 62 269 62Q288 62 301 64.5Q314 67 328 72L342 2Q316 -7 298 -9.5Q280 -12 259 -12Q187 -12 145 29Q103 70 103 162V420H17Z" glyph-name="tcommaaccent" horiz-adv-x="352" unicode="&#355;" /><glyph glyph-name="thinspace" horiz-adv-x="200" unicode="&#8201;" /><glyph d="M179 243Q179 145 220 101Q261 57 326 57Q399 57 435 102.5Q471 148 471 244Q471 341 435.5 385.5Q400 430 330 430Q297 430 269.5 419.5Q242 409 222 386Q202 363 190.5 327.5Q179 292 179 243ZM179 700V405Q204 452 248.5 475.5Q293 499 353 499Q453 499 505 434.5Q557 370 557 245Q557 120 501 54Q445 -12 339 -12Q285 -12 244.5 8Q204 28 179 69V-187H93V700Z" glyph-name="thorn" horiz-adv-x="615" unicode="&#254;" /><glyph d="M308 -12Q218 -12 158 17Q98 46 62 107L124 156Q180 58 305 58Q387 58 431 93.5Q475 129 475 202Q475 262 441.5 295Q408 328 337 328H238V404H334Q389 404 422.5 435.5Q456 467 456 524Q456 586 417 614Q378 642 307 642Q247 642 207.5 618Q168 594 136 537L74 584Q111 650 168.5 681Q226 712 315 712Q367 712 409 701Q451 690 481 667Q511 644 527 609.5Q543 575 543 527Q543 478 519 436Q495 394 447 369Q504 352 533.5 310.5Q563 269 563 208Q563 161 548 120.5Q533 80 502 50.5Q471 21 422.5 4.5Q374 -12 308 -12Z" glyph-name="three" horiz-adv-x="625" unicode="3" /><glyph d="M289 -12Q199 -12 139 17Q79 46 43 107L105 156Q161 58 286 58Q368 58 412 93.5Q456 129 456 202Q456 262 422.5 295Q389 328 318 328H219V404H315Q370 404 403.5 435.5Q437 467 437 524Q437 586 398 614Q359 642 288 642Q228 642 188.5 618Q149 594 117 537L55 584Q92 650 149.5 681Q207 712 296 712Q348 712 390 701Q432 690 462 667Q492 644 508 609.5Q524 575 524 527Q524 478 500 436Q476 394 428 369Q485 352 514.5 310.5Q544 269 544 208Q544 161 529 120.5Q514 80 483 50.5Q452 21 403.5 4.5Q355 -12 289 -12Z" glyph-name="three.LP" horiz-adv-x="615" /><glyph d="M270 -113Q185 -113 129 -84Q73 -55 39 6L101 55Q127 4 167 -20Q207 -44 267 -44Q347 -44 390.5 -8Q434 28 434 101Q434 161 401 194Q368 227 299 227H205V303H296Q349 303 381 334.5Q413 366 413 423Q413 485 375.5 514Q338 543 269 543Q214 543 178 518.5Q142 494 113 437L51 484Q86 550 139 581Q192 612 277 612Q379 612 439 566.5Q499 521 499 426Q499 377 475.5 335Q452 293 404 268Q461 251 490.5 209.5Q520 168 520 107Q520 60 505.5 19.5Q491 -21 460.5 -50.5Q430 -80 382.5 -96.5Q335 -113 270 -113Z" glyph-name="three.OP" horiz-adv-x="584" /><glyph d="M308 -112Q218 -112 158 -83Q98 -54 62 7L124 56Q180 -42 305 -42Q387 -42 431 -6.5Q475 29 475 102Q475 162 441.5 195Q408 228 337 228H238V304H334Q389 304 422.5 335.5Q456 367 456 424Q456 486 417 514Q378 542 307 542Q247 542 207.5 518Q168 494 136 437L74 484Q111 550 168.5 581Q226 612 315 612Q367 612 409 601Q451 590 481 567Q511 544 527 509.5Q543 475 543 427Q543 378 519 336Q495 294 447 269Q504 252 533.5 210.5Q563 169 563 108Q563 61 548 20.5Q533 -20 502 -49.5Q471 -79 422.5 -95.5Q374 -112 308 -112Z" glyph-name="three.OT" horiz-adv-x="625" /><glyph d="M25 0ZM177 -210Q69 -210 25 -136L76 -97Q108 -150 172 -150Q214 -150 236.5 -133.5Q259 -117 259 -82Q259 -53 241 -36.5Q223 -20 185 -20H132V40H184Q214 40 230.5 55Q247 70 247 98Q247 157 173 157Q141 157 120 145Q99 133 82 102L33 137Q55 180 90.5 199Q126 218 180 218Q245 218 282.5 189.5Q320 161 320 104Q320 43 264 12Q295 1 312.5 -22Q330 -45 330 -81Q330 -138 292.5 -174Q255 -210 177 -210Z" glyph-name="three.inf" horiz-adv-x="372" /><glyph glyph-name="threeperemspace" horiz-adv-x="333" unicode="&#8196;" /><glyph d="M645 291V219H49V291Z" glyph-name="threequarteremdash" horiz-adv-x="693" /><glyph d="M25 0ZM177 283Q69 283 25 357L76 396Q108 343 172 343Q214 343 236.5 359.5Q259 376 259 411Q259 440 241 456.5Q223 473 185 473H132V533H184Q214 533 230.5 548Q247 563 247 591Q247 650 173 650Q141 650 120 638Q99 626 82 595L33 630Q55 673 90.5 692Q126 711 180 711Q245 711 282.5 682.5Q320 654 320 597Q320 536 264 505Q295 494 312.5 471Q330 448 330 412Q330 355 292.5 319Q255 283 177 283ZM681 700 343 0H262L601 700ZM582 97V148L712 408H784L658 161H808V328H875V161H932V97H875V0H808V97Z" glyph-name="threequarters" horiz-adv-x="952" unicode="&#190;" /><glyph d="M25 284ZM177 284Q69 284 25 358L76 397Q108 344 172 344Q214 344 236.5 360.5Q259 377 259 412Q259 441 241 457.5Q223 474 185 474H132V534H184Q214 534 230.5 549Q247 564 247 592Q247 651 173 651Q141 651 120 639Q99 627 82 596L33 631Q55 674 90.5 693Q126 712 180 712Q245 712 282.5 683.5Q320 655 320 598Q320 537 264 506Q295 495 312.5 472Q330 449 330 413Q330 356 292.5 320Q255 284 177 284Z" glyph-name="threesuperior" horiz-adv-x="372" unicode="&#179;" /><glyph d="M398 684H463Q465 655 457.5 635.5Q450 616 437 604.5Q424 593 407.5 588Q391 583 375 583Q354 583 336 589.5Q318 596 302 603.5Q286 611 271.5 617.5Q257 624 244 624Q226 624 220.5 612.5Q215 601 215 587H149Q147 616 154.5 635.5Q162 655 174.5 666.5Q187 678 203 683Q219 688 236 688Q258 688 276.5 681.5Q295 675 311 667.5Q327 660 341 653.5Q355 647 369 647Q387 647 392.5 658Q398 669 398 684Z" glyph-name="tilde" horiz-adv-x="600" unicode="&#732;" /><glyph d="M24 700H274V653H176V406H122V653H24ZM312 406V700H372L476 464L582 700H641V406H588V604L499 406H453L364 600L366 406Z" glyph-name="trademark" horiz-adv-x="686" unicode="&#8482;" /><glyph d="M63 0V83L295 297Q335 333 363.5 363Q392 393 410 419.5Q428 446 436.5 471Q445 496 445 523Q445 583 408.5 612.5Q372 642 305 642Q236 642 193.5 612.5Q151 583 122 520L58 566Q96 642 156.5 677Q217 712 312 712Q421 712 476.5 663.5Q532 615 532 527Q532 494 522.5 462.5Q513 431 491.5 397Q470 363 435.5 325Q401 287 352 240L175 73L566 74V0Z" glyph-name="two" horiz-adv-x="625" unicode="2" /><glyph d="M51 0V83L283 297Q323 333 351.5 363Q380 393 398 419.5Q416 446 424.5 471Q433 496 433 523Q433 583 396.5 612.5Q360 642 293 642Q224 642 181.5 612.5Q139 583 110 520L46 566Q84 642 144.5 677Q205 712 300 712Q409 712 464.5 663.5Q520 615 520 527Q520 494 510.5 462.5Q501 431 479 397Q457 363 422.5 325Q388 287 339 240L161 73L554 74V0Z" glyph-name="two.LP" horiz-adv-x="596" /><glyph d="M52 0V71L244 256Q278 289 302 315Q326 341 341 363.5Q356 386 363 406.5Q370 427 370 450Q370 499 340 521Q310 543 257 543Q206 543 170.5 516.5Q135 490 110 438L48 482Q79 547 130.5 579.5Q182 612 263 612Q357 612 406 571Q455 530 455 457Q455 428 446 400.5Q437 373 418 343.5Q399 314 369 280Q339 246 298 206L158 68L473 70V0Z" glyph-name="two.OP" horiz-adv-x="514" /><glyph d="M93 0V83L293 252Q332 285 360 310.5Q388 336 406 358Q424 380 432 401Q440 422 440 446Q440 496 407 518.5Q374 541 314 541Q255 541 217 515Q179 489 153 433L91 477Q126 545 180.5 578.5Q235 612 319 612Q424 613 475.5 570.5Q527 528 527 451Q527 421 518 393.5Q509 366 488.5 337.5Q468 309 434.5 275.5Q401 242 351 200L201 73L556 74V0Z" glyph-name="two.OT" horiz-adv-x="625" /><glyph d="M26 0ZM33 -200V-139L166 -20Q208 18 227 43Q246 68 246 96Q246 128 227 142Q208 156 174 156Q136 156 114.5 141Q93 126 76 93L26 130Q50 178 87.5 198Q125 218 181 218Q244 218 281.5 189.5Q319 161 319 103Q319 83 313 64.5Q307 46 295 27Q283 8 263.5 -13Q244 -34 217 -58L132 -136L335 -133V-200Z" glyph-name="two.inf" horiz-adv-x="370" /><glyph d="M26 294ZM33 294V355L166 474Q208 512 227 537Q246 562 246 590Q246 622 227 636Q208 650 174 650Q136 650 114.5 635Q93 620 76 587L26 624Q50 672 87.5 692Q125 712 181 712Q244 712 281.5 683.5Q319 655 319 597Q319 577 313 558.5Q307 540 295 521Q283 502 263.5 481Q244 460 217 436L132 358L335 361V294Z" glyph-name="twosuperior" horiz-adv-x="370" unicode="&#178;" /><glyph d="M459 0 452 86Q423 33 375.5 10.5Q328 -12 274 -12Q177 -12 131.5 41Q86 94 86 191V487H172V203Q172 58 294 58Q365 58 405 104Q445 150 447 238V487H533V0Z" glyph-name="u" horiz-adv-x="626" unicode="u" /><glyph d="M86 0ZM456 685 342 574H269V578L345 691H456ZM459 0 452 86Q423 33 375.5 10.5Q328 -12 274 -12Q177 -12 131.5 41Q86 94 86 191V487H172V203Q172 58 294 58Q365 58 405 104Q445 150 447 238V487H533V0Z" glyph-name="uacute" horiz-adv-x="626" unicode="&#250;" /><glyph d="M86 0ZM459 0 452 86Q423 33 375.5 10.5Q328 -12 274 -12Q177 -12 131.5 41Q86 94 86 191V487H172V203Q172 58 294 58Q365 58 405 104Q445 150 447 238V487H533V0ZM385 691H451Q451 656 441 632Q431 608 413 594Q395 580 368.5 574Q342 568 309 568Q276 568 249.5 574Q223 580 204.5 594Q186 608 176 632Q166 656 166 691H232Q232 652 251 637.5Q270 623 308 623Q346 623 365.5 637.5Q385 652 385 691Z" glyph-name="ubreve" horiz-adv-x="626" unicode="&#365;" /><glyph d="M86 0ZM309 643 239 574H146V577L268 691H351L474 577V574H376ZM459 0 452 86Q423 33 375.5 10.5Q328 -12 274 -12Q177 -12 131.5 41Q86 94 86 191V487H172V203Q172 58 294 58Q365 58 405 104Q445 150 447 238V487H533V0Z" glyph-name="ucircumflex" horiz-adv-x="626" unicode="&#251;" /><glyph d="M86 0ZM335 637Q335 665 351 679Q367 693 395 693Q423 693 438.5 679Q454 665 454 637Q454 609 438.5 594.5Q423 580 395 580Q367 580 351 594.5Q335 609 335 637ZM162 637Q162 665 178 679Q194 693 222 693Q250 693 265.5 679Q281 665 281 637Q281 609 265.5 594.5Q250 580 222 580Q194 580 178 594.5Q162 609 162 637ZM459 0 452 86Q423 33 375.5 10.5Q328 -12 274 -12Q177 -12 131.5 41Q86 94 86 191V487H172V203Q172 58 294 58Q365 58 405 104Q445 150 447 238V487H533V0Z" glyph-name="udieresis" horiz-adv-x="626" unicode="&#252;" /><glyph d="M86 0ZM459 0 452 86Q423 33 375.5 10.5Q328 -12 274 -12Q177 -12 131.5 41Q86 94 86 191V487H172V203Q172 58 294 58Q365 58 405 104Q445 150 447 238V487H533V0ZM280 574 165 685V691H276L353 578V574Z" glyph-name="ugrave" horiz-adv-x="626" unicode="&#249;" /><glyph d="M86 0ZM459 0 452 86Q423 33 375.5 10.5Q328 -12 274 -12Q177 -12 131.5 41Q86 94 86 191V487H172V203Q172 58 294 58Q365 58 405 104Q445 150 447 238V487H533V0ZM510 685 390 574H320V578L397 691H510ZM353 685 261 574H191V578L253 691H353Z" glyph-name="uhungarumlaut" horiz-adv-x="626" unicode="&#369;" /><glyph d="M86 0ZM459 0 452 86Q423 33 375.5 10.5Q328 -12 274 -12Q177 -12 131.5 41Q86 94 86 191V487H172V203Q172 58 294 58Q365 58 405 104Q445 150 447 238V487H533V0ZM436 660V601H182V660Z" glyph-name="umacron" horiz-adv-x="626" unicode="&#363;" /><glyph d="M485 0V-66H-5V0Z" glyph-name="underscore" horiz-adv-x="480" unicode="_" /><glyph glyph-name="uni00A0" horiz-adv-x="176" unicode="&#160;" /><glyph d="M362 291V219H49V291Z" glyph-name="uni00AD" horiz-adv-x="410" unicode="&#173;" /><glyph d="M1037 291V219H49V291Z" glyph-name="uni2015" horiz-adv-x="1085" unicode="&#8213;" /><glyph d="M43 284ZM43 498Q43 610 84 661Q125 712 215 712Q304 712 344.5 661Q385 610 385 498Q385 387 344 335.5Q303 284 215 284Q125 284 84 335Q43 386 43 498ZM313 498Q313 585 287.5 618Q262 651 215 651Q191 651 172 643.5Q153 636 140.5 618Q128 600 121.5 570.5Q115 541 115 497Q115 410 140.5 377.5Q166 345 214 345Q238 345 256.5 352.5Q275 360 287.5 377.5Q300 395 306.5 424.5Q313 454 313 498Z" glyph-name="uni2070" horiz-adv-x="432" unicode="&#8304;" /><glyph d="M25 294ZM25 391V442L155 702H227L101 455H251V622H318V455H375V391H318V294H251V391Z" glyph-name="uni2074" horiz-adv-x="395" unicode="&#8308;" /><glyph d="M25 284ZM119 641 108 535Q145 553 193 553Q222 553 247.5 546Q273 539 292 523.5Q311 508 322 483.5Q333 459 333 425Q333 361 293 322.5Q253 284 175 284Q124 284 86 300.5Q48 317 25 354Q26 355 33.5 361.5Q41 368 50 374.5Q59 381 66 387Q73 393 75 394Q106 344 173 344Q213 344 237 365Q261 386 261 424Q261 462 238.5 480Q216 498 174 498Q148 498 125.5 490.5Q103 483 85 470L42 492L62 701H313V640Z" glyph-name="uni2075" horiz-adv-x="360" unicode="&#8309;" /><glyph d="M43 284ZM216 284Q136 284 89.5 334Q43 384 43 497Q43 606 87.5 659Q132 712 218 712Q267 712 302.5 695Q338 678 357 643L308 604Q282 652 218 652Q195 652 175.5 644.5Q156 637 142.5 619Q129 601 121.5 570.5Q114 540 114 495V482Q127 512 156 530.5Q185 549 227 549Q291 549 326.5 516Q362 483 362 422Q362 361 326 322.5Q290 284 216 284ZM128 418Q128 384 150 363.5Q172 343 210 343Q246 343 269.5 362Q293 381 293 419Q293 454 273 473.5Q253 493 211 493Q171 493 149.5 472.5Q128 452 128 418Z" glyph-name="uni2076" horiz-adv-x="408" unicode="&#8310;" /><glyph d="M23 294ZM171 294H96Q96 343 105 391.5Q114 440 131 484.5Q148 529 172.5 568Q197 607 227 637L23 636V701H309V642Q276 619 250.5 582.5Q225 546 207.5 500.5Q190 455 180.5 402.5Q171 350 171 294Z" glyph-name="uni2077" horiz-adv-x="313" unicode="&#8311;" /><glyph d="M42 284ZM197 284Q122 284 82 315.5Q42 347 42 405Q42 447 62 471Q82 495 115 506Q88 518 72.5 541Q57 564 57 597Q57 712 197 712Q266 712 302 683.5Q338 655 338 598Q338 564 322 541Q306 518 280 506Q312 495 332 470.5Q352 446 352 405Q352 347 312 315.5Q272 284 197 284ZM272 596Q272 625 252.5 639.5Q233 654 198 654Q122 654 122 596Q122 567 141 550.5Q160 534 197 534Q234 534 253 550.5Q272 567 272 596ZM280 407Q280 439 258 456.5Q236 474 198 474Q158 474 135.5 456.5Q113 439 113 407Q113 375 135 357.5Q157 340 197 340Q237 340 258.5 357.5Q280 375 280 407Z" glyph-name="uni2078" horiz-adv-x="397" unicode="&#8312;" /><glyph d="M40 284ZM275 575Q275 611 252.5 631.5Q230 652 192 652Q156 652 133 632.5Q110 613 110 575Q110 539 130 518.5Q150 498 192 498Q231 498 253 519Q275 540 275 575ZM185 284Q136 284 100.5 300.5Q65 317 46 350L94 389Q122 344 184 344Q214 344 234.5 355.5Q255 367 267 387.5Q279 408 284 436.5Q289 465 288 499V511Q276 480 247 461Q218 442 176 442Q112 442 76 475.5Q40 509 40 572Q40 635 77 673.5Q114 712 189 712Q268 712 314 661.5Q360 611 360 499Q360 388 315 336Q270 284 185 284Z" glyph-name="uni2079" horiz-adv-x="408" unicode="&#8313;" /><glyph d="M34 356ZM184 356H126V448H34V501H126V594H184V501H276V448H184Z" glyph-name="uni207A" horiz-adv-x="309" unicode="&#8314;" /><glyph d="M34 448ZM276 501V448H34V501Z" glyph-name="uni207B" horiz-adv-x="309" unicode="&#8315;" /><glyph d="M34 403ZM276 545V490H34V545ZM276 458V403H34V458Z" glyph-name="uni207C" horiz-adv-x="309" unicode="&#8316;" /><glyph d="M28 229ZM193 287 187 229Q105 237 66.5 297Q28 357 28 474Q28 589 66.5 649.5Q105 710 187 717L193 659Q167 656 148 645Q129 634 116 612.5Q103 591 96.5 557Q90 523 90 474Q90 424 96.5 390Q103 356 116 334.5Q129 313 148 302Q167 291 193 287Z" glyph-name="uni207D" horiz-adv-x="219" unicode="&#8317;" /><glyph d="M23 229ZM29 229 23 287Q48 291 67.5 302Q87 313 100 334.5Q113 356 119.5 390Q126 424 126 474Q126 523 119.5 557Q113 591 100 612.5Q87 634 67.5 645Q48 656 23 659L30 717Q111 710 150 649.5Q189 589 189 474Q189 357 150 297Q111 237 29 229Z" glyph-name="uni207E" horiz-adv-x="219" unicode="&#8318;" /><glyph d="M43 204Q43 316 84 367Q125 418 215 418Q304 418 344.5 367Q385 316 385 204Q385 93 344 41.5Q303 -10 215 -10Q125 -10 84 41Q43 92 43 204ZM313 204Q313 291 287.5 324Q262 357 215 357Q191 357 172 349.5Q153 342 140.5 324Q128 306 121.5 276.5Q115 247 115 203Q115 116 140.5 83.5Q166 51 214 51Q238 51 256.5 58.5Q275 66 287.5 83.5Q300 101 306.5 130.5Q313 160 313 204Z" glyph-name="uni2080" horiz-adv-x="432" unicode="&#8320;" /><glyph d="M162 0H90V320L39 288L11 345L116 409H162Z" glyph-name="uni2081" horiz-adv-x="225" unicode="&#8321;" /><glyph d="M33 0V61L166 180Q208 218 227 243Q246 268 246 296Q246 328 227 342Q208 356 174 356Q136 356 114.5 341Q93 326 76 293L26 330Q50 378 87.5 398Q125 418 181 418Q244 418 281.5 389.5Q319 361 319 303Q319 283 313 264.5Q307 246 295 227Q283 208 263.5 187Q244 166 217 142L132 64L335 67V0Z" glyph-name="uni2082" horiz-adv-x="370" unicode="&#8322;" /><glyph d="M177 -10Q69 -10 25 64L76 103Q108 50 172 50Q214 50 236.5 66.5Q259 83 259 118Q259 147 241 163.5Q223 180 185 180H132V240H184Q214 240 230.5 255Q247 270 247 298Q247 357 173 357Q141 357 120 345Q99 333 82 302L33 337Q55 380 90.5 399Q126 418 180 418Q245 418 282.5 389.5Q320 361 320 304Q320 243 264 212Q295 201 312.5 178Q330 155 330 119Q330 62 292.5 26Q255 -10 177 -10Z" glyph-name="uni2083" horiz-adv-x="372" unicode="&#8323;" /><glyph d="M25 97V148L155 408H227L101 161H251V328H318V161H375V97H318V0H251V97Z" glyph-name="uni2084" horiz-adv-x="395" unicode="&#8324;" /><glyph d="M119 347 108 241Q145 259 193 259Q222 259 247.5 252Q273 245 292 229.5Q311 214 322 189.5Q333 165 333 131Q333 67 293 28.5Q253 -10 175 -10Q124 -10 86 6.5Q48 23 25 60Q26 61 33.5 67.5Q41 74 50 80.5Q59 87 66 93Q73 99 75 100Q106 50 173 50Q213 50 237 71Q261 92 261 130Q261 168 238.5 186Q216 204 174 204Q148 204 125.5 196.5Q103 189 85 176L42 198L62 407H313V346Z" glyph-name="uni2085" horiz-adv-x="360" unicode="&#8325;" /><glyph d="M216 -10Q136 -10 89.5 40Q43 90 43 203Q43 312 87.5 365Q132 418 218 418Q267 418 302.5 401Q338 384 357 349L308 310Q282 358 218 358Q195 358 175.5 350.5Q156 343 142.5 325Q129 307 121.5 276.5Q114 246 114 201V188Q127 218 156 236.5Q185 255 227 255Q291 255 326.5 222Q362 189 362 128Q362 67 326 28.5Q290 -10 216 -10ZM128 124Q128 90 150 69.5Q172 49 210 49Q246 49 269.5 68Q293 87 293 125Q293 160 273 179.5Q253 199 211 199Q171 199 149.5 178.5Q128 158 128 124Z" glyph-name="uni2086" horiz-adv-x="408" unicode="&#8326;" /><glyph d="M171 0H96Q96 49 105 97.5Q114 146 131 190.5Q148 235 172.5 274Q197 313 227 343L23 342V407H309V348Q276 325 250.5 288.5Q225 252 207.5 206.5Q190 161 180.5 108.5Q171 56 171 0Z" glyph-name="uni2087" horiz-adv-x="313" unicode="&#8327;" /><glyph d="M197 -10Q122 -10 82 21.5Q42 53 42 111Q42 153 62 177Q82 201 115 212Q88 224 72.5 247Q57 270 57 303Q57 418 197 418Q266 418 302 389.5Q338 361 338 304Q338 270 322 247Q306 224 280 212Q312 201 332 176.5Q352 152 352 111Q352 53 312 21.5Q272 -10 197 -10ZM272 302Q272 331 252.5 345.5Q233 360 198 360Q122 360 122 302Q122 273 141 256.5Q160 240 197 240Q234 240 253 256.5Q272 273 272 302ZM280 113Q280 145 258 162.5Q236 180 198 180Q158 180 135.5 162.5Q113 145 113 113Q113 81 135 63.5Q157 46 197 46Q237 46 258.5 63.5Q280 81 280 113Z" glyph-name="uni2088" horiz-adv-x="397" unicode="&#8328;" /><glyph d="M275 281Q275 317 252.5 337.5Q230 358 192 358Q156 358 133 338.5Q110 319 110 281Q110 245 130 224.5Q150 204 192 204Q231 204 253 225Q275 246 275 281ZM185 -10Q136 -10 100.5 6.5Q65 23 46 56L94 95Q122 50 184 50Q214 50 234.5 61.5Q255 73 267 93.5Q279 114 284 142.5Q289 171 288 205V217Q276 186 247 167Q218 148 176 148Q112 148 76 181.5Q40 215 40 278Q40 341 77 379.5Q114 418 189 418Q268 418 314 367.5Q360 317 360 205Q360 94 315 42Q270 -10 185 -10Z" glyph-name="uni2089" horiz-adv-x="408" unicode="&#8329;" /><glyph d="M184 62H126V154H34V207H126V300H184V207H276V154H184Z" glyph-name="uni208A" horiz-adv-x="309" unicode="&#8330;" /><glyph d="M276 207V154H34V207Z" glyph-name="uni208B" horiz-adv-x="309" unicode="&#8331;" /><glyph d="M276 251V196H34V251ZM276 164V109H34V164Z" glyph-name="uni208C" horiz-adv-x="309" unicode="&#8332;" /><glyph d="M193 -7 187 -65Q105 -57 66.5 3Q28 63 28 180Q28 295 66.5 355.5Q105 416 187 423L193 365Q167 362 148 351Q129 340 116 318.5Q103 297 96.5 263Q90 229 90 180Q90 130 96.5 96Q103 62 116 40.5Q129 19 148 8Q167 -3 193 -7Z" glyph-name="uni208D" horiz-adv-x="216" unicode="&#8333;" /><glyph d="M29 -65 23 -7Q48 -3 67.5 8Q87 19 100 40.5Q113 62 119.5 96Q126 130 126 180Q126 229 119.5 263Q113 297 100 318.5Q87 340 67.5 351Q48 362 23 365L30 423Q111 416 150 355.5Q189 295 189 180Q189 63 150 3Q111 -57 29 -65Z" glyph-name="uni208E" horiz-adv-x="216" unicode="&#8334;" /><glyph d="M11 0ZM634 -10Q526 -10 482 64L533 103Q565 50 629 50Q671 50 693.5 66.5Q716 83 716 118Q716 147 698 163.5Q680 180 642 180H589V240H641Q671 240 687.5 255Q704 270 704 298Q704 357 630 357Q598 357 577 345Q556 333 539 302L490 337Q512 380 547.5 399Q583 418 637 418Q702 418 739.5 389.5Q777 361 777 304Q777 243 721 212Q752 201 769.5 178Q787 155 787 119Q787 62 749.5 26Q712 -10 634 -10ZM162 293H90V613L39 581L11 638L116 702H162ZM556 700 218 0H137L476 700Z" glyph-name="uni2153" horiz-adv-x="829" unicode="&#8531;" /><glyph d="M26 0ZM759 -10Q651 -10 607 64L658 103Q690 50 754 50Q796 50 818.5 66.5Q841 83 841 118Q841 147 823 163.5Q805 180 767 180H714V240H766Q796 240 812.5 255Q829 270 829 298Q829 357 755 357Q723 357 702 345Q681 333 664 302L615 337Q637 380 672.5 399Q708 418 762 418Q827 418 864.5 389.5Q902 361 902 304Q902 243 846 212Q877 201 894.5 178Q912 155 912 119Q912 62 874.5 26Q837 -10 759 -10ZM33 293V354L166 473Q208 511 227 536Q246 561 246 589Q246 621 227 635Q208 649 174 649Q136 649 114.5 634Q93 619 76 586L26 623Q50 671 87.5 691Q125 711 181 711Q244 711 281.5 682.5Q319 654 319 596Q319 576 313 557.5Q307 539 295 520Q283 501 263.5 480Q244 459 217 435L132 357L335 360V293ZM681 700 343 0H262L601 700Z" glyph-name="uni2154" horiz-adv-x="954" unicode="&#8532;" /><glyph d="M11 0ZM162 293H90V613L39 581L11 638L116 702H162ZM576 347 565 241Q602 259 650 259Q679 259 704.5 252Q730 245 749 229.5Q768 214 779 189.5Q790 165 790 131Q790 67 750 28.5Q710 -10 632 -10Q581 -10 543 6.5Q505 23 482 60Q483 61 490.5 67.5Q498 74 507 80.5Q516 87 523 93Q530 99 532 100Q563 50 630 50Q670 50 694 71Q718 92 718 130Q718 168 695.5 186Q673 204 631 204Q605 204 582.5 196.5Q560 189 542 176L499 198L519 407H770V346ZM556 700 218 0H137L476 700Z" glyph-name="uni2155" horiz-adv-x="817" unicode="&#8533;" /><glyph d="M26 0ZM33 293V354L166 473Q208 511 227 536Q246 561 246 589Q246 621 227 635Q208 649 174 649Q136 649 114.5 634Q93 619 76 586L26 623Q50 671 87.5 691Q125 711 181 711Q244 711 281.5 682.5Q319 654 319 596Q319 576 313 557.5Q307 539 295 520Q283 501 263.5 480Q244 459 217 435L132 357L335 360V293ZM701 347 690 241Q727 259 775 259Q804 259 829.5 252Q855 245 874 229.5Q893 214 904 189.5Q915 165 915 131Q915 67 875 28.5Q835 -10 757 -10Q706 -10 668 6.5Q630 23 607 60Q608 61 615.5 67.5Q623 74 632 80.5Q641 87 648 93Q655 99 657 100Q688 50 755 50Q795 50 819 71Q843 92 843 130Q843 168 820.5 186Q798 204 756 204Q730 204 707.5 196.5Q685 189 667 176L624 198L644 407H895V346ZM681 700 343 0H262L601 700Z" glyph-name="uni2156" horiz-adv-x="942" unicode="&#8534;" /><glyph d="M25 0ZM177 283Q69 283 25 357L76 396Q108 343 172 343Q214 343 236.5 359.5Q259 376 259 411Q259 440 241 456.5Q223 473 185 473H132V533H184Q214 533 230.5 548Q247 563 247 591Q247 650 173 650Q141 650 120 638Q99 626 82 595L33 630Q55 673 90.5 692Q126 711 180 711Q245 711 282.5 682.5Q320 654 320 597Q320 536 264 505Q295 494 312.5 471Q330 448 330 412Q330 355 292.5 319Q255 283 177 283ZM701 347 690 241Q727 259 775 259Q804 259 829.5 252Q855 245 874 229.5Q893 214 904 189.5Q915 165 915 131Q915 67 875 28.5Q835 -10 757 -10Q706 -10 668 6.5Q630 23 607 60Q608 61 615.5 67.5Q623 74 632 80.5Q641 87 648 93Q655 99 657 100Q688 50 755 50Q795 50 819 71Q843 92 843 130Q843 168 820.5 186Q798 204 756 204Q730 204 707.5 196.5Q685 189 667 176L624 198L644 407H895V346ZM681 700 343 0H262L601 700Z" glyph-name="uni2157" horiz-adv-x="942" unicode="&#8535;" /><glyph d="M25 0ZM726 347 715 241Q752 259 800 259Q829 259 854.5 252Q880 245 899 229.5Q918 214 929 189.5Q940 165 940 131Q940 67 900 28.5Q860 -10 782 -10Q731 -10 693 6.5Q655 23 632 60Q633 61 640.5 67.5Q648 74 657 80.5Q666 87 673 93Q680 99 682 100Q713 50 780 50Q820 50 844 71Q868 92 868 130Q868 168 845.5 186Q823 204 781 204Q755 204 732.5 196.5Q710 189 692 176L649 198L669 407H920V346ZM706 700 368 0H287L626 700ZM25 390V441L155 701H227L101 454H251V621H318V454H375V390H318V293H251V390Z" glyph-name="uni2158" horiz-adv-x="967" unicode="&#8536;" /><glyph d="M11 0ZM162 293H90V613L39 581L11 638L116 702H162ZM673 -10Q593 -10 546.5 40Q500 90 500 203Q500 312 544.5 365Q589 418 675 418Q724 418 759.5 401Q795 384 814 349L765 310Q739 358 675 358Q652 358 632.5 350.5Q613 343 599.5 325Q586 307 578.5 276.5Q571 246 571 201V188Q584 218 613 236.5Q642 255 684 255Q748 255 783.5 222Q819 189 819 128Q819 67 783 28.5Q747 -10 673 -10ZM585 124Q585 90 607 69.5Q629 49 667 49Q703 49 726.5 68Q750 87 750 125Q750 160 730 179.5Q710 199 668 199Q628 199 606.5 178.5Q585 158 585 124ZM556 700 218 0H137L476 700Z" glyph-name="uni2159" horiz-adv-x="865" unicode="&#8537;" /><glyph d="M25 0ZM119 640 108 534Q145 552 193 552Q222 552 247.5 545Q273 538 292 522.5Q311 507 322 482.5Q333 458 333 424Q333 360 293 321.5Q253 283 175 283Q124 283 86 299.5Q48 316 25 353Q26 354 33.5 360.5Q41 367 50 373.5Q59 380 66 386Q73 392 75 393Q106 343 173 343Q213 343 237 364Q261 385 261 423Q261 461 238.5 479Q216 497 174 497Q148 497 125.5 489.5Q103 482 85 469L42 491L62 700H313V639ZM798 -10Q718 -10 671.5 40Q625 90 625 203Q625 312 669.5 365Q714 418 800 418Q849 418 884.5 401Q920 384 939 349L890 310Q864 358 800 358Q777 358 757.5 350.5Q738 343 724.5 325Q711 307 703.5 276.5Q696 246 696 201V188Q709 218 738 236.5Q767 255 809 255Q873 255 908.5 222Q944 189 944 128Q944 67 908 28.5Q872 -10 798 -10ZM710 124Q710 90 732 69.5Q754 49 792 49Q828 49 851.5 68Q875 87 875 125Q875 160 855 179.5Q835 199 793 199Q753 199 731.5 178.5Q710 158 710 124ZM681 700 343 0H262L601 700Z" glyph-name="uni215A" horiz-adv-x="990" unicode="&#8538;" /><glyph d="M11 0ZM162 293H90V613L39 581L11 638L116 702H162ZM654 -10Q579 -10 539 21.5Q499 53 499 111Q499 153 519 177Q539 201 572 212Q545 224 529.5 247Q514 270 514 303Q514 418 654 418Q723 418 759 389.5Q795 361 795 304Q795 270 779 247Q763 224 737 212Q769 201 789 176.5Q809 152 809 111Q809 53 769 21.5Q729 -10 654 -10ZM729 302Q729 331 709.5 345.5Q690 360 655 360Q579 360 579 302Q579 273 598 256.5Q617 240 654 240Q691 240 710 256.5Q729 273 729 302ZM737 113Q737 145 715 162.5Q693 180 655 180Q615 180 592.5 162.5Q570 145 570 113Q570 81 592 63.5Q614 46 654 46Q694 46 715.5 63.5Q737 81 737 113ZM556 700 218 0H137L476 700Z" glyph-name="uni215B" horiz-adv-x="854" unicode="&#8539;" /><glyph d="M25 0ZM177 283Q69 283 25 357L76 396Q108 343 172 343Q214 343 236.5 359.5Q259 376 259 411Q259 440 241 456.5Q223 473 185 473H132V533H184Q214 533 230.5 548Q247 563 247 591Q247 650 173 650Q141 650 120 638Q99 626 82 595L33 630Q55 673 90.5 692Q126 711 180 711Q245 711 282.5 682.5Q320 654 320 597Q320 536 264 505Q295 494 312.5 471Q330 448 330 412Q330 355 292.5 319Q255 283 177 283ZM779 -10Q704 -10 664 21.5Q624 53 624 111Q624 153 644 177Q664 201 697 212Q670 224 654.5 247Q639 270 639 303Q639 418 779 418Q848 418 884 389.5Q920 361 920 304Q920 270 904 247Q888 224 862 212Q894 201 914 176.5Q934 152 934 111Q934 53 894 21.5Q854 -10 779 -10ZM854 302Q854 331 834.5 345.5Q815 360 780 360Q704 360 704 302Q704 273 723 256.5Q742 240 779 240Q816 240 835 256.5Q854 273 854 302ZM862 113Q862 145 840 162.5Q818 180 780 180Q740 180 717.5 162.5Q695 145 695 113Q695 81 717 63.5Q739 46 779 46Q819 46 840.5 63.5Q862 81 862 113ZM681 700 343 0H262L601 700Z" glyph-name="uni215C" horiz-adv-x="979" unicode="&#8540;" /><glyph d="M25 0ZM779 -10Q704 -10 664 21.5Q624 53 624 111Q624 153 644 177Q664 201 697 212Q670 224 654.5 247Q639 270 639 303Q639 418 779 418Q848 418 884 389.5Q920 361 920 304Q920 270 904 247Q888 224 862 212Q894 201 914 176.5Q934 152 934 111Q934 53 894 21.5Q854 -10 779 -10ZM854 302Q854 331 834.5 345.5Q815 360 780 360Q704 360 704 302Q704 273 723 256.5Q742 240 779 240Q816 240 835 256.5Q854 273 854 302ZM862 113Q862 145 840 162.5Q818 180 780 180Q740 180 717.5 162.5Q695 145 695 113Q695 81 717 63.5Q739 46 779 46Q819 46 840.5 63.5Q862 81 862 113ZM119 640 108 534Q145 552 193 552Q222 552 247.5 545Q273 538 292 522.5Q311 507 322 482.5Q333 458 333 424Q333 360 293 321.5Q253 283 175 283Q124 283 86 299.5Q48 316 25 353Q26 354 33.5 360.5Q41 367 50 373.5Q59 380 66 386Q73 392 75 393Q106 343 173 343Q213 343 237 364Q261 385 261 423Q261 461 238.5 479Q216 497 174 497Q148 497 125.5 489.5Q103 482 85 469L42 491L62 700H313V639ZM681 700 343 0H262L601 700Z" glyph-name="uni215D" horiz-adv-x="979" unicode="&#8541;" /><glyph d="M23 0ZM709 -10Q634 -10 594 21.5Q554 53 554 111Q554 153 574 177Q594 201 627 212Q600 224 584.5 247Q569 270 569 303Q569 418 709 418Q778 418 814 389.5Q850 361 850 304Q850 270 834 247Q818 224 792 212Q824 201 844 176.5Q864 152 864 111Q864 53 824 21.5Q784 -10 709 -10ZM784 302Q784 331 764.5 345.5Q745 360 710 360Q634 360 634 302Q634 273 653 256.5Q672 240 709 240Q746 240 765 256.5Q784 273 784 302ZM792 113Q792 145 770 162.5Q748 180 710 180Q670 180 647.5 162.5Q625 145 625 113Q625 81 647 63.5Q669 46 709 46Q749 46 770.5 63.5Q792 81 792 113ZM171 293H96Q96 342 105 390.5Q114 439 131 483.5Q148 528 172.5 567Q197 606 227 636L23 635V700H309V641Q276 618 250.5 581.5Q225 545 207.5 499.5Q190 454 180.5 401.5Q171 349 171 293ZM611 700 273 0H192L531 700Z" glyph-name="uni215E" horiz-adv-x="909" unicode="&#8542;" /><glyph d="M11 0ZM162 293H90V613L39 581L11 638L116 702H162ZM556 700 218 0H137L476 700Z" glyph-name="uni215F" horiz-adv-x="831" unicode="&#8543;" /><glyph d="M487 -212Q465 -212 444.5 -207Q424 -202 408 -190.5Q392 -179 382 -159.5Q372 -140 372 -111Q372 -62 397 -29.5Q422 3 457 20L451 86Q423 33 375 10.5Q327 -12 274 -12Q177 -12 131.5 41Q86 94 86 191V487H172V203Q172 58 294 58Q365 58 405 104Q445 150 447 238V487H533V0Q510 -2 492 -11.5Q474 -21 462 -35Q450 -49 443.5 -66.5Q437 -84 437 -101Q437 -129 452 -140Q467 -151 495 -151Q530 -151 560 -133L574 -189Q536 -212 487 -212Z" glyph-name="uogonek" horiz-adv-x="626" unicode="&#371;" /><glyph d="M86 0ZM213 641Q213 685 240.5 710Q268 735 310 735Q352 735 379 710Q406 685 406 641Q406 597 378.5 572Q351 547 309 547Q267 547 240 572Q213 597 213 641ZM261 641Q261 618 274.5 603Q288 588 309 588Q330 588 344 603Q358 618 358 641Q358 664 344 678.5Q330 693 310 693Q288 693 274.5 678.5Q261 664 261 641ZM459 0 452 86Q423 33 375.5 10.5Q328 -12 274 -12Q177 -12 131.5 41Q86 94 86 191V487H172V203Q172 58 294 58Q365 58 405 104Q445 150 447 238V487H533V0Z" glyph-name="uring" horiz-adv-x="626" unicode="&#367;" /><glyph d="M86 0ZM459 0 452 86Q423 33 375.5 10.5Q328 -12 274 -12Q177 -12 131.5 41Q86 94 86 191V487H172V203Q172 58 294 58Q365 58 405 104Q445 150 447 238V487H533V0ZM400 684H465Q467 655 459.5 635.5Q452 616 439 604.5Q426 593 409.5 588Q393 583 377 583Q356 583 338 589.5Q320 596 304 603.5Q288 611 273.5 617.5Q259 624 246 624Q228 624 222.5 612.5Q217 601 217 587H151Q149 616 156.5 635.5Q164 655 176.5 666.5Q189 678 205 683Q221 688 238 688Q260 688 278.5 681.5Q297 675 313 667.5Q329 660 343 653.5Q357 647 371 647Q389 647 394.5 658Q400 669 400 684Z" glyph-name="utilde" horiz-adv-x="626" unicode="&#361;" /><glyph d="M7 487H98L253 82L407 487H495L299 0H204Z" glyph-name="v" horiz-adv-x="502" unicode="v" /><glyph d="M324 484H413L528 97L643 487H725L570 0H479L366 387L255 0H164L7 487H93L210 98Z" glyph-name="w" horiz-adv-x="732" unicode="w" /><glyph d="M7 0ZM324 484H413L528 97L643 487H725L570 0H479L366 387L255 0H164L7 487H93L210 98ZM513 685 399 574H326V578L402 691H513Z" glyph-name="wacute" horiz-adv-x="732" unicode="&#7811;" /><glyph d="M7 0ZM368 643 298 574H205V577L327 691H410L533 577V574H435ZM324 484H413L528 97L643 487H725L570 0H479L366 387L255 0H164L7 487H93L210 98Z" glyph-name="wcircumflex" horiz-adv-x="732" unicode="&#373;" /><glyph d="M7 0ZM324 484H413L528 97L643 487H725L570 0H479L366 387L255 0H164L7 487H93L210 98ZM393 637Q393 665 409 679Q425 693 453 693Q481 693 496.5 679Q512 665 512 637Q512 609 496.5 594.5Q481 580 453 580Q425 580 409 594.5Q393 609 393 637ZM220 637Q220 665 236 679Q252 693 280 693Q308 693 323.5 679Q339 665 339 637Q339 609 323.5 594.5Q308 580 280 580Q252 580 236 594.5Q220 609 220 637Z" glyph-name="wdieresis" horiz-adv-x="732" unicode="&#7813;" /><glyph d="M7 0ZM324 484H413L528 97L643 487H725L570 0H479L366 387L255 0H164L7 487H93L210 98ZM337 576 222 687V693H333L410 580V576Z" glyph-name="wgrave" horiz-adv-x="732" unicode="&#7809;" /><glyph d="M19 487H121L255 307L387 487H486L302 249L497 0H395L250 190L106 0H7L203 250Z" glyph-name="x" horiz-adv-x="504" unicode="x" /><glyph d="M186 -65 206 -9 5 487H96L251 81L406 487H495L260 -93Q231 -164 186.5 -190Q142 -216 85 -216Q65 -216 47.5 -213.5Q30 -211 7 -203L21 -131Q38 -136 52 -139Q66 -142 86 -142Q98 -142 111 -140Q124 -138 137.5 -130Q151 -122 163.5 -106.5Q176 -91 186 -65Z" glyph-name="y" horiz-adv-x="502" unicode="y" /><glyph d="M275 -216Q203 -216 149.5 -191Q96 -166 65 -101L127 -57Q152 -107 188 -126.5Q224 -146 275 -146Q310 -146 339 -137.5Q368 -129 389 -111Q410 -93 422 -64.5Q434 -36 434 5V86Q408 39 364.5 19Q321 -1 273 -1Q177 -1 132 52Q87 105 87 202V487H173V214Q173 69 290 69Q356 69 393.5 115Q431 161 433 249V487H519V14Q519 -47 501 -90.5Q483 -134 450.5 -162Q418 -190 373.5 -203Q329 -216 275 -216Z" glyph-name="y.school" horiz-adv-x="613" /><glyph d="M5 0ZM186 -65 206 -9 5 487H96L251 81L406 487H495L260 -93Q231 -164 186.5 -190Q142 -216 85 -216Q65 -216 47.5 -213.5Q30 -211 7 -203L21 -131Q38 -136 52 -139Q66 -142 86 -142Q98 -142 111 -140Q124 -138 137.5 -130Q151 -122 163.5 -106.5Q176 -91 186 -65ZM397 685 283 574H210V578L286 691H397Z" glyph-name="yacute" horiz-adv-x="502" unicode="&#253;" /><glyph d="M65 0ZM275 -216Q203 -216 149.5 -191Q96 -166 65 -101L127 -57Q152 -107 188 -126.5Q224 -146 275 -146Q310 -146 339 -137.5Q368 -129 389 -111Q410 -93 422 -64.5Q434 -36 434 5V86Q408 39 364.5 19Q321 -1 273 -1Q177 -1 132 52Q87 105 87 202V487H173V214Q173 69 290 69Q356 69 393.5 115Q431 161 433 249V487H519V14Q519 -47 501 -90.5Q483 -134 450.5 -162Q418 -190 373.5 -203Q329 -216 275 -216ZM417 685 303 574H230V578L306 691H417Z" glyph-name="yacute.school" horiz-adv-x="613" /><glyph d="M5 0ZM186 -65 206 -9 5 487H96L251 81L406 487H495L260 -93Q231 -164 186.5 -190Q142 -216 85 -216Q65 -216 47.5 -213.5Q30 -211 7 -203L21 -131Q38 -136 52 -139Q66 -142 86 -142Q98 -142 111 -140Q124 -138 137.5 -130Q151 -122 163.5 -106.5Q176 -91 186 -65ZM251 643 181 574H88V577L210 691H293L416 577V574H318Z" glyph-name="ycircumflex" horiz-adv-x="502" unicode="&#375;" /><glyph d="M65 0ZM308 643 238 574H145V577L267 691H350L473 577V574H375ZM275 -216Q203 -216 149.5 -191Q96 -166 65 -101L127 -57Q152 -107 188 -126.5Q224 -146 275 -146Q310 -146 339 -137.5Q368 -129 389 -111Q410 -93 422 -64.5Q434 -36 434 5V86Q408 39 364.5 19Q321 -1 273 -1Q177 -1 132 52Q87 105 87 202V487H173V214Q173 69 290 69Q356 69 393.5 115Q431 161 433 249V487H519V14Q519 -47 501 -90.5Q483 -134 450.5 -162Q418 -190 373.5 -203Q329 -216 275 -216Z" glyph-name="ycircumflex.school" horiz-adv-x="613" /><glyph d="M5 0ZM186 -65 206 -9 5 487H96L251 81L406 487H495L260 -93Q231 -164 186.5 -190Q142 -216 85 -216Q65 -216 47.5 -213.5Q30 -211 7 -203L21 -131Q38 -136 52 -139Q66 -142 86 -142Q98 -142 111 -140Q124 -138 137.5 -130Q151 -122 163.5 -106.5Q176 -91 186 -65ZM276 637Q276 665 292 679Q308 693 336 693Q364 693 379.5 679Q395 665 395 637Q395 609 379.5 594.5Q364 580 336 580Q308 580 292 594.5Q276 609 276 637ZM103 637Q103 665 119 679Q135 693 163 693Q191 693 206.5 679Q222 665 222 637Q222 609 206.5 594.5Q191 580 163 580Q135 580 119 594.5Q103 609 103 637Z" glyph-name="ydieresis" horiz-adv-x="502" unicode="&#255;" /><glyph d="M65 0ZM335 637Q335 665 351 679Q367 693 395 693Q423 693 438.5 679Q454 665 454 637Q454 609 438.5 594.5Q423 580 395 580Q367 580 351 594.5Q335 609 335 637ZM162 637Q162 665 178 679Q194 693 222 693Q250 693 265.5 679Q281 665 281 637Q281 609 265.5 594.5Q250 580 222 580Q194 580 178 594.5Q162 609 162 637ZM275 -216Q203 -216 149.5 -191Q96 -166 65 -101L127 -57Q152 -107 188 -126.5Q224 -146 275 -146Q310 -146 339 -137.5Q368 -129 389 -111Q410 -93 422 -64.5Q434 -36 434 5V86Q408 39 364.5 19Q321 -1 273 -1Q177 -1 132 52Q87 105 87 202V487H173V214Q173 69 290 69Q356 69 393.5 115Q431 161 433 249V487H519V14Q519 -47 501 -90.5Q483 -134 450.5 -162Q418 -190 373.5 -203Q329 -216 275 -216Z" glyph-name="ydieresis.school" horiz-adv-x="613" /><glyph d="M547 287V219H350V0H261V219H64V287H257L223 343H64V411H183L10 700H106L307 354L507 700H600L428 411H547V343H387L354 287Z" glyph-name="yen" horiz-adv-x="610" unicode="&#165;" /><glyph d="M40 0V64L337 418H45V487H439V422L140 69H447V0Z" glyph-name="z" horiz-adv-x="489" unicode="z" /><glyph d="M40 0ZM390 685 276 574H203V578L279 691H390ZM40 0V64L337 418H45V487H439V422L140 69H447V0Z" glyph-name="zacute" horiz-adv-x="489" unicode="&#378;" /><glyph d="M40 0ZM244 624 315 691H408V689L285 574H202L80 689V691H176ZM40 0V64L337 418H45V487H439V422L140 69H447V0Z" glyph-name="zcaron" horiz-adv-x="489" unicode="&#382;" /><glyph d="M40 0ZM40 0V64L337 418H45V487H439V422L140 69H447V0ZM185 637Q185 665 201 679Q217 693 245 693Q273 693 288.5 679Q304 665 304 637Q304 609 288.5 594.5Q273 580 245 580Q217 580 201 594.5Q185 609 185 637Z" glyph-name="zdotaccent" horiz-adv-x="489" unicode="&#380;" /><glyph d="M34 350Q34 446 50.5 515Q67 584 101 627.5Q135 671 187 691.5Q239 712 311 712Q383 712 436 691.5Q489 671 523 627.5Q557 584 573.5 515Q590 446 590 350Q590 161 522.5 74.5Q455 -12 311 -12Q239 -12 187 8.5Q135 29 101 73Q67 117 50.5 185.5Q34 254 34 350ZM502 351Q502 432 489.5 487.5Q477 543 453 577Q429 611 393 626Q357 641 311 641Q265 641 230 626.5Q195 612 171 578.5Q147 545 134.5 489Q122 433 122 349Q122 265 134.5 209Q147 153 171 119.5Q195 86 230 72Q265 58 311 58Q357 58 393 72Q429 86 453 119.5Q477 153 489.5 209.5Q502 266 502 351Z" glyph-name="zero" horiz-adv-x="625" unicode="0" /><glyph d="M85 350Q85 446 101.5 515Q118 584 152 627.5Q186 671 238 691.5Q290 712 362 712Q434 712 487 691.5Q540 671 574 627.5Q608 584 624.5 515Q641 446 641 350Q641 161 573.5 74.5Q506 -12 362 -12Q290 -12 238 8.5Q186 29 152 73Q118 117 101.5 185.5Q85 254 85 350ZM553 351Q553 432 540.5 487.5Q528 543 504 577Q480 611 444 626Q408 641 362 641Q316 641 281 626.5Q246 612 222 578.5Q198 545 185.5 489Q173 433 173 349Q173 265 185.5 209Q198 153 222 119.5Q246 86 281 72Q316 58 362 58Q408 58 444 72Q480 86 504 119.5Q528 153 540.5 209.5Q553 266 553 351Z" glyph-name="zero.LP" horiz-adv-x="727" /><glyph d="M61 300Q61 383 77 442.5Q93 502 124.5 539.5Q156 577 202.5 594.5Q249 612 310 612Q433 612 496.5 538.5Q560 465 560 299Q560 136 496.5 62Q433 -12 310 -12Q188 -12 124.5 61.5Q61 135 61 300ZM474 300Q474 369 463.5 415.5Q453 462 432 490Q411 518 380.5 530Q350 542 310 542Q271 542 240.5 530.5Q210 519 189 491.5Q168 464 157.5 417Q147 370 147 300Q147 230 157.5 183.5Q168 137 189 109Q210 81 240.5 69.5Q271 58 310 58Q350 58 380.5 69.5Q411 81 432 109Q453 137 463.5 183.5Q474 230 474 300Z" glyph-name="zero.OP" horiz-adv-x="621" /><glyph d="M43 300Q43 383 60.5 442.5Q78 502 112 539.5Q146 577 196 594.5Q246 612 312 612Q378 612 428.5 594.5Q479 577 513 539Q547 501 564.5 441.5Q582 382 582 299Q582 136 513 62Q444 -12 312 -12Q181 -12 112 61.5Q43 135 43 300ZM496 300Q496 369 484 415.5Q472 462 448.5 490Q425 518 391 530Q357 542 312 542Q268 542 234 530.5Q200 519 176.5 491.5Q153 464 141 417Q129 370 129 300Q129 230 141 183.5Q153 137 176.5 109Q200 81 234 69.5Q268 58 312 58Q357 58 391 69.5Q425 81 448.5 109Q472 137 484 183.5Q496 230 496 300Z" glyph-name="zero.OT" horiz-adv-x="625" /><glyph d="M43 0ZM43 4Q43 116 84 167Q125 218 215 218Q304 218 344.5 167Q385 116 385 4Q385 -107 344 -158.5Q303 -210 215 -210Q125 -210 84 -159Q43 -108 43 4ZM313 4Q313 91 287.5 124Q262 157 215 157Q191 157 172 149.5Q153 142 140.5 124Q128 106 121.5 76.5Q115 47 115 3Q115 -84 140.5 -116.5Q166 -149 214 -149Q238 -149 256.5 -141.5Q275 -134 287.5 -116.5Q300 -99 306.5 -69.5Q313 -40 313 4Z" glyph-name="zero.inf" horiz-adv-x="432" /><glyph glyph-name="zerowidthspace" horiz-adv-x="0" unicode="&#8203;" /></font>
</defs>
</svg>
