<?xml version="1.0" standalone="no"?><!DOCTYPE svg PUBLIC "-//W3C//DTD SVG 1.1//EN" "http://www.w3.org/Graphics/SVG/1.1/DTD/svg11.dtd" ><svg version="1.1" xmlns="http://www.w3.org/2000/svg"><defs><font horiz-adv-x="0" id="font"><font-face ascent="972" bbox="-106 -307 1442 953" cap-height="700" descent="-226" font-family="Honeywell Sans" font-stretch="normal" font-style="normal" font-weight="700" units-per-em="1000" x-height="491" /><missing-glyph d="M110 0V700H804V0ZM413 347 185 607V87ZM502 347 729 88V606ZM250 636 458 396 666 636ZM456 299 253 64H661Z" horiz-adv-x="914" /><glyph d="M0 0Z" glyph-name=".ttfautohint" horiz-adv-x="657" /><glyph d="M320 590 200 224H442ZM516 0 472 131H170L127 0H9L251 700H395L637 0Z" glyph-name="A" horiz-adv-x="647" unicode="A" /><glyph d="M326 591 202 224H442ZM512 0 470 131H170L126 0H9L258 700H904V604H438L504 401H852V304H536L604 96H914V0Z" glyph-name="AE" horiz-adv-x="956" unicode="&#198;" /><glyph d="M9 0ZM320 590 200 224H442ZM516 0 472 131H170L127 0H9L251 700H395L637 0ZM485 900 365 783H274V787L352 906H485Z" glyph-name="Aacute" horiz-adv-x="647" unicode="&#193;" /><glyph d="M9 0ZM320 590 200 224H442ZM516 0 472 131H170L127 0H9L251 700H395L637 0ZM401 906H479Q479 869 468.5 844Q458 819 438 804Q418 789 390 783Q362 777 326 777Q254 777 213.5 804.5Q173 832 173 906H250Q250 868 268.5 854Q287 840 325 840Q363 840 382 854Q401 868 401 906Z" glyph-name="Abreve" horiz-adv-x="647" unicode="&#258;" /><glyph d="M9 0ZM320 590 200 224H442ZM516 0 472 131H170L127 0H9L251 700H395L637 0ZM326 848 260 783H155V786L277 906H378L502 786V783H391Z" glyph-name="Acircumflex" horiz-adv-x="647" unicode="&#194;" /><glyph d="M9 0ZM320 590 200 224H442ZM516 0 472 131H170L127 0H9L251 700H395L637 0ZM351 850Q351 882 369 897.5Q387 913 419 913Q451 913 469 897.5Q487 882 487 850Q487 818 469 802Q451 786 419 786Q387 786 369 802Q351 818 351 850ZM164 850Q164 882 182 897.5Q200 913 232 913Q264 913 282 897.5Q300 882 300 850Q300 818 282 802Q264 786 232 786Q200 786 182 802Q164 818 164 850Z" glyph-name="Adieresis" horiz-adv-x="647" unicode="&#196;" /><glyph d="M9 0ZM320 590 200 224H442ZM516 0 472 131H170L127 0H9L251 700H395L637 0ZM289 784 169 901V907H303L381 788V784Z" glyph-name="Agrave" horiz-adv-x="647" unicode="&#192;" /><glyph d="M9 0ZM320 590 200 224H442ZM516 0 472 131H170L127 0H9L251 700H395L637 0ZM460 876V807H193V876Z" glyph-name="Amacron" horiz-adv-x="647" unicode="&#256;" /><glyph d="M507 21 472 131H170L127 0H9L251 700H395L637 0H594Q547 -4 523 -33.5Q499 -63 499 -97Q499 -125 515.5 -136Q532 -147 559 -147Q577 -147 594 -143Q611 -139 626 -130L642 -194Q603 -218 551 -218Q527 -218 504 -213Q481 -208 463.5 -195Q446 -182 435 -161.5Q424 -141 424 -109Q424 -61 448.5 -28.5Q473 4 507 21ZM320 590 200 224H442Z" glyph-name="Aogonek" horiz-adv-x="647" unicode="&#260;" /><glyph d="M9 0ZM320 590 200 224H442ZM516 0 472 131H170L127 0H9L251 700H395L637 0ZM223 855Q223 901 252.5 927Q282 953 327 953Q372 953 400.5 927Q429 901 429 855Q429 809 400 783.5Q371 758 326 758Q281 758 252 783.5Q223 809 223 855ZM279 855Q279 833 292 819Q305 805 326 805Q346 805 360 819Q374 833 374 855Q374 878 360.5 891.5Q347 905 327 905Q305 905 292 891.5Q279 878 279 855Z" glyph-name="Aring" horiz-adv-x="647" unicode="&#197;" /><glyph d="M9 0ZM320 590 200 224H442ZM516 0 472 131H170L127 0H9L251 700H395L637 0ZM416 900H492Q495 869 487 848Q479 827 465.5 814.5Q452 802 434 796.5Q416 791 399 791Q377 791 358.5 797Q340 803 324 810.5Q308 818 293.5 824Q279 830 265 830Q247 830 241.5 819Q236 808 236 794H160Q158 825 165.5 846Q173 867 186.5 879.5Q200 892 217.5 897.5Q235 903 252 903Q274 903 293 897Q312 891 328.5 883.5Q345 876 359.5 870Q374 864 388 864Q406 864 411 875Q416 886 416 900Z" glyph-name="Atilde" horiz-adv-x="647" unicode="&#195;" /><glyph d="M104 0V700H417Q472 700 511.5 686.5Q551 673 576 649Q601 625 612.5 591.5Q624 558 624 517Q624 461 597.5 421.5Q571 382 525 364Q555 357 577.5 341Q600 325 614 302.5Q628 280 635 253.5Q642 227 642 200Q642 101 583.5 50.5Q525 0 407 0ZM405 608H217V402H401Q459 402 484.5 432.5Q510 463 510 506Q510 559 482 583.5Q454 608 405 608ZM406 309H217V91H402Q527 91 527 204Q527 254 498.5 281.5Q470 309 406 309Z" glyph-name="B" horiz-adv-x="698" unicode="B" /><glyph d="M392 -13Q311 -13 251 7.5Q191 28 150.5 72.5Q110 117 90 186Q70 255 70 351Q70 448 90.5 517Q111 586 151.5 629.5Q192 673 252.5 693Q313 713 394 713Q493 713 557.5 680.5Q622 648 658 571L565 516Q538 574 497.5 595.5Q457 617 394 617Q344 617 305.5 605Q267 593 241 562.5Q215 532 201 480.5Q187 429 187 351Q187 273 201 221Q215 169 241 138Q267 107 305.5 94Q344 81 394 81Q457 81 502.5 106Q548 131 578 192L669 139Q627 59 559.5 23Q492 -13 392 -13Z" glyph-name="C" horiz-adv-x="703" unicode="C" /><glyph glyph-name="CR" horiz-adv-x="176" unicode="" /><glyph d="M70 0ZM553 901 433 784H342V788L420 907H553ZM392 -13Q311 -13 251 7.5Q191 28 150.5 72.5Q110 117 90 186Q70 255 70 351Q70 448 90.5 517Q111 586 151.5 629.5Q192 673 252.5 693Q313 713 394 713Q493 713 557.5 680.5Q622 648 658 571L565 516Q538 574 497.5 595.5Q457 617 394 617Q344 617 305.5 605Q267 593 241 562.5Q215 532 201 480.5Q187 429 187 351Q187 273 201 221Q215 169 241 138Q267 107 305.5 94Q344 81 394 81Q457 81 502.5 106Q548 131 578 192L669 139Q627 59 559.5 23Q492 -13 392 -13Z" glyph-name="Cacute" horiz-adv-x="703" unicode="&#262;" /><glyph d="M70 0ZM396 844 464 907H569V905L445 784H344L222 905V907H331ZM392 -13Q311 -13 251 7.5Q191 28 150.5 72.5Q110 117 90 186Q70 255 70 351Q70 448 90.5 517Q111 586 151.5 629.5Q192 673 252.5 693Q313 713 394 713Q493 713 557.5 680.5Q622 648 658 571L565 516Q538 574 497.5 595.5Q457 617 394 617Q344 617 305.5 605Q267 593 241 562.5Q215 532 201 480.5Q187 429 187 351Q187 273 201 221Q215 169 241 138Q267 107 305.5 94Q344 81 394 81Q457 81 502.5 106Q548 131 578 192L669 139Q627 59 559.5 23Q492 -13 392 -13Z" glyph-name="Ccaron" horiz-adv-x="703" unicode="&#268;" /><glyph d="M385 -242Q344 -242 311 -227Q278 -212 258 -179L305 -134Q319 -157 336 -169Q353 -181 381 -181Q404 -181 418.5 -172Q433 -163 433 -143Q433 -124 419 -113.5Q405 -103 380 -103Q374 -103 368.5 -103.5Q363 -104 357 -105L338 -90L360 -12Q214 -5 142 81.5Q70 168 70 351Q70 448 90.5 517Q111 586 151.5 629.5Q192 673 252.5 693Q313 713 394 713Q493 713 557.5 680.5Q622 648 658 571L565 516Q538 574 497.5 595.5Q457 617 394 617Q344 617 305.5 605Q267 593 241 562.5Q215 532 201 480.5Q187 429 187 351Q187 273 201 221Q215 169 241 138Q267 107 305.5 94Q344 81 394 81Q457 81 502.5 106Q548 131 578 192L669 139Q631 67 571.5 30.5Q512 -6 427 -12L414 -57H416Q453 -58 481 -80Q509 -102 509 -144Q509 -169 499 -187.5Q489 -206 472 -218Q455 -230 432.5 -236Q410 -242 385 -242Z" glyph-name="Ccedilla" horiz-adv-x="703" unicode="&#199;" /><glyph d="M70 0ZM395 849 329 784H224V787L346 907H447L571 787V784H460ZM392 -13Q311 -13 251 7.5Q191 28 150.5 72.5Q110 117 90 186Q70 255 70 351Q70 448 90.5 517Q111 586 151.5 629.5Q192 673 252.5 693Q313 713 394 713Q493 713 557.5 680.5Q622 648 658 571L565 516Q538 574 497.5 595.5Q457 617 394 617Q344 617 305.5 605Q267 593 241 562.5Q215 532 201 480.5Q187 429 187 351Q187 273 201 221Q215 169 241 138Q267 107 305.5 94Q344 81 394 81Q457 81 502.5 106Q548 131 578 192L669 139Q627 59 559.5 23Q492 -13 392 -13Z" glyph-name="Ccircumflex" horiz-adv-x="703" unicode="&#264;" /><glyph d="M70 0ZM392 -13Q311 -13 251 7.5Q191 28 150.5 72.5Q110 117 90 186Q70 255 70 351Q70 448 90.5 517Q111 586 151.5 629.5Q192 673 252.5 693Q313 713 394 713Q493 713 557.5 680.5Q622 648 658 571L565 516Q538 574 497.5 595.5Q457 617 394 617Q344 617 305.5 605Q267 593 241 562.5Q215 532 201 480.5Q187 429 187 351Q187 273 201 221Q215 169 241 138Q267 107 305.5 94Q344 81 394 81Q457 81 502.5 106Q548 131 578 192L669 139Q627 59 559.5 23Q492 -13 392 -13ZM325 851Q325 883 344 898.5Q363 914 396 914Q428 914 446.5 898.5Q465 883 465 851Q465 819 446.5 803Q428 787 396 787Q363 787 344 803Q325 819 325 851Z" glyph-name="Cdotaccent" horiz-adv-x="703" unicode="&#266;" /><glyph d="M377 0H104V700H381Q538 700 614 617.5Q690 535 690 354Q690 174 612.5 87Q535 0 377 0ZM221 97H370Q416 97 454 109.5Q492 122 518 152Q544 182 558.5 230.5Q573 279 573 351Q573 420 560 468Q547 516 522.5 546Q498 576 462 589.5Q426 603 380 603H221Z" glyph-name="D" horiz-adv-x="758" unicode="D" /><glyph d="M104 0ZM391 843 459 906H564V904L440 783H339L217 904V906H326ZM377 0H104V700H381Q538 700 614 617.5Q690 535 690 354Q690 174 612.5 87Q535 0 377 0ZM221 97H370Q416 97 454 109.5Q492 122 518 152Q544 182 558.5 230.5Q573 279 573 351Q573 420 560 468Q547 516 522.5 546Q498 576 462 589.5Q426 603 380 603H221Z" glyph-name="Dcaron" horiz-adv-x="758" unicode="&#270;" /><glyph d="M395 0H122V310H44V400H122V700H400Q557 700 632.5 617.5Q708 535 708 354Q708 174 630.5 87Q553 0 395 0ZM239 97H389Q435 97 472.5 109.5Q510 122 536 152Q562 182 576.5 230.5Q591 279 591 351Q591 420 578.5 468Q566 516 541 546Q516 576 480 589.5Q444 603 398 603H239V400H384V310H239Z" glyph-name="Dcroat" horiz-adv-x="777" unicode="&#272;" /><glyph d="M104 0V700H621V604H218V401H570V304H218V96H631V0Z" glyph-name="E" horiz-adv-x="673" unicode="E" /><glyph d="M104 0ZM532 900 412 783H321V787L399 906H532ZM104 0V700H621V604H218V401H570V304H218V96H631V0Z" glyph-name="Eacute" horiz-adv-x="673" unicode="&#201;" /><glyph d="M104 0ZM104 0V700H621V604H218V401H570V304H218V96H631V0ZM448 906H526Q526 869 515.5 844Q505 819 485 804Q465 789 437 783Q409 777 373 777Q301 777 260.5 804.5Q220 832 220 906H297Q297 868 315.5 854Q334 840 372 840Q410 840 429 854Q448 868 448 906Z" glyph-name="Ebreve" horiz-adv-x="673" unicode="&#276;" /><glyph d="M104 0ZM374 843 442 906H547V904L423 783H322L200 904V906H309ZM104 0V700H621V604H218V401H570V304H218V96H631V0Z" glyph-name="Ecaron" horiz-adv-x="673" unicode="&#282;" /><glyph d="M104 0ZM372 848 306 783H201V786L323 906H424L548 786V783H437ZM104 0V700H621V604H218V401H570V304H218V96H631V0Z" glyph-name="Ecircumflex" horiz-adv-x="673" unicode="&#202;" /><glyph d="M104 0ZM398 850Q398 882 416 897.5Q434 913 466 913Q498 913 516 897.5Q534 882 534 850Q534 818 516 802Q498 786 466 786Q434 786 416 802Q398 818 398 850ZM211 850Q211 882 229 897.5Q247 913 279 913Q311 913 329 897.5Q347 882 347 850Q347 818 329 802Q311 786 279 786Q247 786 229 802Q211 818 211 850ZM104 0V700H621V604H218V401H570V304H218V96H631V0Z" glyph-name="Edieresis" horiz-adv-x="673" unicode="&#203;" /><glyph d="M104 0ZM104 0V700H621V604H218V401H570V304H218V96H631V0ZM304 850Q304 882 323 897.5Q342 913 375 913Q407 913 425.5 897.5Q444 882 444 850Q444 818 425.5 802Q407 786 375 786Q342 786 323 802Q304 818 304 850Z" glyph-name="Edotaccent" horiz-adv-x="673" unicode="&#278;" /><glyph d="M104 0ZM104 0V700H621V604H218V401H570V304H218V96H631V0ZM335 784 215 901V907H349L427 788V784Z" glyph-name="Egrave" horiz-adv-x="673" unicode="&#200;" /><glyph d="M104 0ZM104 0V700H621V604H218V401H570V304H218V96H631V0ZM506 876V807H239V876Z" glyph-name="Emacron" horiz-adv-x="673" unicode="&#274;" /><glyph d="M575 -28V1L212 522L215 0H104V700H208L580 169L577 700H689V-39Q689 -132 643.5 -175Q598 -218 521 -218Q499 -218 477.5 -214.5Q456 -211 433 -202L451 -117Q465 -122 477.5 -125Q490 -128 507 -128Q523 -128 536 -123.5Q549 -119 557.5 -107.5Q566 -96 570.5 -76.5Q575 -57 575 -28Z" glyph-name="Eng" horiz-adv-x="792" unicode="&#330;" /><glyph d="M104 0V700H621V605H218V401H570V304H218V95H631V0Q577 -4 551.5 -33.5Q526 -63 526 -97Q526 -125 543 -136Q560 -147 586 -147Q604 -147 621 -143Q638 -139 653 -130L669 -194Q630 -218 578 -218Q554 -218 531.5 -213Q509 -208 491 -195Q473 -182 462.5 -161.5Q452 -141 452 -109Q452 -74 465.5 -46Q479 -18 502 0Z" glyph-name="Eogonek" horiz-adv-x="673" unicode="&#280;" /><glyph d="M395 0H122V310H44V400H122V700H400Q557 700 632.5 617.5Q708 535 708 354Q708 174 630.5 87Q553 0 395 0ZM239 97H389Q435 97 472.5 109.5Q510 122 536 152Q562 182 576.5 230.5Q591 279 591 351Q591 420 578.5 468Q566 516 541 546Q516 576 480 589.5Q444 603 398 603H239V400H384V310H239Z" glyph-name="Eth" horiz-adv-x="777" unicode="&#208;" /><glyph d="M394 -13Q263 -13 187.5 46Q112 105 90 237H5V310H83Q82 319 82 329V362H5V435H86Q102 582 179.5 647.5Q257 713 396 713Q490 713 552.5 680Q615 647 650 568L558 513Q532 573 493.5 596.5Q455 620 395 620Q355 620 322.5 611Q290 602 265.5 580.5Q241 559 225 523.5Q209 488 202 435H492L473 362H197V329Q197 319 198 310H460L441 237H209Q217 193 233.5 163Q250 133 273.5 115Q297 97 327.5 89Q358 81 395 81Q454 81 496 103.5Q538 126 566 182L656 131Q616 56 552 21.5Q488 -13 394 -13Z" glyph-name="Euro" horiz-adv-x="692" unicode="&#8364;" /><glyph d="M104 0V700H605V603H221V395H562V295H221V0Z" glyph-name="F" horiz-adv-x="619" unicode="F" /><glyph d="M374 -13Q228 -13 149 75.5Q70 164 70 351Q70 448 90.5 516.5Q111 585 151.5 628.5Q192 672 252.5 692.5Q313 713 394 713Q492 713 556 681Q620 649 655 577L562 521Q535 573 495.5 595Q456 617 394 617Q344 617 305.5 605Q267 593 240.5 563Q214 533 200.5 481.5Q187 430 187 351Q187 273 200.5 221.5Q214 170 240.5 138.5Q267 107 305 94Q343 81 392 81Q423 81 454 89.5Q485 98 510.5 118Q536 138 552 171Q568 204 570 254V273H396V362H677V0H587L580 94Q551 43 497 15Q443 -13 374 -13Z" glyph-name="G" horiz-adv-x="746" unicode="G" /><glyph d="M380 -13Q227 -13 148.5 75.5Q70 164 70 351Q70 448 90 516.5Q110 585 150.5 628.5Q191 672 252 692.5Q313 713 394 713Q491 713 555 680.5Q619 648 655 577L561 520Q534 573 494.5 595Q455 617 393 617Q343 617 304.5 605Q266 593 240 563Q214 533 200.5 481.5Q187 430 187 351Q187 273 200.5 221.5Q214 170 239.5 138.5Q265 107 303 94Q341 81 390 81Q429 81 461.5 91.5Q494 102 517.5 124.5Q541 147 553.5 183.5Q566 220 566 273H396V362H678V289Q678 207 657 149.5Q636 92 597 56Q558 20 503 3.5Q448 -13 380 -13Z" glyph-name="G.alt" horiz-adv-x="747" /><glyph d="M70 0ZM374 -13Q228 -13 149 75.5Q70 164 70 351Q70 448 90.5 516.5Q111 585 151.5 628.5Q192 672 252.5 692.5Q313 713 394 713Q492 713 556 681Q620 649 655 577L562 521Q535 573 495.5 595Q456 617 394 617Q344 617 305.5 605Q267 593 240.5 563Q214 533 200.5 481.5Q187 430 187 351Q187 273 200.5 221.5Q214 170 240.5 138.5Q267 107 305 94Q343 81 392 81Q423 81 454 89.5Q485 98 510.5 118Q536 138 552 171Q568 204 570 254V273H396V362H677V0H587L580 94Q551 43 497 15Q443 -13 374 -13ZM466 906H544Q544 869 533.5 844Q523 819 503 804Q483 789 455 783Q427 777 391 777Q319 777 278.5 804.5Q238 832 238 906H315Q315 868 333.5 854Q352 840 390 840Q428 840 447 854Q466 868 466 906Z" glyph-name="Gbreve" horiz-adv-x="746" unicode="&#286;" /><glyph d="M465 906H543Q543 869 532.5 844Q522 819 502 804Q482 789 454 783Q426 777 390 777Q318 777 277.5 804.5Q237 832 237 906H314Q314 868 332.5 854Q351 840 389 840Q427 840 446 854Q465 868 465 906ZM380 -13Q227 -13 148.5 75.5Q70 164 70 351Q70 448 90 516.5Q110 585 150.5 628.5Q191 672 252 692.5Q313 713 394 713Q491 713 555 680.5Q619 648 655 577L561 520Q534 573 494.5 595Q455 617 393 617Q343 617 304.5 605Q266 593 240 563Q214 533 200.5 481.5Q187 430 187 351Q187 273 200.5 221.5Q214 170 239.5 138.5Q265 107 303 94Q341 81 390 81Q429 81 461.5 91.5Q494 102 517.5 124.5Q541 147 553.5 183.5Q566 220 566 273H396V362H678V289Q678 207 657 149.5Q636 92 597 56Q558 20 503 3.5Q448 -13 380 -13Z" glyph-name="Gbreve.alt" horiz-adv-x="747" /><glyph d="M70 0ZM392 848 326 783H221V786L343 906H444L568 786V783H457ZM374 -13Q228 -13 149 75.5Q70 164 70 351Q70 448 90.5 516.5Q111 585 151.5 628.5Q192 672 252.5 692.5Q313 713 394 713Q492 713 556 681Q620 649 655 577L562 521Q535 573 495.5 595Q456 617 394 617Q344 617 305.5 605Q267 593 240.5 563Q214 533 200.5 481.5Q187 430 187 351Q187 273 200.5 221.5Q214 170 240.5 138.5Q267 107 305 94Q343 81 392 81Q423 81 454 89.5Q485 98 510.5 118Q536 138 552 171Q568 204 570 254V273H396V362H677V0H587L580 94Q551 43 497 15Q443 -13 374 -13Z" glyph-name="Gcircumflex" horiz-adv-x="746" unicode="&#284;" /><glyph d="M391 848 325 783H220V786L342 906H443L567 786V783H456ZM380 -13Q227 -13 148.5 75.5Q70 164 70 351Q70 448 90 516.5Q110 585 150.5 628.5Q191 672 252 692.5Q313 713 394 713Q491 713 555 680.5Q619 648 655 577L561 520Q534 573 494.5 595Q455 617 393 617Q343 617 304.5 605Q266 593 240 563Q214 533 200.5 481.5Q187 430 187 351Q187 273 200.5 221.5Q214 170 239.5 138.5Q265 107 303 94Q341 81 390 81Q429 81 461.5 91.5Q494 102 517.5 124.5Q541 147 553.5 183.5Q566 220 566 273H396V362H678V289Q678 207 657 149.5Q636 92 597 56Q558 20 503 3.5Q448 -13 380 -13Z" glyph-name="Gcircumflex.alt" horiz-adv-x="747" /><glyph d="M70 0ZM340 -307 319 -261Q349 -253 366.5 -232.5Q384 -212 389 -183Q354 -184 335.5 -168Q317 -152 317 -122Q317 -91 334.5 -76Q352 -61 383 -61Q416 -61 435 -81.5Q454 -102 454 -148Q454 -206 425 -250Q396 -294 340 -307ZM374 -13Q228 -13 149 75.5Q70 164 70 351Q70 448 90.5 516.5Q111 585 151.5 628.5Q192 672 252.5 692.5Q313 713 394 713Q492 713 556 681Q620 649 655 577L562 521Q535 573 495.5 595Q456 617 394 617Q344 617 305.5 605Q267 593 240.5 563Q214 533 200.5 481.5Q187 430 187 351Q187 273 200.5 221.5Q214 170 240.5 138.5Q267 107 305 94Q343 81 392 81Q423 81 454 89.5Q485 98 510.5 118Q536 138 552 171Q568 204 570 254V273H396V362H677V0H587L580 94Q551 43 497 15Q443 -13 374 -13Z" glyph-name="Gcommaaccent" horiz-adv-x="746" unicode="&#290;" /><glyph d="M380 -13Q227 -13 148.5 75.5Q70 164 70 351Q70 448 90 516.5Q110 585 150.5 628.5Q191 672 252 692.5Q313 713 394 713Q491 713 555 680.5Q619 648 655 577L561 520Q534 573 494.5 595Q455 617 393 617Q343 617 304.5 605Q266 593 240 563Q214 533 200.5 481.5Q187 430 187 351Q187 273 200.5 221.5Q214 170 239.5 138.5Q265 107 303 94Q341 81 390 81Q429 81 461.5 91.5Q494 102 517.5 124.5Q541 147 553.5 183.5Q566 220 566 273H396V362H678V289Q678 207 657 149.5Q636 92 597 56Q558 20 503 3.5Q448 -13 380 -13ZM339 -307 318 -261Q348 -253 365.5 -232.5Q383 -212 388 -183H384Q352 -183 334 -167.5Q316 -152 316 -122Q316 -91 333.5 -76Q351 -61 382 -61Q415 -61 434 -81.5Q453 -102 453 -148Q453 -206 424 -250Q395 -294 339 -307Z" glyph-name="Gcommaaccent.alt" horiz-adv-x="747" /><glyph d="M70 0ZM374 -13Q228 -13 149 75.5Q70 164 70 351Q70 448 90.5 516.5Q111 585 151.5 628.5Q192 672 252.5 692.5Q313 713 394 713Q492 713 556 681Q620 649 655 577L562 521Q535 573 495.5 595Q456 617 394 617Q344 617 305.5 605Q267 593 240.5 563Q214 533 200.5 481.5Q187 430 187 351Q187 273 200.5 221.5Q214 170 240.5 138.5Q267 107 305 94Q343 81 392 81Q423 81 454 89.5Q485 98 510.5 118Q536 138 552 171Q568 204 570 254V273H396V362H677V0H587L580 94Q551 43 497 15Q443 -13 374 -13ZM322 850Q322 882 341 897.5Q360 913 393 913Q425 913 443.5 897.5Q462 882 462 850Q462 818 443.5 802Q425 786 393 786Q360 786 341 802Q322 818 322 850Z" glyph-name="Gdotaccent" horiz-adv-x="746" unicode="&#288;" /><glyph d="M321 850Q321 882 340 897.5Q359 913 392 913Q424 913 442.5 897.5Q461 882 461 850Q461 818 442.5 802Q424 786 392 786Q359 786 340 802Q321 818 321 850ZM380 -13Q227 -13 148.5 75.5Q70 164 70 351Q70 448 90 516.5Q110 585 150.5 628.5Q191 672 252 692.5Q313 713 394 713Q491 713 555 680.5Q619 648 655 577L561 520Q534 573 494.5 595Q455 617 393 617Q343 617 304.5 605Q266 593 240 563Q214 533 200.5 481.5Q187 430 187 351Q187 273 200.5 221.5Q214 170 239.5 138.5Q265 107 303 94Q341 81 390 81Q429 81 461.5 91.5Q494 102 517.5 124.5Q541 147 553.5 183.5Q566 220 566 273H396V362H678V289Q678 207 657 149.5Q636 92 597 56Q558 20 503 3.5Q448 -13 380 -13Z" glyph-name="Gdotaccent.alt" horiz-adv-x="747" /><glyph d="M582 0V301H221V0H104V700H221V402H582V700H699V0Z" glyph-name="H" horiz-adv-x="802" unicode="H" /><glyph d="M231 402H592V494H231ZM592 0V301H231V0H114V494H44V564H114V700H231V564H592V700H709V564H778V494H709V0Z" glyph-name="Hbar" horiz-adv-x="822" unicode="&#294;" /><glyph d="M104 0ZM401 849 335 784H230V787L352 907H453L577 787V784H466ZM582 0V301H221V0H104V700H221V402H582V700H699V0Z" glyph-name="Hcircumflex" horiz-adv-x="802" unicode="&#292;" /><glyph d="M104 0V700H221V0Z" glyph-name="I" horiz-adv-x="324" unicode="I" /><glyph d="M104 0ZM104 0V700H221V0ZM507 -13Q462 -13 418.5 -0.5Q375 12 338 41L388 126Q414 104 446 93.5Q478 83 511 83Q542 83 567 92.5Q592 102 610 122.5Q628 143 637.5 175.5Q647 208 647 255V700H764V259Q764 182 745 130Q726 78 691.5 46Q657 14 610 0.5Q563 -13 507 -13Z" glyph-name="IJ" horiz-adv-x="850" unicode="&#306;" /><glyph d="M104 0ZM104 0V700H221V0ZM321 900 201 783H110V787L188 906H321Z" glyph-name="Iacute" horiz-adv-x="324" unicode="&#205;" /><glyph d="M9 0ZM104 0V700H221V0ZM237 906H315Q315 869 304.5 844Q294 819 274 804Q254 789 226 783Q198 777 162 777Q90 777 49.5 804.5Q9 832 9 906H86Q86 868 104.5 854Q123 840 161 840Q199 840 218 854Q237 868 237 906Z" glyph-name="Ibreve" horiz-adv-x="324" unicode="&#300;" /><glyph d="M0 0ZM104 0V700H221V0ZM161 848 95 783H-10V786L112 906H213L337 786V783H226Z" glyph-name="Icircumflex" horiz-adv-x="324" unicode="&#206;" /><glyph d="M0 0ZM104 0V700H221V0ZM187 850Q187 882 205 897.5Q223 913 255 913Q287 913 305 897.5Q323 882 323 850Q323 818 305 802Q287 786 255 786Q223 786 205 802Q187 818 187 850ZM0 850Q0 882 18 897.5Q36 913 68 913Q100 913 118 897.5Q136 882 136 850Q136 818 118 802Q100 786 68 786Q36 786 18 802Q0 818 0 850Z" glyph-name="Idieresis" horiz-adv-x="324" unicode="&#207;" /><glyph d="M93 0ZM104 0V700H221V0ZM93 850Q93 882 112 897.5Q131 913 164 913Q196 913 214.5 897.5Q233 882 233 850Q233 818 214.5 802Q196 786 164 786Q131 786 112 802Q93 818 93 850Z" glyph-name="Idotaccent" horiz-adv-x="324" unicode="&#304;" /><glyph d="M4 0ZM104 0V700H221V0ZM124 784 4 901V907H138L216 788V784Z" glyph-name="Igrave" horiz-adv-x="324" unicode="&#204;" /><glyph d="M29 0ZM104 0V700H221V0ZM296 876V807H29V876Z" glyph-name="Imacron" horiz-adv-x="324" unicode="&#298;" /><glyph d="M122 -218Q98 -218 75.5 -213Q53 -208 35 -195Q17 -182 6.5 -161.5Q-4 -141 -4 -109Q-4 -81 5 -58Q14 -35 29 -17Q44 1 63.5 13Q83 25 104 32V700H221V0H165Q118 -4 94.5 -33.5Q71 -63 71 -97Q71 -125 87.5 -136Q104 -147 131 -147Q169 -147 197 -130L214 -194Q194 -206 171.5 -212Q149 -218 122 -218Z" glyph-name="Iogonek" horiz-adv-x="324" unicode="&#302;" /><glyph d="M0 0ZM104 0V700H221V0ZM252 900H328Q331 869 323 848Q315 827 301.5 814.5Q288 802 270 796.5Q252 791 235 791Q213 791 194.5 797Q176 803 160 810.5Q144 818 129.5 824Q115 830 101 830Q83 830 77.5 819Q72 808 72 794H-4Q-6 825 1.5 846Q9 867 22.5 879.5Q36 892 53.5 897.5Q71 903 88 903Q110 903 129 897Q148 891 164.5 883.5Q181 876 195.5 870Q210 864 224 864Q242 864 247 875Q252 886 252 900Z" glyph-name="Itilde" horiz-adv-x="324" unicode="&#296;" /><glyph d="M179 -13Q134 -13 90.5 -0.5Q47 12 10 41L60 126Q86 104 118 93.5Q150 83 183 83Q214 83 239 92.5Q264 102 282 122.5Q300 143 309.5 175.5Q319 208 319 255V700H436V259Q436 182 417 130Q398 78 363.5 46Q329 14 282 0.5Q235 -13 179 -13Z" glyph-name="J" horiz-adv-x="522" unicode="J" /><glyph d="M10 0ZM379 848 313 783H208V786L330 906H431L555 786V783H444ZM179 -13Q134 -13 90.5 -0.5Q47 12 10 41L60 126Q86 104 118 93.5Q150 83 183 83Q214 83 239 92.5Q264 102 282 122.5Q300 143 309.5 175.5Q319 208 319 255V700H436V259Q436 182 417 130Q398 78 363.5 46Q329 14 282 0.5Q235 -13 179 -13Z" glyph-name="Jcircumflex" horiz-adv-x="522" unicode="&#308;" /><glyph d="M104 0V700H221L220 334L518 700H656L395 388L666 0H526L316 303L221 190V0Z" glyph-name="K" horiz-adv-x="670" unicode="K" /><glyph d="M519 0 231 339V343L518 700H653L370 352L668 0ZM103 0V700H222V0Z" glyph-name="K.alt" horiz-adv-x="669" /><glyph d="M104 0ZM315 -307 294 -261Q324 -253 341.5 -232.5Q359 -212 364 -183Q329 -184 310.5 -168Q292 -152 292 -122Q292 -91 309.5 -76Q327 -61 358 -61Q391 -61 410 -81.5Q429 -102 429 -148Q429 -206 400 -250Q371 -294 315 -307ZM104 0V700H221L220 334L518 700H656L395 388L666 0H526L316 303L221 190V0Z" glyph-name="Kcommaaccent" horiz-adv-x="670" unicode="&#310;" /><glyph d="M103 0ZM315 -307 294 -261Q324 -253 341.5 -232.5Q359 -212 364 -183Q329 -184 310.5 -168Q292 -152 292 -122Q292 -91 309.5 -76Q327 -61 358 -61Q391 -61 410 -81.5Q429 -102 429 -148Q429 -206 400 -250Q371 -294 315 -307ZM519 0 231 339V343L518 700H653L370 352L668 0ZM103 0V700H222V0Z" glyph-name="Kcommaaccent.alt" horiz-adv-x="669" /><glyph d="M221 98H611V0H104V700H221Z" glyph-name="L" horiz-adv-x="638" unicode="L" /><glyph d="M104 0ZM320 900 200 783H109V787L187 906H320ZM221 98H611V0H104V700H221Z" glyph-name="Lacute" horiz-adv-x="638" unicode="&#313;" /><glyph d="M104 0ZM472 466H397L404 701H504ZM221 98H611V0H104V700H221Z" glyph-name="Lcaron" horiz-adv-x="638" unicode="&#317;" /><glyph d="M104 0ZM315 -307 294 -261Q324 -253 341.5 -232.5Q359 -212 364 -183Q329 -184 310.5 -168Q292 -152 292 -122Q292 -91 309.5 -76Q327 -61 358 -61Q391 -61 410 -81.5Q429 -102 429 -148Q429 -206 400 -250Q371 -294 315 -307ZM221 98H611V0H104V700H221Z" glyph-name="Lcommaaccent" horiz-adv-x="638" unicode="&#315;" /><glyph d="M104 0ZM221 98H611V0H104V700H221ZM396 360Q396 392 415 407.5Q434 423 467 423Q499 423 517.5 407.5Q536 392 536 360Q536 328 517.5 312Q499 296 467 296Q434 296 415 312Q396 328 396 360Z" glyph-name="Ldot" horiz-adv-x="638" unicode="&#319;" /><glyph d="M240 98H630V0H123V239L24 179V277L123 337V700H240V403L413 506V407L240 304Z" glyph-name="Lslash" horiz-adv-x="657" unicode="&#321;" /><glyph d="M436 0 208 507 213 0H104V700H229L482 133L732 700H859V0H747L752 511L524 0Z" glyph-name="M" horiz-adv-x="962" unicode="M" /><glyph d="M578 0 212 522 215 0H104V700H208L580 169L577 700H689V0Z" glyph-name="N" horiz-adv-x="792" unicode="N" /><glyph glyph-name="NULL" horiz-adv-x="176" /><glyph d="M104 0ZM554 900 434 783H343V787L421 906H554ZM578 0 212 522 215 0H104V700H208L580 169L577 700H689V0Z" glyph-name="Nacute" horiz-adv-x="792" unicode="&#323;" /><glyph d="M104 0ZM397 843 465 906H570V904L446 783H345L223 904V906H332ZM578 0 212 522 215 0H104V700H208L580 169L577 700H689V0Z" glyph-name="Ncaron" horiz-adv-x="792" unicode="&#327;" /><glyph d="M104 0ZM354 -307 333 -261Q363 -253 380.5 -232.5Q398 -212 403 -183Q368 -184 349.5 -168Q331 -152 331 -122Q331 -91 348.5 -76Q366 -61 397 -61Q430 -61 449 -81.5Q468 -102 468 -148Q468 -206 439 -250Q410 -294 354 -307ZM578 0 212 522 215 0H104V700H208L580 169L577 700H689V0Z" glyph-name="Ncommaaccent" horiz-adv-x="792" unicode="&#325;" /><glyph d="M104 0ZM578 0 212 522 215 0H104V700H208L580 169L577 700H689V0ZM484 900H560Q563 869 555 848Q547 827 533.5 814.5Q520 802 502 796.5Q484 791 467 791Q445 791 426.5 797Q408 803 392 810.5Q376 818 361.5 824Q347 830 333 830Q315 830 309.5 819Q304 808 304 794H228Q226 825 233.5 846Q241 867 254.5 879.5Q268 892 285.5 897.5Q303 903 320 903Q342 903 361 897Q380 891 396.5 883.5Q413 876 427.5 870Q442 864 456 864Q474 864 479 875Q484 886 484 900Z" glyph-name="Ntilde" horiz-adv-x="792" unicode="&#209;" /><glyph d="M393 -13Q226 -13 148 74Q70 161 70 351Q70 541 150 627Q230 713 393 713Q478 713 539.5 692Q601 671 640.5 626.5Q680 582 698.5 513.5Q717 445 717 351Q717 161 636.5 74Q556 -13 393 -13ZM393 618Q342 618 303.5 605Q265 592 239 561.5Q213 531 200 479.5Q187 428 187 350Q187 274 200 222.5Q213 171 239 140Q265 109 303.5 95.5Q342 82 393 82Q444 82 482.5 95Q521 108 547 139.5Q573 171 586 222.5Q599 274 599 352Q599 427 586 478Q573 529 547 560Q521 591 482.5 604.5Q444 618 393 618Z" glyph-name="O" horiz-adv-x="786" unicode="O" /><glyph d="M1060 0H384Q225 0 147 86Q69 172 69 353Q69 533 146.5 616.5Q224 700 386 700H1050V604H654V401H999V304H654V96H1060ZM386 97H538V603H385Q337 603 300 590Q263 577 237.5 547Q212 517 199 469Q186 421 186 351Q186 280 199.5 231.5Q213 183 238.5 153Q264 123 301.5 110Q339 97 386 97Z" glyph-name="OE" horiz-adv-x="1102" unicode="&#338;" /><glyph d="M70 0ZM551 900 431 783H340V787L418 906H551ZM393 -13Q226 -13 148 74Q70 161 70 351Q70 541 150 627Q230 713 393 713Q478 713 539.5 692Q601 671 640.5 626.5Q680 582 698.5 513.5Q717 445 717 351Q717 161 636.5 74Q556 -13 393 -13ZM393 618Q342 618 303.5 605Q265 592 239 561.5Q213 531 200 479.5Q187 428 187 350Q187 274 200 222.5Q213 171 239 140Q265 109 303.5 95.5Q342 82 393 82Q444 82 482.5 95Q521 108 547 139.5Q573 171 586 222.5Q599 274 599 352Q599 427 586 478Q573 529 547 560Q521 591 482.5 604.5Q444 618 393 618Z" glyph-name="Oacute" horiz-adv-x="786" unicode="&#211;" /><glyph d="M70 0ZM393 -13Q226 -13 148 74Q70 161 70 351Q70 541 150 627Q230 713 393 713Q478 713 539.5 692Q601 671 640.5 626.5Q680 582 698.5 513.5Q717 445 717 351Q717 161 636.5 74Q556 -13 393 -13ZM393 618Q342 618 303.5 605Q265 592 239 561.5Q213 531 200 479.5Q187 428 187 350Q187 274 200 222.5Q213 171 239 140Q265 109 303.5 95.5Q342 82 393 82Q444 82 482.5 95Q521 108 547 139.5Q573 171 586 222.5Q599 274 599 352Q599 427 586 478Q573 529 547 560Q521 591 482.5 604.5Q444 618 393 618ZM467 906H545Q545 869 534.5 844Q524 819 504 804Q484 789 456 783Q428 777 392 777Q320 777 279.5 804.5Q239 832 239 906H316Q316 868 334.5 854Q353 840 391 840Q429 840 448 854Q467 868 467 906Z" glyph-name="Obreve" horiz-adv-x="786" unicode="&#334;" /><glyph d="M70 0ZM392 848 326 783H221V786L343 906H444L568 786V783H457ZM393 -13Q226 -13 148 74Q70 161 70 351Q70 541 150 627Q230 713 393 713Q478 713 539.5 692Q601 671 640.5 626.5Q680 582 698.5 513.5Q717 445 717 351Q717 161 636.5 74Q556 -13 393 -13ZM393 618Q342 618 303.5 605Q265 592 239 561.5Q213 531 200 479.5Q187 428 187 350Q187 274 200 222.5Q213 171 239 140Q265 109 303.5 95.5Q342 82 393 82Q444 82 482.5 95Q521 108 547 139.5Q573 171 586 222.5Q599 274 599 352Q599 427 586 478Q573 529 547 560Q521 591 482.5 604.5Q444 618 393 618Z" glyph-name="Ocircumflex" horiz-adv-x="786" unicode="&#212;" /><glyph d="M70 0ZM418 850Q418 882 436 897.5Q454 913 486 913Q518 913 536 897.5Q554 882 554 850Q554 818 536 802Q518 786 486 786Q454 786 436 802Q418 818 418 850ZM231 850Q231 882 249 897.5Q267 913 299 913Q331 913 349 897.5Q367 882 367 850Q367 818 349 802Q331 786 299 786Q267 786 249 802Q231 818 231 850ZM393 -13Q226 -13 148 74Q70 161 70 351Q70 541 150 627Q230 713 393 713Q478 713 539.5 692Q601 671 640.5 626.5Q680 582 698.5 513.5Q717 445 717 351Q717 161 636.5 74Q556 -13 393 -13ZM393 618Q342 618 303.5 605Q265 592 239 561.5Q213 531 200 479.5Q187 428 187 350Q187 274 200 222.5Q213 171 239 140Q265 109 303.5 95.5Q342 82 393 82Q444 82 482.5 95Q521 108 547 139.5Q573 171 586 222.5Q599 274 599 352Q599 427 586 478Q573 529 547 560Q521 591 482.5 604.5Q444 618 393 618Z" glyph-name="Odieresis" horiz-adv-x="786" unicode="&#214;" /><glyph d="M70 0ZM393 -13Q226 -13 148 74Q70 161 70 351Q70 541 150 627Q230 713 393 713Q478 713 539.5 692Q601 671 640.5 626.5Q680 582 698.5 513.5Q717 445 717 351Q717 161 636.5 74Q556 -13 393 -13ZM393 618Q342 618 303.5 605Q265 592 239 561.5Q213 531 200 479.5Q187 428 187 350Q187 274 200 222.5Q213 171 239 140Q265 109 303.5 95.5Q342 82 393 82Q444 82 482.5 95Q521 108 547 139.5Q573 171 586 222.5Q599 274 599 352Q599 427 586 478Q573 529 547 560Q521 591 482.5 604.5Q444 618 393 618ZM355 785 235 902V908H369L447 789V785Z" glyph-name="Ograve" horiz-adv-x="786" unicode="&#210;" /><glyph d="M70 0ZM624 900 500 783H413V787L491 906H624ZM449 900 350 783H266V787L330 906H449ZM393 -13Q226 -13 148 74Q70 161 70 351Q70 541 150 627Q230 713 393 713Q478 713 539.5 692Q601 671 640.5 626.5Q680 582 698.5 513.5Q717 445 717 351Q717 161 636.5 74Q556 -13 393 -13ZM393 618Q342 618 303.5 605Q265 592 239 561.5Q213 531 200 479.5Q187 428 187 350Q187 274 200 222.5Q213 171 239 140Q265 109 303.5 95.5Q342 82 393 82Q444 82 482.5 95Q521 108 547 139.5Q573 171 586 222.5Q599 274 599 352Q599 427 586 478Q573 529 547 560Q521 591 482.5 604.5Q444 618 393 618Z" glyph-name="Ohungarumlaut" horiz-adv-x="786" unicode="&#336;" /><glyph d="M70 0ZM526 876V807H259V876ZM393 -13Q226 -13 148 74Q70 161 70 351Q70 541 150 627Q230 713 393 713Q478 713 539.5 692Q601 671 640.5 626.5Q680 582 698.5 513.5Q717 445 717 351Q717 161 636.5 74Q556 -13 393 -13ZM393 618Q342 618 303.5 605Q265 592 239 561.5Q213 531 200 479.5Q187 428 187 350Q187 274 200 222.5Q213 171 239 140Q265 109 303.5 95.5Q342 82 393 82Q444 82 482.5 95Q521 108 547 139.5Q573 171 586 222.5Q599 274 599 352Q599 427 586 478Q573 529 547 560Q521 591 482.5 604.5Q444 618 393 618Z" glyph-name="Omacron" horiz-adv-x="786" unicode="&#332;" /><glyph d="M145 0H43L132 102Q103 147 89 208.5Q75 270 75 351Q75 540 155 626.5Q235 713 398 713Q538 713 615 652L657 700H759L667 595Q722 507 722 351Q722 256 702 187Q682 118 642 73.5Q602 29 541 8Q480 -13 399 -13Q262 -13 185 46ZM543 569Q517 595 481 606.5Q445 618 398 618Q347 618 308.5 605Q270 592 244 561.5Q218 531 205 479.5Q192 428 192 350Q192 251 215 196ZM256 127Q282 102 317 92Q352 82 398 82Q449 82 487.5 95Q526 108 552 139Q578 170 591 222Q604 274 604 352Q604 399 599 435.5Q594 472 583 500Z" glyph-name="Oslash" horiz-adv-x="796" unicode="&#216;" /><glyph d="M70 0ZM393 -13Q226 -13 148 74Q70 161 70 351Q70 541 150 627Q230 713 393 713Q478 713 539.5 692Q601 671 640.5 626.5Q680 582 698.5 513.5Q717 445 717 351Q717 161 636.5 74Q556 -13 393 -13ZM393 618Q342 618 303.5 605Q265 592 239 561.5Q213 531 200 479.5Q187 428 187 350Q187 274 200 222.5Q213 171 239 140Q265 109 303.5 95.5Q342 82 393 82Q444 82 482.5 95Q521 108 547 139.5Q573 171 586 222.5Q599 274 599 352Q599 427 586 478Q573 529 547 560Q521 591 482.5 604.5Q444 618 393 618ZM481 900H557Q560 869 552 848Q544 827 530.5 814.5Q517 802 499 796.5Q481 791 464 791Q442 791 423.5 797Q405 803 389 810.5Q373 818 358.5 824Q344 830 330 830Q312 830 306.5 819Q301 808 301 794H225Q223 825 230.5 846Q238 867 251.5 879.5Q265 892 282.5 897.5Q300 903 317 903Q339 903 358 897Q377 891 393.5 883.5Q410 876 424.5 870Q439 864 453 864Q471 864 476 875Q481 886 481 900Z" glyph-name="Otilde" horiz-adv-x="786" unicode="&#213;" /><glyph d="M104 0V700H401Q523 700 583.5 639.5Q644 579 644 470Q644 352 578 291Q512 230 388 230H221V0ZM392 601H221V328H392Q455 328 491 363Q527 398 527 469Q527 530 494 565.5Q461 601 392 601Z" glyph-name="P" horiz-adv-x="683" unicode="P" /><glyph d="M583 30 667 -91H549L488 -4Q444 -13 393 -13Q226 -13 148 74Q70 161 70 351Q70 541 150 627Q230 713 393 713Q478 713 539.5 692Q601 671 640.5 626.5Q680 582 698.5 513.5Q717 445 717 351Q717 228 683.5 149.5Q650 71 583 30ZM393 619Q342 619 303.5 606Q265 593 239 562Q213 531 200 479Q187 427 187 349Q187 273 200 221.5Q213 170 239 139Q265 108 303.5 94.5Q342 81 393 81H411Q420 81 428 82L342 206H461L523 116Q561 145 580.5 201Q600 257 600 351Q600 427 586.5 478.5Q573 530 547 561Q521 592 482.5 605.5Q444 619 393 619Z" glyph-name="Q" horiz-adv-x="783" unicode="Q" /><glyph d="M395 602H220V349H393Q455 349 489.5 381Q524 413 524 479Q524 536 493 569Q462 602 395 602ZM104 0V700H405Q524 700 582.5 643Q641 586 641 483Q641 402 607 349.5Q573 297 510 273L651 0H523L394 252H220V0Z" glyph-name="R" horiz-adv-x="690" unicode="R" /><glyph d="M104 0ZM529 900 409 783H318V787L396 906H529ZM395 602H220V349H393Q455 349 489.5 381Q524 413 524 479Q524 536 493 569Q462 602 395 602ZM104 0V700H405Q524 700 582.5 643Q641 586 641 483Q641 402 607 349.5Q573 297 510 273L651 0H523L394 252H220V0Z" glyph-name="Racute" horiz-adv-x="690" unicode="&#340;" /><glyph d="M104 0ZM372 843 440 906H545V904L421 783H320L198 904V906H307ZM395 602H220V349H393Q455 349 489.5 381Q524 413 524 479Q524 536 493 569Q462 602 395 602ZM104 0V700H405Q524 700 582.5 643Q641 586 641 483Q641 402 607 349.5Q573 297 510 273L651 0H523L394 252H220V0Z" glyph-name="Rcaron" horiz-adv-x="690" unicode="&#344;" /><glyph d="M104 0ZM311 -307 290 -261Q320 -253 337.5 -232.5Q355 -212 360 -183Q325 -184 306.5 -168Q288 -152 288 -122Q288 -91 305.5 -76Q323 -61 354 -61Q387 -61 406 -81.5Q425 -102 425 -148Q425 -206 396 -250Q367 -294 311 -307ZM395 602H220V349H393Q455 349 489.5 381Q524 413 524 479Q524 536 493 569Q462 602 395 602ZM104 0V700H405Q524 700 582.5 643Q641 586 641 483Q641 402 607 349.5Q573 297 510 273L651 0H523L394 252H220V0Z" glyph-name="Rcommaaccent" horiz-adv-x="690" unicode="&#342;" /><glyph d="M561 586 475 529Q448 577 410.5 600Q373 623 310 623Q272 623 245 615Q218 607 201 593Q184 579 176 560.5Q168 542 168 521Q168 485 194 456.5Q220 428 292 412L355 398Q472 372 524.5 323.5Q577 275 577 197Q577 98 506.5 42.5Q436 -13 305 -13Q219 -13 147.5 17.5Q76 48 32 122L117 181Q153 123 196.5 99Q240 75 308 75Q389 75 426.5 103.5Q464 132 464 185Q464 206 457.5 222.5Q451 239 436 251.5Q421 264 395.5 273.5Q370 283 333 292L269 307Q213 320 173 340Q133 360 108 386Q83 412 71.5 443.5Q60 475 60 511Q60 557 77 594Q94 631 126.5 657.5Q159 684 205 698.5Q251 713 309 713Q403 713 463.5 682.5Q524 652 561 586Z" glyph-name="S" horiz-adv-x="632" unicode="S" /><glyph d="M32 0ZM470 900 350 783H259V787L337 906H470ZM561 586 475 529Q448 577 410.5 600Q373 623 310 623Q272 623 245 615Q218 607 201 593Q184 579 176 560.5Q168 542 168 521Q168 485 194 456.5Q220 428 292 412L355 398Q472 372 524.5 323.5Q577 275 577 197Q577 98 506.5 42.5Q436 -13 305 -13Q219 -13 147.5 17.5Q76 48 32 122L117 181Q153 123 196.5 99Q240 75 308 75Q389 75 426.5 103.5Q464 132 464 185Q464 206 457.5 222.5Q451 239 436 251.5Q421 264 395.5 273.5Q370 283 333 292L269 307Q213 320 173 340Q133 360 108 386Q83 412 71.5 443.5Q60 475 60 511Q60 557 77 594Q94 631 126.5 657.5Q159 684 205 698.5Q251 713 309 713Q403 713 463.5 682.5Q524 652 561 586Z" glyph-name="Sacute" horiz-adv-x="632" unicode="&#346;" /><glyph d="M32 0ZM313 843 381 906H486V904L362 783H261L139 904V906H248ZM561 586 475 529Q448 577 410.5 600Q373 623 310 623Q272 623 245 615Q218 607 201 593Q184 579 176 560.5Q168 542 168 521Q168 485 194 456.5Q220 428 292 412L355 398Q472 372 524.5 323.5Q577 275 577 197Q577 98 506.5 42.5Q436 -13 305 -13Q219 -13 147.5 17.5Q76 48 32 122L117 181Q153 123 196.5 99Q240 75 308 75Q389 75 426.5 103.5Q464 132 464 185Q464 206 457.5 222.5Q451 239 436 251.5Q421 264 395.5 273.5Q370 283 333 292L269 307Q213 320 173 340Q133 360 108 386Q83 412 71.5 443.5Q60 475 60 511Q60 557 77 594Q94 631 126.5 657.5Q159 684 205 698.5Q251 713 309 713Q403 713 463.5 682.5Q524 652 561 586Z" glyph-name="Scaron" horiz-adv-x="632" unicode="&#352;" /><glyph d="M304 -242Q263 -242 230 -227Q197 -212 177 -179L224 -134Q238 -157 255 -169Q272 -181 300 -181Q323 -181 337.5 -172Q352 -163 352 -143Q352 -124 338 -113.5Q324 -103 299 -103Q293 -103 287.5 -103.5Q282 -104 276 -105L257 -90L279 -12Q201 -8 137 22.5Q73 53 32 122L117 181Q153 123 196.5 99Q240 75 308 75Q389 75 426.5 103.5Q464 132 464 185Q464 206 457.5 222.5Q451 239 436 251.5Q421 264 395.5 273.5Q370 283 333 292L269 307Q213 320 173 340Q133 360 108 386Q83 412 71.5 443.5Q60 475 60 511Q60 557 77 594Q94 631 126.5 657.5Q159 684 205 698.5Q251 713 309 713Q403 713 463.5 682.5Q524 652 561 586L475 529Q448 577 410.5 600Q373 623 310 623Q272 623 245 615Q218 607 201 593Q184 579 176 560.5Q168 542 168 521Q168 485 194 456.5Q220 428 292 412L355 398Q472 372 524.5 323.5Q577 275 577 197Q577 106 518 51.5Q459 -3 347 -11L333 -57H335Q372 -58 400 -80Q428 -102 428 -144Q428 -169 418 -187.5Q408 -206 391 -218Q374 -230 351.5 -236Q329 -242 304 -242Z" glyph-name="Scedilla" horiz-adv-x="632" unicode="&#350;" /><glyph d="M32 0ZM310 848 244 783H139V786L261 906H362L486 786V783H375ZM561 586 475 529Q448 577 410.5 600Q373 623 310 623Q272 623 245 615Q218 607 201 593Q184 579 176 560.5Q168 542 168 521Q168 485 194 456.5Q220 428 292 412L355 398Q472 372 524.5 323.5Q577 275 577 197Q577 98 506.5 42.5Q436 -13 305 -13Q219 -13 147.5 17.5Q76 48 32 122L117 181Q153 123 196.5 99Q240 75 308 75Q389 75 426.5 103.5Q464 132 464 185Q464 206 457.5 222.5Q451 239 436 251.5Q421 264 395.5 273.5Q370 283 333 292L269 307Q213 320 173 340Q133 360 108 386Q83 412 71.5 443.5Q60 475 60 511Q60 557 77 594Q94 631 126.5 657.5Q159 684 205 698.5Q251 713 309 713Q403 713 463.5 682.5Q524 652 561 586Z" glyph-name="Scircumflex" horiz-adv-x="632" unicode="&#348;" /><glyph d="M32 0ZM264 -307 243 -261Q273 -253 290.5 -232.5Q308 -212 313 -183Q278 -184 259.5 -168Q241 -152 241 -122Q241 -91 258.5 -76Q276 -61 307 -61Q340 -61 359 -81.5Q378 -102 378 -148Q378 -206 349 -250Q320 -294 264 -307ZM561 586 475 529Q448 577 410.5 600Q373 623 310 623Q272 623 245 615Q218 607 201 593Q184 579 176 560.5Q168 542 168 521Q168 485 194 456.5Q220 428 292 412L355 398Q472 372 524.5 323.5Q577 275 577 197Q577 98 506.5 42.5Q436 -13 305 -13Q219 -13 147.5 17.5Q76 48 32 122L117 181Q153 123 196.5 99Q240 75 308 75Q389 75 426.5 103.5Q464 132 464 185Q464 206 457.5 222.5Q451 239 436 251.5Q421 264 395.5 273.5Q370 283 333 292L269 307Q213 320 173 340Q133 360 108 386Q83 412 71.5 443.5Q60 475 60 511Q60 557 77 594Q94 631 126.5 657.5Q159 684 205 698.5Q251 713 309 713Q403 713 463.5 682.5Q524 652 561 586Z" glyph-name="Scommaaccent" horiz-adv-x="632" unicode="&#536;" /><glyph d="M13 700H577V601H353V0H236V601H13Z" glyph-name="T" horiz-adv-x="589" unicode="T" /><glyph d="M13 700H577V601H354V386H528V306H354V0H236V306H62V386H236V601H13Z" glyph-name="Tbar" horiz-adv-x="590" unicode="&#358;" /><glyph d="M13 0ZM295 843 363 906H468V904L344 783H243L121 904V906H230ZM13 700H577V601H353V0H236V601H13Z" glyph-name="Tcaron" horiz-adv-x="589" unicode="&#356;" /><glyph d="M13 0ZM250 -307 229 -261Q259 -253 276.5 -232.5Q294 -212 299 -183Q264 -184 245.5 -168Q227 -152 227 -122Q227 -91 244.5 -76Q262 -61 293 -61Q326 -61 345 -81.5Q364 -102 364 -148Q364 -206 335 -250Q306 -294 250 -307ZM13 700H577V601H353V0H236V601H13Z" glyph-name="Tcommaaccent" horiz-adv-x="589" unicode="&#354;" /><glyph d="M104 0V700H221V578H398Q515 578 571.5 520.5Q628 463 628 361Q628 249 563.5 192Q499 135 384 135H221V0ZM388 478H221V233H388Q447 233 479.5 263.5Q512 294 512 357Q512 413 482.5 445.5Q453 478 388 478Z" glyph-name="Thorn" horiz-adv-x="667" unicode="&#222;" /><glyph d="M556 273V700H673V279Q673 131 595 59Q517 -13 380 -13Q239 -13 162.5 59Q86 131 86 279V700H203V273Q203 223 215.5 187Q228 151 251 128Q274 105 306.5 94Q339 83 380 83Q461 83 508.5 127.5Q556 172 556 273Z" glyph-name="U" horiz-adv-x="759" unicode="U" /><glyph d="M86 0ZM539 900 419 783H328V787L406 906H539ZM556 273V700H673V279Q673 131 595 59Q517 -13 380 -13Q239 -13 162.5 59Q86 131 86 279V700H203V273Q203 223 215.5 187Q228 151 251 128Q274 105 306.5 94Q339 83 380 83Q461 83 508.5 127.5Q556 172 556 273Z" glyph-name="Uacute" horiz-adv-x="759" unicode="&#218;" /><glyph d="M86 0ZM556 273V700H673V279Q673 131 595 59Q517 -13 380 -13Q239 -13 162.5 59Q86 131 86 279V700H203V273Q203 223 215.5 187Q228 151 251 128Q274 105 306.5 94Q339 83 380 83Q461 83 508.5 127.5Q556 172 556 273ZM455 906H533Q533 869 522.5 844Q512 819 492 804Q472 789 444 783Q416 777 380 777Q308 777 267.5 804.5Q227 832 227 906H304Q304 868 322.5 854Q341 840 379 840Q417 840 436 854Q455 868 455 906Z" glyph-name="Ubreve" horiz-adv-x="759" unicode="&#364;" /><glyph d="M86 0ZM380 848 314 783H209V786L331 906H432L556 786V783H445ZM556 273V700H673V279Q673 131 595 59Q517 -13 380 -13Q239 -13 162.5 59Q86 131 86 279V700H203V273Q203 223 215.5 187Q228 151 251 128Q274 105 306.5 94Q339 83 380 83Q461 83 508.5 127.5Q556 172 556 273Z" glyph-name="Ucircumflex" horiz-adv-x="759" unicode="&#219;" /><glyph d="M86 0ZM406 850Q406 882 424 897.5Q442 913 474 913Q506 913 524 897.5Q542 882 542 850Q542 818 524 802Q506 786 474 786Q442 786 424 802Q406 818 406 850ZM219 850Q219 882 237 897.5Q255 913 287 913Q319 913 337 897.5Q355 882 355 850Q355 818 337 802Q319 786 287 786Q255 786 237 802Q219 818 219 850ZM556 273V700H673V279Q673 131 595 59Q517 -13 380 -13Q239 -13 162.5 59Q86 131 86 279V700H203V273Q203 223 215.5 187Q228 151 251 128Q274 105 306.5 94Q339 83 380 83Q461 83 508.5 127.5Q556 172 556 273Z" glyph-name="Udieresis" horiz-adv-x="759" unicode="&#220;" /><glyph d="M86 0ZM556 273V700H673V279Q673 131 595 59Q517 -13 380 -13Q239 -13 162.5 59Q86 131 86 279V700H203V273Q203 223 215.5 187Q228 151 251 128Q274 105 306.5 94Q339 83 380 83Q461 83 508.5 127.5Q556 172 556 273ZM344 785 224 902V908H358L436 789V785Z" glyph-name="Ugrave" horiz-adv-x="759" unicode="&#217;" /><glyph d="M86 0ZM556 273V700H673V279Q673 131 595 59Q517 -13 380 -13Q239 -13 162.5 59Q86 131 86 279V700H203V273Q203 223 215.5 187Q228 151 251 128Q274 105 306.5 94Q339 83 380 83Q461 83 508.5 127.5Q556 172 556 273ZM611 900 487 783H400V787L478 906H611ZM436 900 337 783H253V787L317 906H436Z" glyph-name="Uhungarumlaut" horiz-adv-x="759" unicode="&#368;" /><glyph d="M86 0ZM556 273V700H673V279Q673 131 595 59Q517 -13 380 -13Q239 -13 162.5 59Q86 131 86 279V700H203V273Q203 223 215.5 187Q228 151 251 128Q274 105 306.5 94Q339 83 380 83Q461 83 508.5 127.5Q556 172 556 273ZM514 876V807H247V876Z" glyph-name="Umacron" horiz-adv-x="759" unicode="&#362;" /><glyph d="M346 -99Q346 -73 354.5 -51Q363 -29 377 -12H372Q236 -9 161.5 62.5Q87 134 87 279V700H204V273Q204 223 216.5 187Q229 151 252 128Q275 105 307.5 94.5Q340 84 380 84Q421 84 453.5 94.5Q486 105 509 128Q532 151 544.5 187Q557 223 557 273V700H674V279Q674 162 624 94.5Q574 27 485 0Q453 -11 437 -35Q421 -59 421 -85Q421 -120 438 -133.5Q455 -147 481 -147Q516 -147 548 -129L564 -194Q544 -206 521.5 -212Q499 -218 472 -218Q448 -218 425.5 -212Q403 -206 385.5 -192.5Q368 -179 357 -156Q346 -133 346 -99Z" glyph-name="Uogonek" horiz-adv-x="760" unicode="&#370;" /><glyph d="M86 0ZM277 855Q277 901 306.5 927Q336 953 381 953Q426 953 454.5 927Q483 901 483 855Q483 809 454 783.5Q425 758 380 758Q335 758 306 783.5Q277 809 277 855ZM333 855Q333 833 346 819Q359 805 380 805Q400 805 414 819Q428 833 428 855Q428 878 414.5 891.5Q401 905 381 905Q359 905 346 891.5Q333 878 333 855ZM556 273V700H673V279Q673 131 595 59Q517 -13 380 -13Q239 -13 162.5 59Q86 131 86 279V700H203V273Q203 223 215.5 187Q228 151 251 128Q274 105 306.5 94Q339 83 380 83Q461 83 508.5 127.5Q556 172 556 273Z" glyph-name="Uring" horiz-adv-x="759" unicode="&#366;" /><glyph d="M86 0ZM556 273V700H673V279Q673 131 595 59Q517 -13 380 -13Q239 -13 162.5 59Q86 131 86 279V700H203V273Q203 223 215.5 187Q228 151 251 128Q274 105 306.5 94Q339 83 380 83Q461 83 508.5 127.5Q556 172 556 273ZM470 900H546Q549 869 541 848Q533 827 519.5 814.5Q506 802 488 796.5Q470 791 453 791Q431 791 412.5 797Q394 803 378 810.5Q362 818 347.5 824Q333 830 319 830Q301 830 295.5 819Q290 808 290 794H214Q212 825 219.5 846Q227 867 240.5 879.5Q254 892 271.5 897.5Q289 903 306 903Q328 903 347 897Q366 891 382.5 883.5Q399 876 413.5 870Q428 864 442 864Q460 864 465 875Q470 886 470 900Z" glyph-name="Utilde" horiz-adv-x="759" unicode="&#360;" /><glyph d="M7 700H130L322 116L516 700H635L392 0H250Z" glyph-name="V" horiz-adv-x="642" unicode="V" /><glyph d="M413 698H522L667 165L812 700H926L723 0H610L465 534L321 0H209L7 700H126L268 163Z" glyph-name="W" horiz-adv-x="932" unicode="W" /><glyph d="M7 0ZM625 899 505 782H414V786L492 905H625ZM413 698H522L667 165L812 700H926L723 0H610L465 534L321 0H209L7 700H126L268 163Z" glyph-name="Wacute" horiz-adv-x="932" unicode="&#7810;" /><glyph d="M7 0ZM466 848 400 783H295V786L417 906H518L642 786V783H531ZM413 698H522L667 165L812 700H926L723 0H610L465 534L321 0H209L7 700H126L268 163Z" glyph-name="Wcircumflex" horiz-adv-x="932" unicode="&#372;" /><glyph d="M7 0ZM491 849Q491 881 509 896.5Q527 912 559 912Q591 912 609 896.5Q627 881 627 849Q627 817 609 801Q591 785 559 785Q527 785 509 801Q491 817 491 849ZM304 849Q304 881 322 896.5Q340 912 372 912Q404 912 422 896.5Q440 881 440 849Q440 817 422 801Q404 785 372 785Q340 785 322 801Q304 817 304 849ZM413 698H522L667 165L812 700H926L723 0H610L465 534L321 0H209L7 700H126L268 163Z" glyph-name="Wdieresis" horiz-adv-x="932" unicode="&#7812;" /><glyph d="M7 0ZM413 698H522L667 165L812 700H926L723 0H610L465 534L321 0H209L7 700H126L268 163ZM429 784 309 901V907H443L521 788V784Z" glyph-name="Wgrave" horiz-adv-x="932" unicode="&#7808;" /><glyph d="M508 0 324 272 140 0H12L259 357L27 700H163L334 439L503 700H631L397 359L646 0Z" glyph-name="X" horiz-adv-x="657" unicode="X" /><glyph d="M260 273 9 700H137L322 372L505 700H628L377 271V0H260Z" glyph-name="Y" horiz-adv-x="637" unicode="Y" /><glyph d="M9 0ZM260 273 9 700H137L322 372L505 700H628L377 271V0H260ZM478 900 358 783H267V787L345 906H478Z" glyph-name="Yacute" horiz-adv-x="637" unicode="&#221;" /><glyph d="M9 0ZM260 273 9 700H137L322 372L505 700H628L377 271V0H260ZM319 848 253 783H148V786L270 906H371L495 786V783H384Z" glyph-name="Ycircumflex" horiz-adv-x="637" unicode="&#374;" /><glyph d="M9 0ZM260 273 9 700H137L322 372L505 700H628L377 271V0H260ZM344 850Q344 882 362 897.5Q380 913 412 913Q444 913 462 897.5Q480 882 480 850Q480 818 462 802Q444 786 412 786Q380 786 362 802Q344 818 344 850ZM157 850Q157 882 175 897.5Q193 913 225 913Q257 913 275 897.5Q293 882 293 850Q293 818 275 802Q257 786 225 786Q193 786 175 802Q157 818 157 850Z" glyph-name="Ydieresis" horiz-adv-x="637" unicode="&#376;" /><glyph d="M20 0V80L421 605L42 603V700H562V620L160 95L566 97V0Z" glyph-name="Z" horiz-adv-x="586" unicode="Z" /><glyph d="M20 0ZM452 900 332 783H241V787L319 906H452ZM20 0V80L421 605L42 603V700H562V620L160 95L566 97V0Z" glyph-name="Zacute" horiz-adv-x="586" unicode="&#377;" /><glyph d="M20 0ZM294 843 362 906H467V904L343 783H242L120 904V906H229ZM20 0V80L421 605L42 603V700H562V620L160 95L566 97V0Z" glyph-name="Zcaron" horiz-adv-x="586" unicode="&#381;" /><glyph d="M20 0ZM20 0V80L421 605L42 603V700H562V620L160 95L566 97V0ZM224 850Q224 882 243 897.5Q262 913 295 913Q327 913 345.5 897.5Q364 882 364 850Q364 818 345.5 802Q327 786 295 786Q262 786 243 802Q224 818 224 850Z" glyph-name="Zdotaccent" horiz-adv-x="586" unicode="&#379;" /><glyph d="M251 68Q312 68 349 107.5Q386 147 387 220V225H277Q214 225 186.5 204.5Q159 184 159 140Q159 106 181 87Q203 68 251 68ZM221 -12Q146 -12 99.5 25.5Q53 63 53 134Q53 170 65.5 200.5Q78 231 104.5 252.5Q131 274 172 286.5Q213 299 270 299H387Q385 366 354 391Q323 416 265 416Q213 416 179.5 399Q146 382 123 354L71 420Q133 503 279 503Q327 503 367.5 493Q408 483 437 459Q466 435 482 395.5Q498 356 498 298V0H402L393 82Q370 38 327 13Q284 -12 221 -12Z" glyph-name="a" horiz-adv-x="576" unicode="a" /><glyph d="M423 246Q423 291 413 323Q403 355 385 376Q367 397 342.5 406.5Q318 416 290 416Q225 416 193.5 375Q162 334 162 244Q162 156 194 115.5Q226 75 290 75Q318 75 342.5 85Q367 95 385 115.5Q403 136 413 168.5Q423 201 423 246ZM435 0 428 84Q404 36 360.5 11.5Q317 -13 258 -13Q159 -13 105 52.5Q51 118 51 244Q51 373 108.5 438Q166 503 269 503Q325 503 366 480.5Q407 458 431 412L441 491H534V0Z" glyph-name="a.school" horiz-adv-x="618" /><glyph d="M53 0ZM251 68Q312 68 349 107.5Q386 147 387 220V225H277Q214 225 186.5 204.5Q159 184 159 140Q159 106 181 87Q203 68 251 68ZM221 -12Q146 -12 99.5 25.5Q53 63 53 134Q53 170 65.5 200.5Q78 231 104.5 252.5Q131 274 172 286.5Q213 299 270 299H387Q385 366 354 391Q323 416 265 416Q213 416 179.5 399Q146 382 123 354L71 420Q133 503 279 503Q327 503 367.5 493Q408 483 437 459Q466 435 482 395.5Q498 356 498 298V0H402L393 82Q370 38 327 13Q284 -12 221 -12ZM435 690 315 573H224V577L302 696H435Z" glyph-name="aacute" horiz-adv-x="576" unicode="&#225;" /><glyph d="M51 0ZM423 246Q423 291 413 323Q403 355 385 376Q367 397 342.5 406.5Q318 416 290 416Q225 416 193.5 375Q162 334 162 244Q162 156 194 115.5Q226 75 290 75Q318 75 342.5 85Q367 95 385 115.5Q403 136 413 168.5Q423 201 423 246ZM435 0 428 84Q404 36 360.5 11.5Q317 -13 258 -13Q159 -13 105 52.5Q51 118 51 244Q51 373 108.5 438Q166 503 269 503Q325 503 366 480.5Q407 458 431 412L441 491H534V0ZM446 690 326 573H235V577L313 696H446Z" glyph-name="aacute.school" horiz-adv-x="618" /><glyph d="M53 0ZM251 68Q312 68 349 107.5Q386 147 387 220V225H277Q214 225 186.5 204.5Q159 184 159 140Q159 106 181 87Q203 68 251 68ZM221 -12Q146 -12 99.5 25.5Q53 63 53 134Q53 170 65.5 200.5Q78 231 104.5 252.5Q131 274 172 286.5Q213 299 270 299H387Q385 366 354 391Q323 416 265 416Q213 416 179.5 399Q146 382 123 354L71 420Q133 503 279 503Q327 503 367.5 493Q408 483 437 459Q466 435 482 395.5Q498 356 498 298V0H402L393 82Q370 38 327 13Q284 -12 221 -12ZM351 696H429Q429 659 418.5 634Q408 609 388 594Q368 579 340 573Q312 567 276 567Q204 567 163.5 594.5Q123 622 123 696H200Q200 658 218.5 644Q237 630 275 630Q313 630 332 644Q351 658 351 696Z" glyph-name="abreve" horiz-adv-x="576" unicode="&#259;" /><glyph d="M51 0ZM423 246Q423 291 413 323Q403 355 385 376Q367 397 342.5 406.5Q318 416 290 416Q225 416 193.5 375Q162 334 162 244Q162 156 194 115.5Q226 75 290 75Q318 75 342.5 85Q367 95 385 115.5Q403 136 413 168.5Q423 201 423 246ZM435 0 428 84Q404 36 360.5 11.5Q317 -13 258 -13Q159 -13 105 52.5Q51 118 51 244Q51 373 108.5 438Q166 503 269 503Q325 503 366 480.5Q407 458 431 412L441 491H534V0ZM362 696H440Q440 659 429.5 634Q419 609 399 594Q379 579 351 573Q323 567 287 567Q215 567 174.5 594.5Q134 622 134 696H211Q211 658 229.5 644Q248 630 286 630Q324 630 343 644Q362 658 362 696Z" glyph-name="abreve.school" horiz-adv-x="618" /><glyph d="M53 0ZM251 68Q312 68 349 107.5Q386 147 387 220V225H277Q214 225 186.5 204.5Q159 184 159 140Q159 106 181 87Q203 68 251 68ZM221 -12Q146 -12 99.5 25.5Q53 63 53 134Q53 170 65.5 200.5Q78 231 104.5 252.5Q131 274 172 286.5Q213 299 270 299H387Q385 366 354 391Q323 416 265 416Q213 416 179.5 399Q146 382 123 354L71 420Q133 503 279 503Q327 503 367.5 493Q408 483 437 459Q466 435 482 395.5Q498 356 498 298V0H402L393 82Q370 38 327 13Q284 -12 221 -12ZM276 638 210 573H105V576L227 696H328L452 576V573H341Z" glyph-name="acircumflex" horiz-adv-x="576" unicode="&#226;" /><glyph d="M51 0ZM287 638 221 573H116V576L238 696H339L463 576V573H352ZM423 246Q423 291 413 323Q403 355 385 376Q367 397 342.5 406.5Q318 416 290 416Q225 416 193.5 375Q162 334 162 244Q162 156 194 115.5Q226 75 290 75Q318 75 342.5 85Q367 95 385 115.5Q403 136 413 168.5Q423 201 423 246ZM435 0 428 84Q404 36 360.5 11.5Q317 -13 258 -13Q159 -13 105 52.5Q51 118 51 244Q51 373 108.5 438Q166 503 269 503Q325 503 366 480.5Q407 458 431 412L441 491H534V0Z" glyph-name="acircumflex.school" horiz-adv-x="618" /><glyph d="M448 690 328 573H237V577L315 696H448Z" glyph-name="acute" horiz-adv-x="600" unicode="&#180;" /><glyph d="M53 0ZM251 68Q312 68 349 107.5Q386 147 387 220V225H277Q214 225 186.5 204.5Q159 184 159 140Q159 106 181 87Q203 68 251 68ZM221 -12Q146 -12 99.5 25.5Q53 63 53 134Q53 170 65.5 200.5Q78 231 104.5 252.5Q131 274 172 286.5Q213 299 270 299H387Q385 366 354 391Q323 416 265 416Q213 416 179.5 399Q146 382 123 354L71 420Q133 503 279 503Q327 503 367.5 493Q408 483 437 459Q466 435 482 395.5Q498 356 498 298V0H402L393 82Q370 38 327 13Q284 -12 221 -12ZM301 640Q301 672 319 687.5Q337 703 369 703Q401 703 419 687.5Q437 672 437 640Q437 608 419 592Q401 576 369 576Q337 576 319 592Q301 608 301 640ZM114 640Q114 672 132 687.5Q150 703 182 703Q214 703 232 687.5Q250 672 250 640Q250 608 232 592Q214 576 182 576Q150 576 132 592Q114 608 114 640Z" glyph-name="adieresis" horiz-adv-x="576" unicode="&#228;" /><glyph d="M51 0ZM313 640Q313 672 331 687.5Q349 703 381 703Q413 703 431 687.5Q449 672 449 640Q449 608 431 592Q413 576 381 576Q349 576 331 592Q313 608 313 640ZM126 640Q126 672 144 687.5Q162 703 194 703Q226 703 244 687.5Q262 672 262 640Q262 608 244 592Q226 576 194 576Q162 576 144 592Q126 608 126 640ZM423 246Q423 291 413 323Q403 355 385 376Q367 397 342.5 406.5Q318 416 290 416Q225 416 193.5 375Q162 334 162 244Q162 156 194 115.5Q226 75 290 75Q318 75 342.5 85Q367 95 385 115.5Q403 136 413 168.5Q423 201 423 246ZM435 0 428 84Q404 36 360.5 11.5Q317 -13 258 -13Q159 -13 105 52.5Q51 118 51 244Q51 373 108.5 438Q166 503 269 503Q325 503 366 480.5Q407 458 431 412L441 491H534V0Z" glyph-name="adieresis.school" horiz-adv-x="618" /><glyph d="M225 -12Q149 -12 101 25.5Q53 63 53 134Q53 169 65.5 198.5Q78 228 104.5 249.5Q131 271 172 283Q213 295 270 295H387Q386 330 378 353.5Q370 377 354.5 391Q339 405 316.5 410.5Q294 416 265 416Q214 416 180 399.5Q146 383 123 354L71 420Q133 503 278 503Q335 503 379.5 486Q424 469 450 427Q509 503 629 503Q685 503 726 485Q767 467 793.5 435Q820 403 832.5 360Q845 317 845 268Q845 256 844.5 244.5Q844 233 842 220H496Q499 139 534 105Q569 71 634 71Q682 71 714 87Q746 103 766 148L842 105Q812 44 757.5 15.5Q703 -13 628 -13Q558 -13 508 12.5Q458 38 430 92Q404 44 352.5 16Q301 -12 225 -12ZM625 419Q571 419 538 390.5Q505 362 498 295H738Q734 363 705.5 391Q677 419 625 419ZM251 68Q311 68 349 108Q387 148 387 220H277Q214 220 186.5 200Q159 180 159 136Q159 104 181 86Q203 68 251 68Z" glyph-name="ae" horiz-adv-x="893" unicode="&#230;" /><glyph d="M53 0ZM251 68Q312 68 349 107.5Q386 147 387 220V225H277Q214 225 186.5 204.5Q159 184 159 140Q159 106 181 87Q203 68 251 68ZM221 -12Q146 -12 99.5 25.5Q53 63 53 134Q53 170 65.5 200.5Q78 231 104.5 252.5Q131 274 172 286.5Q213 299 270 299H387Q385 366 354 391Q323 416 265 416Q213 416 179.5 399Q146 382 123 354L71 420Q133 503 279 503Q327 503 367.5 493Q408 483 437 459Q466 435 482 395.5Q498 356 498 298V0H402L393 82Q370 38 327 13Q284 -12 221 -12ZM239 573 119 690V696H253L331 577V573Z" glyph-name="agrave" horiz-adv-x="576" unicode="&#224;" /><glyph d="M51 0ZM423 246Q423 291 413 323Q403 355 385 376Q367 397 342.5 406.5Q318 416 290 416Q225 416 193.5 375Q162 334 162 244Q162 156 194 115.5Q226 75 290 75Q318 75 342.5 85Q367 95 385 115.5Q403 136 413 168.5Q423 201 423 246ZM435 0 428 84Q404 36 360.5 11.5Q317 -13 258 -13Q159 -13 105 52.5Q51 118 51 244Q51 373 108.5 438Q166 503 269 503Q325 503 366 480.5Q407 458 431 412L441 491H534V0ZM251 575 131 692V698H265L343 579V575Z" glyph-name="agrave.school" horiz-adv-x="618" /><glyph d="M53 0ZM251 68Q312 68 349 107.5Q386 147 387 220V225H277Q214 225 186.5 204.5Q159 184 159 140Q159 106 181 87Q203 68 251 68ZM221 -12Q146 -12 99.5 25.5Q53 63 53 134Q53 170 65.5 200.5Q78 231 104.5 252.5Q131 274 172 286.5Q213 299 270 299H387Q385 366 354 391Q323 416 265 416Q213 416 179.5 399Q146 382 123 354L71 420Q133 503 279 503Q327 503 367.5 493Q408 483 437 459Q466 435 482 395.5Q498 356 498 298V0H402L393 82Q370 38 327 13Q284 -12 221 -12ZM410 666V597H143V666Z" glyph-name="amacron" horiz-adv-x="576" unicode="&#257;" /><glyph d="M51 0ZM423 246Q423 291 413 323Q403 355 385 376Q367 397 342.5 406.5Q318 416 290 416Q225 416 193.5 375Q162 334 162 244Q162 156 194 115.5Q226 75 290 75Q318 75 342.5 85Q367 95 385 115.5Q403 136 413 168.5Q423 201 423 246ZM435 0 428 84Q404 36 360.5 11.5Q317 -13 258 -13Q159 -13 105 52.5Q51 118 51 244Q51 373 108.5 438Q166 503 269 503Q325 503 366 480.5Q407 458 431 412L441 491H534V0ZM422 666V597H155V666Z" glyph-name="amacron.school" horiz-adv-x="618" /><glyph d="M564 479H664Q664 374 643.5 290Q623 206 584 144Q613 124 643 104Q673 84 708 63L656 -15Q623 6 585 29.5Q547 53 520 72Q474 30 414 8.5Q354 -13 279 -13Q227 -13 182 -2Q137 9 104 32Q71 55 52.5 90.5Q34 126 34 175Q34 214 45 243Q56 272 75 295.5Q94 319 119 337.5Q144 356 172 374Q130 431 115 475Q100 519 100 551Q100 629 149.5 671Q199 713 296 713Q387 713 428.5 677Q470 641 470 575Q470 540 459 511Q448 482 428 456.5Q408 431 378 407.5Q348 384 311 360Q377 290 504 198Q534 249 550 319Q566 389 564 479ZM199 548Q199 525 210 494.5Q221 464 253 423Q284 443 307 460Q330 477 344.5 493Q359 509 366 525Q373 541 373 561Q373 631 291 631Q244 631 221.5 609Q199 587 199 548ZM286 71Q377 71 440 128Q369 180 317.5 224.5Q266 269 229 309Q209 296 192.5 283Q176 270 164 255Q152 240 145.5 222Q139 204 139 182Q139 131 176.5 101Q214 71 286 71Z" glyph-name="ampersand" horiz-adv-x="716" unicode="&amp;" /><glyph d="M541 -194Q500 -218 449 -218Q425 -218 402.5 -213Q380 -208 362 -195Q344 -182 333.5 -161.5Q323 -141 323 -109Q323 -64 345 -31.5Q367 1 400 19L393 82Q370 38 327 13Q284 -12 221 -12Q146 -12 99.5 25.5Q53 63 53 134Q53 170 65.5 200.5Q78 231 104.5 252.5Q131 274 172 286.5Q213 299 270 299H387Q385 366 354 391Q323 416 265 416Q213 416 179.5 399Q146 382 123 354L71 420Q133 503 279 503Q327 503 367.5 493Q408 483 437 459Q466 435 482 395.5Q498 356 498 298V0H492Q444 -4 421 -33.5Q398 -63 398 -97Q398 -125 414 -136Q430 -147 458 -147Q496 -147 524 -130ZM251 68Q312 68 349 107.5Q386 147 387 220V225H277Q214 225 186.5 204.5Q159 184 159 140Q159 106 181 87Q203 68 251 68Z" glyph-name="aogonek" horiz-adv-x="576" unicode="&#261;" /><glyph d="M436 15 429 82Q405 34 361.5 10.5Q318 -13 258 -13Q159 -13 105 52Q51 117 51 244Q51 374 108 438.5Q165 503 268 503Q325 503 366.5 480.5Q408 458 431 413L441 491H534V0Q485 -4 460.5 -33.5Q436 -63 436 -97Q436 -125 452.5 -136Q469 -147 496 -147Q514 -147 531 -143Q548 -139 563 -130L579 -194Q540 -218 488 -218Q464 -218 441 -213Q418 -208 400.5 -195Q383 -182 372 -161.5Q361 -141 361 -109Q361 -64 383 -33Q405 -2 436 15ZM423 246Q423 336 385.5 376Q348 416 290 416Q225 416 193.5 375Q162 334 162 244Q162 156 194 115.5Q226 75 290 75Q348 75 385.5 115.5Q423 156 423 246Z" glyph-name="aogonek.school" horiz-adv-x="618" /><glyph d="M348 402Q358 402 371.5 403.5Q385 405 400 408Q415 411 429.5 416.5Q444 422 457 431V351Q435 338 402 331.5Q369 325 340 325Q313 325 291 330.5Q269 336 248.5 342Q228 348 207.5 353.5Q187 359 162 359Q141 359 109 353.5Q77 348 50 331V411Q73 424 104.5 430Q136 436 165 436Q193 436 215.5 430.5Q238 425 259 419Q280 413 301.5 407.5Q323 402 348 402ZM348 251Q358 251 371.5 252.5Q385 254 400 257Q415 260 429.5 265.5Q444 271 457 280V201Q435 188 402 181.5Q369 175 340 175Q313 175 291 180.5Q269 186 248.5 192Q228 198 207.5 203.5Q187 209 162 209Q141 209 109 203.5Q77 198 50 181V260Q73 273 104.5 279Q136 285 165 285Q193 285 215.5 279.5Q238 274 259 268Q280 262 301.5 256.5Q323 251 348 251Z" glyph-name="approxequal" horiz-adv-x="507" unicode="&#8776;" /><glyph d="M53 0ZM251 68Q312 68 349 107.5Q386 147 387 220V225H277Q214 225 186.5 204.5Q159 184 159 140Q159 106 181 87Q203 68 251 68ZM221 -12Q146 -12 99.5 25.5Q53 63 53 134Q53 170 65.5 200.5Q78 231 104.5 252.5Q131 274 172 286.5Q213 299 270 299H387Q385 366 354 391Q323 416 265 416Q213 416 179.5 399Q146 382 123 354L71 420Q133 503 279 503Q327 503 367.5 493Q408 483 437 459Q466 435 482 395.5Q498 356 498 298V0H402L393 82Q370 38 327 13Q284 -12 221 -12ZM173 645Q173 691 202.5 717Q232 743 277 743Q322 743 350.5 717Q379 691 379 645Q379 599 350 573.5Q321 548 276 548Q231 548 202 573.5Q173 599 173 645ZM229 645Q229 623 242 609Q255 595 276 595Q296 595 310 609Q324 623 324 645Q324 668 310.5 681.5Q297 695 277 695Q255 695 242 681.5Q229 668 229 645Z" glyph-name="aring" horiz-adv-x="576" unicode="&#229;" /><glyph d="M51 0ZM423 246Q423 291 413 323Q403 355 385 376Q367 397 342.5 406.5Q318 416 290 416Q225 416 193.5 375Q162 334 162 244Q162 156 194 115.5Q226 75 290 75Q318 75 342.5 85Q367 95 385 115.5Q403 136 413 168.5Q423 201 423 246ZM435 0 428 84Q404 36 360.5 11.5Q317 -13 258 -13Q159 -13 105 52.5Q51 118 51 244Q51 373 108.5 438Q166 503 269 503Q325 503 366 480.5Q407 458 431 412L441 491H534V0ZM184 645Q184 691 213.5 717Q243 743 288 743Q333 743 361.5 717Q390 691 390 645Q390 599 361 573.5Q332 548 287 548Q242 548 213 573.5Q184 599 184 645ZM240 645Q240 623 253 609Q266 595 287 595Q307 595 321 609Q335 623 335 645Q335 668 321.5 681.5Q308 695 288 695Q266 695 253 681.5Q240 668 240 645Z" glyph-name="aring.school" horiz-adv-x="618" /><glyph d="M174 700H282L430 379V377H325L227 603L126 377H25V379Z" glyph-name="asciicircum" horiz-adv-x="455" unicode="^" /><glyph d="M431 418 519 406Q514 335 476 299.5Q438 264 379 264Q347 264 317 275Q287 286 260 299Q237 310 215.5 318.5Q194 327 172 327Q149 327 132.5 312Q116 297 114 265L26 278Q31 350 69.5 385Q108 420 168 420Q202 420 231 409Q260 398 287 385Q310 374 331.5 366Q353 358 373 358Q397 358 413 372Q429 386 431 418Z" glyph-name="asciitilde" horiz-adv-x="543" unicode="~" /><glyph d="M130 340 60 396 144 497 25 528 48 612 167 572 160 713H257L249 572L370 612L393 528L274 497L358 396L287 340L208 449Z" glyph-name="asterisk" horiz-adv-x="425" unicode="*" /><glyph d="M683 -3Q638 -51 572 -77Q506 -103 418 -103Q335 -103 270.5 -78Q206 -53 161 -8Q116 37 92.5 100.5Q69 164 69 242Q69 319 92.5 382.5Q116 446 161 491Q206 536 270.5 560.5Q335 585 418 585Q498 585 559.5 562Q621 539 662.5 497.5Q704 456 725.5 397.5Q747 339 747 268Q747 180 706 129.5Q665 79 588 79Q550 79 524 93.5Q498 108 488 141Q472 108 441.5 90Q411 72 366 72Q315 72 283 97.5Q251 123 251 173Q251 223 287.5 252.5Q324 282 403 282H479Q477 329 455.5 345Q434 361 394 361Q359 361 335.5 350Q312 339 298 320L263 364Q306 423 404 423Q437 423 464.5 415.5Q492 408 512 391Q532 374 543 347Q554 320 554 280V188Q554 156 566.5 140.5Q579 125 608 125Q649 125 674.5 160Q700 195 700 267Q700 336 679.5 388Q659 440 621.5 474Q584 508 532.5 525Q481 542 418 542Q351 542 295.5 523Q240 504 200.5 466.5Q161 429 139 373Q117 317 117 242Q117 167 139 110.5Q161 54 201 16.5Q241 -21 296.5 -40Q352 -59 419 -59Q493 -59 552.5 -37.5Q612 -16 654 29ZM384 127Q426 127 451.5 154Q477 181 478 229V232H404Q362 232 342.5 219Q323 206 323 177Q323 127 384 127Z" glyph-name="at" horiz-adv-x="817" unicode="@" /><glyph d="M69 5ZM683 105Q638 57 572 31Q506 5 418 5Q335 5 270.5 30Q206 55 161 100Q116 145 92.5 208.5Q69 272 69 350Q69 427 92.5 490.5Q116 554 161 599Q206 644 270.5 668.5Q335 693 418 693Q498 693 559.5 670Q621 647 662.5 605.5Q704 564 725.5 505.5Q747 447 747 376Q747 288 706 237.5Q665 187 588 187Q550 187 524 201.5Q498 216 488 249Q472 216 441.5 198Q411 180 366 180Q315 180 283 205.5Q251 231 251 281Q251 331 287.5 360.5Q324 390 403 390H479Q477 437 455.5 453Q434 469 394 469Q359 469 335.5 458Q312 447 298 428L263 472Q306 531 404 531Q437 531 464.5 523.5Q492 516 512 499Q532 482 543 455Q554 428 554 388V296Q554 264 566.5 248.5Q579 233 608 233Q649 233 674.5 268Q700 303 700 375Q700 444 679.5 496Q659 548 621.5 582Q584 616 532.5 633Q481 650 418 650Q351 650 295.5 631Q240 612 200.5 574.5Q161 537 139 481Q117 425 117 350Q117 275 139 218.5Q161 162 201 124.5Q241 87 296.5 68Q352 49 419 49Q493 49 552.5 70.5Q612 92 654 137ZM384 235Q426 235 451.5 262Q477 289 478 337V340H404Q362 340 342.5 327Q323 314 323 285Q323 235 384 235Z" glyph-name="at.cap" horiz-adv-x="817" /><glyph d="M53 0ZM251 68Q312 68 349 107.5Q386 147 387 220V225H277Q214 225 186.5 204.5Q159 184 159 140Q159 106 181 87Q203 68 251 68ZM221 -12Q146 -12 99.5 25.5Q53 63 53 134Q53 170 65.5 200.5Q78 231 104.5 252.5Q131 274 172 286.5Q213 299 270 299H387Q385 366 354 391Q323 416 265 416Q213 416 179.5 399Q146 382 123 354L71 420Q133 503 279 503Q327 503 367.5 493Q408 483 437 459Q466 435 482 395.5Q498 356 498 298V0H402L393 82Q370 38 327 13Q284 -12 221 -12ZM366 690H442Q445 659 437 638Q429 617 415.5 604.5Q402 592 384 586.5Q366 581 349 581Q327 581 308.5 587Q290 593 274 600.5Q258 608 243.5 614Q229 620 215 620Q197 620 191.5 609Q186 598 186 584H110Q108 615 115.5 636Q123 657 136.5 669.5Q150 682 167.5 687.5Q185 693 202 693Q224 693 243 687Q262 681 278.5 673.5Q295 666 309.5 660Q324 654 338 654Q356 654 361 665Q366 676 366 690Z" glyph-name="atilde" horiz-adv-x="576" unicode="&#227;" /><glyph d="M51 0ZM423 246Q423 291 413 323Q403 355 385 376Q367 397 342.5 406.5Q318 416 290 416Q225 416 193.5 375Q162 334 162 244Q162 156 194 115.5Q226 75 290 75Q318 75 342.5 85Q367 95 385 115.5Q403 136 413 168.5Q423 201 423 246ZM435 0 428 84Q404 36 360.5 11.5Q317 -13 258 -13Q159 -13 105 52.5Q51 118 51 244Q51 373 108.5 438Q166 503 269 503Q325 503 366 480.5Q407 458 431 412L441 491H534V0ZM377 690H453Q456 659 448 638Q440 617 426.5 604.5Q413 592 395 586.5Q377 581 360 581Q338 581 319.5 587Q301 593 285 600.5Q269 608 254.5 614Q240 620 226 620Q208 620 202.5 609Q197 598 197 584H121Q119 615 126.5 636Q134 657 147.5 669.5Q161 682 178.5 687.5Q196 693 213 693Q235 693 254 687Q273 681 289.5 673.5Q306 666 320.5 660Q335 654 349 654Q367 654 372 665Q377 676 377 690Z" glyph-name="atilde.school" horiz-adv-x="618" /><glyph d="M197 700V413Q223 459 266.5 481Q310 503 367 503Q464 503 517 439.5Q570 376 570 248Q570 123 513.5 55Q457 -13 350 -13Q295 -13 252.5 8.5Q210 30 185 75L178 0H84V700ZM196 243Q196 154 233 114Q270 74 329 74Q395 74 427 115Q459 156 459 244Q459 335 426.5 375.5Q394 416 331 416Q301 416 276.5 406Q252 396 234 375Q216 354 206 321.5Q196 289 196 243Z" glyph-name="b" horiz-adv-x="621" unicode="b" /><glyph d="M398 0 4 700H124L518 0Z" glyph-name="backslash" horiz-adv-x="530" unicode="\" /><glyph d="M101 -65V766H203V-65Z" glyph-name="bar" horiz-adv-x="304" unicode="|" /><glyph d="M308 -103Q227 -97 181.5 -61Q136 -25 136 47Q136 80 140.5 109.5Q145 139 145 168Q145 222 119 246Q93 270 39 270H8V353H39Q93 353 119 377Q145 401 145 455Q145 484 140.5 513.5Q136 543 136 576Q136 648 181.5 684Q227 720 308 726L318 639Q277 635 255.5 616Q234 597 234 555Q234 525 238.5 496.5Q243 468 243 438Q243 390 221.5 359.5Q200 329 157 312Q243 276 243 185Q243 155 238.5 126.5Q234 98 234 69Q234 27 255.5 7.5Q277 -12 318 -16Z" glyph-name="braceleft" horiz-adv-x="359" unicode="{" /><glyph d="M39 -16Q80 -12 101.5 7.5Q123 27 123 69Q123 98 118.5 126.5Q114 155 114 185Q114 276 200 312Q157 329 135.5 359.5Q114 390 114 438Q114 468 118.5 496.5Q123 525 123 555Q123 597 101.5 616Q80 635 39 639L49 726Q130 720 175.5 684Q221 648 221 576Q221 543 216.5 513.5Q212 484 212 455Q212 401 238 377Q264 353 318 353H349V270H318Q264 270 238 246Q212 222 212 168Q212 139 216.5 109.5Q221 80 221 47Q221 -25 175.5 -61Q130 -97 49 -103Z" glyph-name="braceright" horiz-adv-x="359" unicode="}" /><glyph d="M69 -122V716H308V633H171V-39H311V-122Z" glyph-name="bracketleft" horiz-adv-x="346" unicode="[" /><glyph d="M35 -122V-39H175V633H38V716H277V-122Z" glyph-name="bracketright" horiz-adv-x="346" unicode="]" /><glyph d="M375 696H453Q453 659 442.5 634Q432 609 412 594Q392 579 364 573Q336 567 300 567Q228 567 187.5 594.5Q147 622 147 696H224Q224 658 242.5 644Q261 630 299 630Q337 630 356 644Q375 658 375 696Z" glyph-name="breve" horiz-adv-x="600" unicode="&#728;" /><glyph d="M101 386V766H203V386ZM101 -65V315H203V-65Z" glyph-name="brokenbar" horiz-adv-x="304" unicode="&#166;" /><glyph d="M56 327Q56 398 98.5 441Q141 484 216 484Q291 484 333 441Q375 398 375 327Q375 255 333 212.5Q291 170 216 170Q141 170 98.5 212.5Q56 255 56 327Z" glyph-name="bullet" horiz-adv-x="431" unicode="&#8226;" /><glyph d="M291 -13Q178 -13 114.5 48Q51 109 51 245Q51 379 114.5 441Q178 503 294 503Q371 503 420.5 475.5Q470 448 499 394L420 340Q384 414 295 414Q227 414 194.5 377Q162 340 162 244Q162 153 194 114Q226 75 294 75Q342 75 373 92.5Q404 110 424 154L505 109Q476 46 422.5 16.5Q369 -13 291 -13Z" glyph-name="c" horiz-adv-x="535" unicode="c" /><glyph d="M51 0ZM452 690 332 573H241V577L319 696H452ZM291 -13Q178 -13 114.5 48Q51 109 51 245Q51 379 114.5 441Q178 503 294 503Q371 503 420.5 475.5Q470 448 499 394L420 340Q384 414 295 414Q227 414 194.5 377Q162 340 162 244Q162 153 194 114Q226 75 294 75Q342 75 373 92.5Q404 110 424 154L505 109Q476 46 422.5 16.5Q369 -13 291 -13Z" glyph-name="cacute" horiz-adv-x="535" unicode="&#263;" /><glyph d="M300 633 368 696H473V694L349 573H248L126 694V696H235Z" glyph-name="caron" horiz-adv-x="600" unicode="&#711;" /><glyph d="M334 466H259L266 701H366Z" glyph-name="caronSlovak" horiz-adv-x="600" /><glyph d="M51 0ZM295 633 363 696H468V694L344 573H243L121 694V696H230ZM291 -13Q178 -13 114.5 48Q51 109 51 245Q51 379 114.5 441Q178 503 294 503Q371 503 420.5 475.5Q470 448 499 394L420 340Q384 414 295 414Q227 414 194.5 377Q162 340 162 244Q162 153 194 114Q226 75 294 75Q342 75 373 92.5Q404 110 424 154L505 109Q476 46 422.5 16.5Q369 -13 291 -13Z" glyph-name="ccaron" horiz-adv-x="535" unicode="&#269;" /><glyph d="M285 -242Q244 -242 211 -227Q178 -212 158 -179L205 -134Q219 -157 236 -169Q253 -181 281 -181Q304 -181 318.5 -172Q333 -163 333 -143Q333 -124 319 -113.5Q305 -103 280 -103Q274 -103 268.5 -103.5Q263 -104 257 -105L238 -90L260 -12Q161 -5 106 57Q51 119 51 245Q51 379 114.5 441Q178 503 294 503Q371 503 420.5 475.5Q470 448 499 394L420 340Q384 414 295 414Q227 414 194.5 377Q162 340 162 244Q162 153 194 114Q226 75 294 75Q342 75 373 92.5Q404 110 424 154L505 109Q479 53 435 24Q391 -5 328 -11L314 -57H316Q353 -58 381 -80Q409 -102 409 -144Q409 -169 399 -187.5Q389 -206 372 -218Q355 -230 332.5 -236Q310 -242 285 -242Z" glyph-name="ccedilla" horiz-adv-x="535" unicode="&#231;" /><glyph d="M51 0ZM293 638 227 573H122V576L244 696H345L469 576V573H358ZM291 -13Q178 -13 114.5 48Q51 109 51 245Q51 379 114.5 441Q178 503 294 503Q371 503 420.5 475.5Q470 448 499 394L420 340Q384 414 295 414Q227 414 194.5 377Q162 340 162 244Q162 153 194 114Q226 75 294 75Q342 75 373 92.5Q404 110 424 154L505 109Q476 46 422.5 16.5Q369 -13 291 -13Z" glyph-name="ccircumflex" horiz-adv-x="535" unicode="&#265;" /><glyph d="M51 0ZM291 -13Q178 -13 114.5 48Q51 109 51 245Q51 379 114.5 441Q178 503 294 503Q371 503 420.5 475.5Q470 448 499 394L420 340Q384 414 295 414Q227 414 194.5 377Q162 340 162 244Q162 153 194 114Q226 75 294 75Q342 75 373 92.5Q404 110 424 154L505 109Q476 46 422.5 16.5Q369 -13 291 -13ZM225 640Q225 672 244 687.5Q263 703 296 703Q328 703 346.5 687.5Q365 672 365 640Q365 608 346.5 592Q328 576 296 576Q263 576 244 592Q225 608 225 640Z" glyph-name="cdotaccent" horiz-adv-x="535" unicode="&#267;" /><glyph d="M298 0H366L349 -57H351Q388 -58 416 -80Q444 -102 444 -144Q444 -169 434 -187.5Q424 -206 407 -218Q390 -230 367.5 -236Q345 -242 320 -242Q279 -242 246 -227Q213 -212 193 -179L240 -134Q254 -157 271 -169Q288 -181 316 -181Q339 -181 353.5 -172Q368 -163 368 -143Q368 -124 354 -113.5Q340 -103 315 -103Q309 -103 303.5 -103.5Q298 -104 292 -105L273 -90Z" glyph-name="cedilla" horiz-adv-x="600" unicode="&#184;" /><glyph d="M258 -62V12Q162 22 111 80Q60 138 60 257Q60 374 110.5 433Q161 492 258 502V578H333V503Q393 497 432.5 470.5Q472 444 497 398L422 348Q394 403 333 414V98Q367 103 389 119.5Q411 136 428 171L507 129Q481 74 437 46Q393 18 333 12V-62ZM166 256Q166 181 188.5 145Q211 109 258 100V413Q210 404 188 368Q166 332 166 256Z" glyph-name="cent" horiz-adv-x="549" unicode="&#162;" /><glyph d="M298 638 232 573H127V576L249 696H350L474 576V573H363Z" glyph-name="circumflex" horiz-adv-x="600" unicode="&#710;" /><glyph d="M50 0ZM50 60Q50 94 69 110.5Q88 127 121 127Q153 127 171.5 110.5Q190 94 190 60Q190 28 171.5 11Q153 -6 121 -6Q88 -6 69 11Q50 28 50 60ZM50 423Q50 457 69 473.5Q88 490 121 490Q153 490 171.5 473.5Q190 457 190 423Q190 391 171.5 374Q153 357 121 357Q88 357 69 374Q50 391 50 423Z" glyph-name="colon" horiz-adv-x="240" unicode=":" /><glyph d="M72 -137 50 -89Q80 -79 98 -57Q116 -35 121 -3Q86 -6 68 13Q50 32 50 61Q50 94 68.5 110.5Q87 127 118 127Q152 127 171 106Q190 85 190 36Q190 -27 161 -74.5Q132 -122 72 -137Z" glyph-name="comma" horiz-adv-x="240" unicode="," /><glyph d="M254 -307 233 -261Q263 -253 280.5 -232.5Q298 -212 303 -183Q268 -184 249.5 -168Q231 -152 231 -122Q231 -91 248.5 -76Q266 -61 297 -61Q330 -61 349 -81.5Q368 -102 368 -148Q368 -206 339 -250Q310 -294 254 -307Z" glyph-name="commaaccent" horiz-adv-x="600" unicode="&#63171;" /><glyph d="M69 350Q69 427 92.5 490.5Q116 554 160.5 599Q205 644 269.5 668.5Q334 693 417 693Q499 693 563 668.5Q627 644 671.5 599Q716 554 739.5 490.5Q763 427 763 350Q763 273 739.5 209.5Q716 146 671.5 101Q627 56 563 31Q499 6 417 6Q334 6 269.5 31Q205 56 160.5 101Q116 146 92.5 209.5Q69 273 69 350ZM117 350Q117 275 139 218.5Q161 162 200.5 124.5Q240 87 295 68.5Q350 50 417 50Q483 50 538 68.5Q593 87 632.5 124.5Q672 162 694 218.5Q716 275 716 350Q716 425 694 481Q672 537 632.5 574.5Q593 612 538 631Q483 650 417 650Q350 650 295 631Q240 612 200.5 574.5Q161 537 139 481Q117 425 117 350ZM421 171Q335 171 289.5 215Q244 259 244 353Q244 448 289 493Q334 538 422 538Q479 538 515 518Q551 498 572 460L512 419Q486 472 422 472Q372 472 348.5 444Q325 416 325 353Q325 290 349 264Q373 238 422 238Q457 238 479 250Q501 262 515 291L576 258Q555 213 515.5 192Q476 171 421 171Z" glyph-name="copyright" horiz-adv-x="832" unicode="&#169;" /><glyph d="M210 345Q130 345 84.5 388.5Q39 432 39 530Q39 625 84.5 669Q130 713 213 713Q268 713 303.5 693Q339 673 359 635L299 593Q273 646 214 646Q167 646 144.5 620.5Q122 595 122 529Q122 466 144 439Q166 412 213 412Q247 412 267.5 424.5Q288 437 302 466L364 433Q323 345 210 345Z" glyph-name="cordinal" horiz-adv-x="394" /><glyph d="M425 246Q425 291 414.5 323Q404 355 386 376Q368 397 343.5 406.5Q319 416 290 416Q225 416 193.5 375Q162 334 162 244Q162 156 194 115.5Q226 75 290 75Q319 75 344 85Q369 95 387 115.5Q405 136 415 168.5Q425 201 425 246ZM437 0 431 84Q382 -13 258 -13Q159 -13 105 52.5Q51 118 51 244Q51 372 108 437.5Q165 503 268 503Q372 503 424 427V700H537V0Z" glyph-name="d" horiz-adv-x="621" unicode="d" /><glyph d="M269 513H202L200 285H109V513H41V594H108L105 713H206L203 594H269Z" glyph-name="dagger" horiz-adv-x="311" unicode="&#8224;" /><glyph d="M41 474H110V528H41V609H108L105 713H206L202 609H269V528H201V474H269V393H202L206 285H105L108 393H41Z" glyph-name="daggerdbl" horiz-adv-x="311" unicode="&#8225;" /><glyph d="M51 0ZM691 465H616L623 700H723ZM425 246Q425 291 414.5 323Q404 355 386 376Q368 397 343.5 406.5Q319 416 290 416Q225 416 193.5 375Q162 334 162 244Q162 156 194 115.5Q226 75 290 75Q319 75 344 85Q369 95 387 115.5Q405 136 415 168.5Q425 201 425 246ZM437 0 431 84Q382 -13 258 -13Q159 -13 105 52.5Q51 118 51 244Q51 372 108 437.5Q165 503 268 503Q372 503 424 427V700H537V0Z" glyph-name="dcaron" horiz-adv-x="695" unicode="&#271;" /><glyph d="M425 246Q425 335 387 375.5Q349 416 291 416Q226 416 194 374Q162 332 162 244Q162 157 194 116Q226 75 290 75Q319 75 344 85Q369 95 387 116Q405 137 415 169Q425 201 425 246ZM610 620V553H537V0H437L431 85Q407 37 363 12Q319 -13 258 -13Q159 -13 105 52.5Q51 118 51 243Q51 371 108 436Q165 501 268 501Q374 501 424 426V553H276V620H424V700H537V620Z" glyph-name="dcroat" horiz-adv-x="636" unicode="&#273;" /><glyph d="M235 350Q147 350 99.5 400Q52 450 52 531Q52 614 99.5 663.5Q147 713 235 713Q322 713 370 663.5Q418 614 418 531Q418 490 405.5 457Q393 424 369.5 400Q346 376 312 363Q278 350 235 350ZM235 645Q187 645 158 616.5Q129 588 129 531Q129 474 158 446Q187 418 235 418Q282 418 311 446Q340 474 340 531Q340 588 311 616.5Q282 645 235 645Z" glyph-name="degree" horiz-adv-x="468" unicode="&#176;" /><glyph d="M331 640Q331 672 349 687.5Q367 703 399 703Q431 703 449 687.5Q467 672 467 640Q467 608 449 592Q431 576 399 576Q367 576 349 592Q331 608 331 640ZM144 640Q144 672 162 687.5Q180 703 212 703Q244 703 262 687.5Q280 672 280 640Q280 608 262 592Q244 576 212 576Q180 576 162 592Q144 608 144 640Z" glyph-name="dieresis" horiz-adv-x="600" unicode="&#168;" /><glyph d="M188 480Q188 510 205.5 526.5Q223 543 253 543Q283 543 301 526.5Q319 510 319 480Q319 451 301 434Q283 417 253 417Q223 417 205.5 434Q188 451 188 480ZM457 349V270H50V349ZM188 142Q188 173 205.5 189Q223 205 253 205Q283 205 301 189Q319 173 319 142Q319 113 301 96Q283 79 253 79Q223 79 205.5 96Q188 113 188 142Z" glyph-name="divide" horiz-adv-x="507" unicode="&#247;" /><glyph d="M169 512Q169 476 191 451Q213 426 265 412V596Q214 591 191.5 570Q169 549 169 512ZM440 198Q440 235 417 256Q394 277 338 293V104Q391 110 415.5 133.5Q440 157 440 198ZM265 -62V15Q195 20 138 49Q81 78 43 142L121 197Q151 153 184 131Q217 109 265 104V310Q161 335 113.5 385Q66 435 66 507Q66 582 115 629.5Q164 677 265 685V766H338V684Q471 672 530 572L449 518Q428 551 402.5 570Q377 589 338 595V394Q395 380 434.5 363Q474 346 499 323.5Q524 301 535 272Q546 243 546 206Q546 118 492 70.5Q438 23 338 15V-62Z" glyph-name="dollar" horiz-adv-x="593" unicode="$" /><glyph d="M231 640Q231 672 250 687.5Q269 703 302 703Q334 703 352.5 687.5Q371 672 371 640Q371 608 352.5 592Q334 576 302 576Q269 576 250 592Q231 608 231 640Z" glyph-name="dotaccent" horiz-adv-x="600" unicode="&#729;" /><glyph d="M86 491H199V0H86Z" glyph-name="dotlessi" horiz-adv-x="284" unicode="&#305;" /><glyph d="M86 -28V491H199V-39Q199 -132 153.5 -175Q108 -218 31 -218Q9 -218 -12.5 -214.5Q-34 -211 -57 -202L-39 -117Q-26 -122 -13.5 -125Q-1 -128 17 -128Q33 -128 46 -123.5Q59 -119 68 -107.5Q77 -96 81.5 -76.5Q86 -57 86 -28Z" glyph-name="dotlessj" horiz-adv-x="284" unicode="&#567;" /><glyph d="M273 -65V766H375V-65ZM101 -65V766H203V-65Z" glyph-name="doublebar" horiz-adv-x="476" /><glyph d="M291 -13Q178 -13 114.5 49.5Q51 112 51 244Q51 370 112.5 436.5Q174 503 291 503Q348 503 389 484.5Q430 466 457 434Q484 402 496.5 357.5Q509 313 509 262Q509 240 506 213H160Q165 135 199.5 103Q234 71 297 71Q345 71 377 87Q409 103 430 148L505 105Q476 43 421 15Q366 -13 291 -13ZM288 419Q232 419 199 389Q166 359 161 288H402Q399 357 370 388Q341 419 288 419Z" glyph-name="e" horiz-adv-x="555" unicode="e" /><glyph d="M51 0ZM444 690 324 573H233V577L311 696H444ZM291 -13Q178 -13 114.5 49.5Q51 112 51 244Q51 370 112.5 436.5Q174 503 291 503Q348 503 389 484.5Q430 466 457 434Q484 402 496.5 357.5Q509 313 509 262Q509 240 506 213H160Q165 135 199.5 103Q234 71 297 71Q345 71 377 87Q409 103 430 148L505 105Q476 43 421 15Q366 -13 291 -13ZM288 419Q232 419 199 389Q166 359 161 288H402Q399 357 370 388Q341 419 288 419Z" glyph-name="eacute" horiz-adv-x="555" unicode="&#233;" /><glyph d="M51 0ZM291 -13Q178 -13 114.5 49.5Q51 112 51 244Q51 370 112.5 436.5Q174 503 291 503Q348 503 389 484.5Q430 466 457 434Q484 402 496.5 357.5Q509 313 509 262Q509 240 506 213H160Q165 135 199.5 103Q234 71 297 71Q345 71 377 87Q409 103 430 148L505 105Q476 43 421 15Q366 -13 291 -13ZM288 419Q232 419 199 389Q166 359 161 288H402Q399 357 370 388Q341 419 288 419ZM360 696H438Q438 659 427.5 634Q417 609 397 594Q377 579 349 573Q321 567 285 567Q213 567 172.5 594.5Q132 622 132 696H209Q209 658 227.5 644Q246 630 284 630Q322 630 341 644Q360 658 360 696Z" glyph-name="ebreve" horiz-adv-x="555" unicode="&#277;" /><glyph d="M51 0ZM287 633 355 696H460V694L336 573H235L113 694V696H222ZM291 -13Q178 -13 114.5 49.5Q51 112 51 244Q51 370 112.5 436.5Q174 503 291 503Q348 503 389 484.5Q430 466 457 434Q484 402 496.5 357.5Q509 313 509 262Q509 240 506 213H160Q165 135 199.5 103Q234 71 297 71Q345 71 377 87Q409 103 430 148L505 105Q476 43 421 15Q366 -13 291 -13ZM288 419Q232 419 199 389Q166 359 161 288H402Q399 357 370 388Q341 419 288 419Z" glyph-name="ecaron" horiz-adv-x="555" unicode="&#283;" /><glyph d="M51 0ZM285 638 219 573H114V576L236 696H337L461 576V573H350ZM291 -13Q178 -13 114.5 49.5Q51 112 51 244Q51 370 112.5 436.5Q174 503 291 503Q348 503 389 484.5Q430 466 457 434Q484 402 496.5 357.5Q509 313 509 262Q509 240 506 213H160Q165 135 199.5 103Q234 71 297 71Q345 71 377 87Q409 103 430 148L505 105Q476 43 421 15Q366 -13 291 -13ZM288 419Q232 419 199 389Q166 359 161 288H402Q399 357 370 388Q341 419 288 419Z" glyph-name="ecircumflex" horiz-adv-x="555" unicode="&#234;" /><glyph d="M51 0ZM309 640Q309 672 327 687.5Q345 703 377 703Q409 703 427 687.5Q445 672 445 640Q445 608 427 592Q409 576 377 576Q345 576 327 592Q309 608 309 640ZM122 640Q122 672 140 687.5Q158 703 190 703Q222 703 240 687.5Q258 672 258 640Q258 608 240 592Q222 576 190 576Q158 576 140 592Q122 608 122 640ZM291 -13Q178 -13 114.5 49.5Q51 112 51 244Q51 370 112.5 436.5Q174 503 291 503Q348 503 389 484.5Q430 466 457 434Q484 402 496.5 357.5Q509 313 509 262Q509 240 506 213H160Q165 135 199.5 103Q234 71 297 71Q345 71 377 87Q409 103 430 148L505 105Q476 43 421 15Q366 -13 291 -13ZM288 419Q232 419 199 389Q166 359 161 288H402Q399 357 370 388Q341 419 288 419Z" glyph-name="edieresis" horiz-adv-x="555" unicode="&#235;" /><glyph d="M51 0ZM291 -13Q178 -13 114.5 49.5Q51 112 51 244Q51 370 112.5 436.5Q174 503 291 503Q348 503 389 484.5Q430 466 457 434Q484 402 496.5 357.5Q509 313 509 262Q509 240 506 213H160Q165 135 199.5 103Q234 71 297 71Q345 71 377 87Q409 103 430 148L505 105Q476 43 421 15Q366 -13 291 -13ZM288 419Q232 419 199 389Q166 359 161 288H402Q399 357 370 388Q341 419 288 419ZM216 640Q216 672 235 687.5Q254 703 287 703Q319 703 337.5 687.5Q356 672 356 640Q356 608 337.5 592Q319 576 287 576Q254 576 235 592Q216 608 216 640Z" glyph-name="edotaccent" horiz-adv-x="555" unicode="&#279;" /><glyph d="M51 0ZM291 -13Q178 -13 114.5 49.5Q51 112 51 244Q51 370 112.5 436.5Q174 503 291 503Q348 503 389 484.5Q430 466 457 434Q484 402 496.5 357.5Q509 313 509 262Q509 240 506 213H160Q165 135 199.5 103Q234 71 297 71Q345 71 377 87Q409 103 430 148L505 105Q476 43 421 15Q366 -13 291 -13ZM288 419Q232 419 199 389Q166 359 161 288H402Q399 357 370 388Q341 419 288 419ZM248 573 128 690V696H262L340 577V573Z" glyph-name="egrave" horiz-adv-x="555" unicode="&#232;" /><glyph d="M312 -13Q187 -13 119 41.5Q51 96 51 193Q51 265 87.5 307Q124 349 181 364Q133 383 104.5 422.5Q76 462 76 522Q76 618 136.5 665.5Q197 713 312 713Q428 713 488.5 665.5Q549 618 549 523Q549 463 520.5 423Q492 383 444 364Q501 349 537 307Q573 265 573 193Q573 96 506 41.5Q439 -13 312 -13ZM444 519Q444 573 409.5 600.5Q375 628 312 628Q249 628 215 600.5Q181 573 181 519Q181 468 214 438Q247 408 312 408Q378 408 411 438Q444 468 444 519ZM462 196Q462 255 422 285.5Q382 316 313 316Q244 316 203 285.5Q162 255 162 196Q162 135 201.5 104Q241 73 312 73Q383 73 422.5 104Q462 135 462 196Z" glyph-name="eight" horiz-adv-x="625" unicode="8" /><glyph d="M328 -13Q202 -13 134 41Q66 95 66 192Q66 264 102.5 306.5Q139 349 197 364Q148 383 119 422.5Q90 462 90 522Q90 617 151 665Q212 713 328 713Q446 713 506.5 665Q567 617 567 523Q567 463 538.5 423Q510 383 461 364Q518 348 555 306Q592 264 592 192Q592 95 524 41Q456 -13 328 -13ZM461 519Q461 573 426.5 600.5Q392 628 329 628Q265 628 231 600.5Q197 573 197 519Q197 468 230.5 438Q264 408 329 408Q395 408 428 438Q461 468 461 519ZM479 196Q479 255 439 285.5Q399 316 330 316Q260 316 219.5 285.5Q179 255 179 196Q179 135 218 104Q257 73 329 73Q400 73 439.5 104Q479 135 479 196Z" glyph-name="eight.LP" horiz-adv-x="658" /><glyph d="M314 -13Q193 -13 128 41.5Q63 96 63 193Q63 265 98 307Q133 349 188 364Q141 383 113.5 422.5Q86 462 86 522Q86 618 144 665.5Q202 713 314 713Q426 713 484.5 665.5Q543 618 543 523Q543 463 516 423Q489 383 442 364Q496 349 531 307Q566 265 566 193Q566 96 501 41.5Q436 -13 314 -13ZM438 519Q438 573 406.5 600.5Q375 628 315 628Q191 628 191 519Q191 468 222 438Q253 408 314 408Q377 408 407.5 438Q438 468 438 519ZM456 196Q456 255 418.5 285.5Q381 316 316 316Q249 316 211.5 285.5Q174 255 174 196Q174 135 210 104.5Q246 74 314 74Q382 74 419 104.5Q456 135 456 196Z" glyph-name="eight.OP" horiz-adv-x="630" /><glyph d="M310 -13Q184 -13 116.5 41.5Q49 96 49 193Q49 265 85.5 307Q122 349 179 364Q131 383 102.5 422.5Q74 462 74 522Q74 618 134.5 665.5Q195 713 310 713Q426 713 486.5 665.5Q547 618 547 523Q547 463 518.5 423Q490 383 442 364Q499 349 535 307Q571 265 571 193Q571 96 504 41.5Q437 -13 310 -13ZM442 519Q442 573 408 600.5Q374 628 311 628Q247 628 213 600.5Q179 573 179 519Q179 468 212 438Q245 408 310 408Q376 408 409 438Q442 468 442 519ZM460 196Q460 255 420 285.5Q380 316 311 316Q242 316 201 285.5Q160 255 160 196Q160 135 199.5 104Q239 73 310 73Q381 73 420.5 104Q460 135 460 196Z" glyph-name="eight.OT" horiz-adv-x="625" /><glyph d="M38 0ZM199 -211Q121 -211 79.5 -179.5Q38 -148 38 -88Q38 -47 57 -23Q76 1 109 12Q83 25 68 47.5Q53 70 53 102Q53 162 90 190.5Q127 219 199 219Q271 219 309 190.5Q347 162 347 103Q347 71 331.5 48Q316 25 290 12Q323 1 342 -23.5Q361 -48 361 -88Q361 -148 319.5 -179.5Q278 -211 199 -211ZM267 100Q267 125 249 138.5Q231 152 200 152Q168 152 150 138.5Q132 125 132 100Q132 44 199 44Q232 44 249.5 59Q267 74 267 100ZM274 -86Q274 -57 254.5 -41.5Q235 -26 201 -26Q165 -26 144.5 -41.5Q124 -57 124 -86Q124 -115 144 -130.5Q164 -146 199 -146Q235 -146 254.5 -130.5Q274 -115 274 -86Z" glyph-name="eight.inf" horiz-adv-x="402" /><glyph d="M531 60Q531 94 550 110.5Q569 127 601 127Q634 127 652 110.5Q670 94 670 60Q670 28 652 11Q634 -6 601 -6Q569 -6 550 11Q531 28 531 60ZM290 60Q290 94 309 110.5Q328 127 361 127Q394 127 412 110.5Q430 94 430 60Q430 28 412 11Q394 -6 361 -6Q328 -6 309 11Q290 28 290 60ZM50 60Q50 94 69 110.5Q88 127 121 127Q153 127 171.5 110.5Q190 94 190 60Q190 28 171.5 11Q153 -6 121 -6Q88 -6 69 11Q50 28 50 60Z" glyph-name="ellipsis" horiz-adv-x="721" unicode="&#8230;" /><glyph d="M51 0ZM291 -13Q178 -13 114.5 49.5Q51 112 51 244Q51 370 112.5 436.5Q174 503 291 503Q348 503 389 484.5Q430 466 457 434Q484 402 496.5 357.5Q509 313 509 262Q509 240 506 213H160Q165 135 199.5 103Q234 71 297 71Q345 71 377 87Q409 103 430 148L505 105Q476 43 421 15Q366 -13 291 -13ZM288 419Q232 419 199 389Q166 359 161 288H402Q399 357 370 388Q341 419 288 419ZM419 666V597H152V666Z" glyph-name="emacron" horiz-adv-x="555" unicode="&#275;" /><glyph d="M740 305V214H49V305Z" glyph-name="emdash" horiz-adv-x="788" unicode="&#8212;" /><glyph d="M740 399V308H49V399Z" glyph-name="emdash.cap" horiz-adv-x="788" /><glyph glyph-name="emspace" horiz-adv-x="1000" unicode="&#8195;" /><glyph d="M540 305V214H49V305Z" glyph-name="endash" horiz-adv-x="588" unicode="&#8211;" /><glyph d="M540 399V308H49V399Z" glyph-name="endash.cap" horiz-adv-x="588" /><glyph d="M445 -28V275Q445 347 417.5 376.5Q390 406 337 406Q274 406 236.5 364.5Q199 323 197 243V0H84V491H180L191 400Q219 455 267.5 479Q316 503 376 503Q470 503 514 452Q558 401 558 307V-39Q558 -132 513 -175Q468 -218 391 -218Q369 -218 348 -214.5Q327 -211 303 -202L321 -117Q334 -122 346.5 -125Q359 -128 377 -128Q393 -128 406 -123.5Q419 -119 427.5 -107.5Q436 -96 440.5 -76.5Q445 -57 445 -28Z" glyph-name="eng" horiz-adv-x="636" unicode="&#331;" /><glyph glyph-name="enspace" horiz-adv-x="500" unicode="&#8194;" /><glyph d="M226 -109Q226 -79 236 -54Q246 -29 263 -11Q162 -4 106.5 58Q51 120 51 244Q51 370 112.5 436.5Q174 503 291 503Q348 503 389 484.5Q430 466 457 434Q484 402 496.5 357.5Q509 313 509 262Q509 240 506 213H159Q164 135 199 103Q234 71 297 71Q345 71 377 87Q409 103 430 148L505 105Q484 61 450 34.5Q416 8 371 -3Q338 -14 320 -40Q302 -66 302 -96Q302 -125 318 -136Q334 -147 362 -147Q379 -147 396 -143Q413 -139 428 -130L444 -194Q405 -218 353 -218Q329 -218 306 -213Q283 -208 265.5 -195Q248 -182 237 -161.5Q226 -141 226 -109ZM288 419Q231 419 198.5 389Q166 359 160 288H402Q399 357 369.5 388Q340 419 288 419Z" glyph-name="eogonek" horiz-adv-x="555" unicode="&#281;" /><glyph d="M457 422V343H50V422ZM457 276V197H50V276Z" glyph-name="equal" horiz-adv-x="507" unicode="=" /><glyph d="M32 0ZM280 55V-5H32V55ZM280 -35V-96H32V-35Z" glyph-name="equal.inf" horiz-adv-x="311" /><glyph d="M480 724 514 675 438 627Q494 563 518.5 472Q543 381 543 265V248Q543 112 481 49.5Q419 -13 298 -13Q178 -13 114.5 48Q51 109 51 242Q51 374 115 435Q179 496 292 496Q372 496 419 453Q401 524 356 575L275 523L242 572L310 616Q258 653 187 670L218 744Q324 723 394 668ZM433 241Q433 333 400.5 372Q368 411 298 411Q227 411 194 372Q161 333 161 241Q161 150 195 111.5Q229 73 298 73Q367 73 400 111.5Q433 150 433 241Z" glyph-name="eth" horiz-adv-x="597" unicode="&#240;" /><glyph d="M179 700 162 203H75L59 700ZM50 60Q50 94 68 110.5Q86 127 119 127Q151 127 170 110.5Q189 94 189 60Q189 28 170 11Q151 -6 119 -6Q86 -6 68 11Q50 28 50 60Z" glyph-name="exclam" horiz-adv-x="238" unicode="!" /><glyph d="M59 -199 76 298H163L179 -199ZM188 441Q188 407 170 390.5Q152 374 119 374Q87 374 68 390.5Q49 407 49 441Q49 473 68 490Q87 507 119 507Q152 507 170 490Q188 473 188 441Z" glyph-name="exclamdown" horiz-adv-x="238" unicode="&#161;" /><glyph d="M62 0 79 497H166L182 0ZM191 640Q191 606 173 589.5Q155 573 122 573Q90 573 71 589.5Q52 606 52 640Q52 672 71 689Q90 706 122 706Q155 706 173 689Q191 672 191 640Z" glyph-name="exclamdown.cap" horiz-adv-x="241" /><glyph d="M22 491H109V542Q109 638 154.5 680Q200 722 277 722Q300 722 326 717.5Q352 713 370 704L351 620Q338 626 324.5 629.5Q311 633 293 633Q258 633 238.5 612.5Q219 592 219 538V491H356V406H219V0H109V406H22Z" glyph-name="f" horiz-adv-x="368" unicode="f" /><glyph d="M439 640Q439 673 457.5 689.5Q476 706 510 706Q544 706 562.5 689.5Q581 673 581 640Q581 607 562.5 590.5Q544 574 510 574Q476 574 457.5 590.5Q439 607 439 640ZM109 0V406H22V491H109V542Q109 638 154 680Q199 722 276 722Q299 722 325 717.5Q351 713 369 704L350 620Q337 626 323.5 629.5Q310 633 292 633Q257 633 238 612.5Q219 592 219 538V491H356V406H219V0ZM453 491H566V0H453Z" glyph-name="fi" horiz-adv-x="652" unicode="&#64257;" /><glyph d="M537 305V214H49V305Z" glyph-name="figuredash" horiz-adv-x="586" unicode="&#8210;" /><glyph d="M537 399V308H49V399Z" glyph-name="figuredash.cap" horiz-adv-x="586" /><glyph glyph-name="figurespace" horiz-adv-x="625" unicode="&#8199;" /><glyph d="M205 605 186 413Q217 430 255.5 439Q294 448 335 448Q384 448 427.5 435.5Q471 423 503 396.5Q535 370 553.5 328.5Q572 287 572 229Q572 175 554.5 130Q537 85 503 53.5Q469 22 418.5 4.5Q368 -13 302 -13Q219 -13 155 16.5Q91 46 53 109L132 170Q161 122 202 98.5Q243 75 300 75Q377 75 418.5 116Q460 157 460 227Q460 296 419.5 329Q379 362 309 362Q258 362 219.5 347Q181 332 149 306L81 340L115 700H538V605Z" glyph-name="five" horiz-adv-x="625" unicode="5" /><glyph d="M191 605 173 413Q204 430 242.5 439Q281 448 322 448Q372 448 415.5 435.5Q459 423 491.5 396.5Q524 370 542.5 328.5Q561 287 561 229Q561 175 543.5 130Q526 85 492 53.5Q458 22 407 4.5Q356 -13 289 -13Q205 -13 140 16.5Q75 46 37 109L118 170Q175 76 286 76Q364 76 405.5 117Q447 158 447 227Q447 296 406.5 329Q366 362 296 362Q244 362 205.5 347Q167 332 135 306L66 340L100 700H527V605Z" glyph-name="five.LP" horiz-adv-x="599" /><glyph d="M186 507 168 313Q197 330 234 339Q271 348 309 348Q357 348 399 335.5Q441 323 471.5 296.5Q502 270 520 228Q538 186 538 127Q538 73 521 29Q504 -15 471 -46.5Q438 -78 389.5 -95.5Q341 -113 278 -113Q194 -113 132 -83.5Q70 -54 33 9L112 69Q140 21 178.5 -2Q217 -25 274 -25Q346 -25 386 16Q426 57 426 125Q426 196 388 229Q350 262 279 262Q234 262 197 247Q160 232 130 206L62 240L96 600H504V507Z" glyph-name="five.OP" horiz-adv-x="572" /><glyph d="M203 505 184 313Q215 330 253.5 339Q292 348 333 348Q382 348 425.5 335.5Q469 323 501 296.5Q533 270 551.5 228.5Q570 187 570 129Q570 75 552.5 30Q535 -15 501 -46.5Q467 -78 416.5 -95.5Q366 -113 300 -113Q217 -113 152.5 -83.5Q88 -54 50 9L130 70Q187 -25 297 -25Q374 -25 416 16Q458 57 458 127Q458 196 417.5 229Q377 262 307 262Q256 262 217 247Q178 232 147 206L79 240L113 600H536V505Z" glyph-name="five.OT" horiz-adv-x="625" /><glyph d="M20 0ZM128 137 118 46Q154 61 198 61Q261 61 301.5 30.5Q342 0 342 -68Q342 -134 300 -172.5Q258 -211 177 -211Q125 -211 84.5 -194Q44 -177 20 -139Q21 -138 30 -131Q39 -124 50 -115.5Q61 -107 70 -100.5Q79 -94 80 -93Q111 -140 173 -140Q210 -140 232 -121.5Q254 -103 254 -69Q254 -35 233 -18.5Q212 -2 174 -2Q128 -2 93 -29L39 -3L58 207H323V136Z" glyph-name="five.inf" horiz-adv-x="366" /><glyph d="M109 0V406H22V491H109V542Q109 638 154.5 680Q200 722 277 722Q303 722 327 716.5Q351 711 368 703L349 619Q336 625 322.5 628.5Q309 632 292 632Q257 632 238 612Q219 592 219 538V491H356V406H219V0ZM574 0Q515 0 481.5 27.5Q448 55 448 124V700H561V133Q561 87 610 87H651V0Z" glyph-name="fl" horiz-adv-x="652" unicode="&#64258;" /><glyph d="M109 0V406H22V491H109V542Q109 638 154.5 680Q200 722 277 722Q303 722 327 716.5Q351 711 368 703L349 619Q336 625 322.5 628.5Q309 632 292 632Q257 632 238 612Q219 592 219 538V491H356V406H219V0ZM566 700V0H453V700Z" glyph-name="fl.alt" horiz-adv-x="657" /><glyph d="M59 -32 110 289H27L40 373H123L134 441Q149 537 199 579.5Q249 622 325 622Q348 622 374 617.5Q400 613 417 603L386 519Q374 525 361 528Q348 531 331 531Q297 531 274.5 511Q252 491 243 437L233 373H368L355 289H220L169 -39Q155 -131 106 -174.5Q57 -218 -20 -218Q-41 -218 -64.5 -214Q-88 -210 -106 -202L-77 -117Q-64 -122 -52.5 -125Q-41 -128 -24 -128Q8 -128 29 -108Q50 -88 59 -32Z" glyph-name="florin" horiz-adv-x="393" unicode="&#402;" /><glyph d="M21 171V250L257 700H367L140 269H396V541H507V269H603V171H507V0H396V171Z" glyph-name="four" horiz-adv-x="625" unicode="4" /><glyph d="M35 171V250L261 700H378L156 269H421V569H533V269H633V171H533V0H421V171Z" glyph-name="four.LP" horiz-adv-x="654" /><glyph d="M34 71V147L249 600H361L151 163H403V469H511V163H605V71H511V-100H403V71Z" glyph-name="four.OP" horiz-adv-x="626" /><glyph d="M21 71V150L257 600H367L140 169H396V441H507V169H603V71H507V-100H396V71Z" glyph-name="four.OT" horiz-adv-x="625" /><glyph d="M24 0ZM24 -109V-49L151 208H238L115 -34H251V121H333V-34H386V-109H333V-200H251V-109Z" glyph-name="four.inf" horiz-adv-x="406" /><glyph glyph-name="fourperemspace" horiz-adv-x="250" unicode="&#8197;" /><glyph d="M481 700 140 0H37L379 700Z" glyph-name="fraction" horiz-adv-x="525" unicode="&#8260;" /><glyph d="M423 255Q423 340 384.5 378.5Q346 417 288 417Q224 417 192.5 378Q161 339 161 254Q161 169 193 129.5Q225 90 288 90Q347 90 385 129Q423 168 423 255ZM535 491V20Q535 -42 516 -87Q497 -132 463 -161Q429 -190 381.5 -204Q334 -218 278 -218Q205 -218 148.5 -193Q92 -168 61 -105L133 -49Q157 -95 192 -113.5Q227 -132 275 -132Q341 -132 382 -99Q423 -66 423 10V92Q375 3 258 3Q162 3 106.5 66Q51 129 51 253Q51 377 106 440Q161 503 262 503Q321 503 364 481Q407 459 431 414L441 491Z" glyph-name="g" horiz-adv-x="619" unicode="g" /><glyph d="M51 0ZM423 255Q423 340 384.5 378.5Q346 417 288 417Q224 417 192.5 378Q161 339 161 254Q161 169 193 129.5Q225 90 288 90Q347 90 385 129Q423 168 423 255ZM535 491V20Q535 -42 516 -87Q497 -132 463 -161Q429 -190 381.5 -204Q334 -218 278 -218Q205 -218 148.5 -193Q92 -168 61 -105L133 -49Q157 -95 192 -113.5Q227 -132 275 -132Q341 -132 382 -99Q423 -66 423 10V92Q375 3 258 3Q162 3 106.5 66Q51 129 51 253Q51 377 106 440Q161 503 262 503Q321 503 364 481Q407 459 431 414L441 491ZM357 696H435Q435 659 424.5 634Q414 609 394 594Q374 579 346 573Q318 567 282 567Q210 567 169.5 594.5Q129 622 129 696H206Q206 658 224.5 644Q243 630 281 630Q319 630 338 644Q357 658 357 696Z" glyph-name="gbreve" horiz-adv-x="619" unicode="&#287;" /><glyph d="M51 0ZM283 638 217 573H112V576L234 696H335L459 576V573H348ZM423 255Q423 340 384.5 378.5Q346 417 288 417Q224 417 192.5 378Q161 339 161 254Q161 169 193 129.5Q225 90 288 90Q347 90 385 129Q423 168 423 255ZM535 491V20Q535 -42 516 -87Q497 -132 463 -161Q429 -190 381.5 -204Q334 -218 278 -218Q205 -218 148.5 -193Q92 -168 61 -105L133 -49Q157 -95 192 -113.5Q227 -132 275 -132Q341 -132 382 -99Q423 -66 423 10V92Q375 3 258 3Q162 3 106.5 66Q51 129 51 253Q51 377 106 440Q161 503 262 503Q321 503 364 481Q407 459 431 414L441 491Z" glyph-name="gcircumflex" horiz-adv-x="619" unicode="&#285;" /><glyph d="M328 809 349 763Q319 755 301.5 734.5Q284 714 279 685Q314 686 332.5 670Q351 654 351 624Q351 593 333.5 578Q316 563 285 563Q252 563 233 583.5Q214 604 214 650Q214 708 243 752Q272 796 328 809ZM423 255Q423 340 384.5 378.5Q346 417 288 417Q224 417 192.5 378Q161 339 161 254Q161 169 193 129.5Q225 90 288 90Q347 90 385 129Q423 168 423 255ZM535 491V20Q535 -42 516 -87Q497 -132 463 -161Q429 -190 381.5 -204Q334 -218 278 -218Q205 -218 148.5 -193Q92 -168 61 -105L133 -49Q157 -95 192 -113.5Q227 -132 275 -132Q341 -132 382 -99Q423 -66 423 10V92Q375 3 258 3Q162 3 106.5 66Q51 129 51 253Q51 377 106 440Q161 503 262 503Q321 503 364 481Q407 459 431 414L441 491Z" glyph-name="gcommaaccent" horiz-adv-x="619" unicode="&#291;" /><glyph d="M51 0ZM423 255Q423 340 384.5 378.5Q346 417 288 417Q224 417 192.5 378Q161 339 161 254Q161 169 193 129.5Q225 90 288 90Q347 90 385 129Q423 168 423 255ZM535 491V20Q535 -42 516 -87Q497 -132 463 -161Q429 -190 381.5 -204Q334 -218 278 -218Q205 -218 148.5 -193Q92 -168 61 -105L133 -49Q157 -95 192 -113.5Q227 -132 275 -132Q341 -132 382 -99Q423 -66 423 10V92Q375 3 258 3Q162 3 106.5 66Q51 129 51 253Q51 377 106 440Q161 503 262 503Q321 503 364 481Q407 459 431 414L441 491ZM213 640Q213 672 232 687.5Q251 703 284 703Q316 703 334.5 687.5Q353 672 353 640Q353 608 334.5 592Q316 576 284 576Q251 576 232 592Q213 608 213 640Z" glyph-name="gdotaccent" horiz-adv-x="619" unicode="&#289;" /><glyph d="M348 330H297V417H345Q398 417 421 447.5Q444 478 444 522Q444 578 412 602.5Q380 627 323 627Q258 627 225 589.5Q192 552 192 480V0H80V486Q80 597 143.5 657Q207 717 322 717Q437 717 495 666Q553 615 553 529Q553 478 533 442Q513 406 480 384Q539 365 567.5 319Q596 273 596 209Q596 160 580.5 120Q565 80 535.5 52Q506 24 465 9Q424 -6 373 -6Q344 -6 320 -2.5Q296 1 271 11L287 96Q304 89 319 85.5Q334 82 354 82Q417 82 451.5 113.5Q486 145 486 209Q486 263 455 296.5Q424 330 348 330Z" glyph-name="germandbls" horiz-adv-x="636" unicode="&#223;" /><glyph d="M267 573 147 690V696H281L359 577V573Z" glyph-name="grave" horiz-adv-x="600" unicode="`" /><glyph d="M133 87 85 151 303 307 83 463 134 530 414 332V286Z" glyph-name="greater" horiz-adv-x="494" unicode="&gt;" /><glyph d="M141 142 101 206 299 334 100 462 142 528 415 358V314ZM422 79V0H86V79Z" glyph-name="greaterequal" horiz-adv-x="511" unicode="&#8805;" /><glyph d="M473 0 273 246V249L467 491H588L392 250L596 0ZM243 0 50 244V247L242 491H362L168 248L366 0Z" glyph-name="guillemotleft" horiz-adv-x="650" unicode="&#171;" /><glyph d="M177 491 377 245V242L183 0H62L258 241L54 491ZM407 491 600 247V244L408 0H288L482 243L284 491Z" glyph-name="guillemotright" horiz-adv-x="650" unicode="&#187;" /><glyph d="M242 0 50 244V247L242 491H362L168 248L365 0Z" glyph-name="guilsinglleft" horiz-adv-x="419" unicode="&#8249;" /><glyph d="M177 491 369 247V244L177 0H57L251 243L54 491Z" glyph-name="guilsinglright" horiz-adv-x="419" unicode="&#8250;" /><glyph d="M197 700V398Q224 453 272.5 478Q321 503 378 503Q471 503 514.5 452Q558 401 558 307V0H445V273Q445 346 417 376Q389 406 337 406Q274 406 236.5 364.5Q199 323 197 243V0H84V700Z" glyph-name="h" horiz-adv-x="636" unicode="h" /><glyph glyph-name="hairspace" horiz-adv-x="100" unicode="&#8202;" /><glyph d="M26 553V620H98V700H211V620H359V553H211V395Q238 451 287 476.5Q336 502 392 502Q572 502 572 305V0H459V270Q459 343 431 373Q403 403 352 403Q288 403 250.5 361.5Q213 320 211 240V0H98V553Z" glyph-name="hbar" horiz-adv-x="650" unicode="&#295;" /><glyph d="M0 0ZM144 820 78 755H-27V758L95 878H196L320 758V755H209ZM197 700V398Q224 453 272.5 478Q321 503 378 503Q471 503 514.5 452Q558 401 558 307V0H445V273Q445 346 417 376Q389 406 337 406Q274 406 236.5 364.5Q199 323 197 243V0H84V700Z" glyph-name="hcircumflex" horiz-adv-x="636" unicode="&#293;" /><glyph d="M530 690 406 573H319V577L397 696H530ZM355 690 256 573H172V577L236 696H355Z" glyph-name="hungarumlaut" horiz-adv-x="600" unicode="&#733;" /><glyph d="M400 305V214H49V305Z" glyph-name="hyphen" horiz-adv-x="448" unicode="-" /><glyph d="M400 399V308H49V399Z" glyph-name="hyphen.cap" horiz-adv-x="448" /><glyph d="M71 640Q71 673 89.5 689.5Q108 706 142 706Q176 706 194.5 689.5Q213 673 213 640Q213 607 194.5 590.5Q176 574 142 574Q108 574 89.5 590.5Q71 607 71 640ZM86 491H199V0H86Z" glyph-name="i" horiz-adv-x="284" unicode="i" /><glyph d="M86 0ZM301 690 181 573H90V577L168 696H301ZM86 491H199V0H86Z" glyph-name="iacute" horiz-adv-x="284" unicode="&#237;" /><glyph d="M0 0ZM86 491H199V0H86ZM217 696H295Q295 659 284.5 634Q274 609 254 594Q234 579 206 573Q178 567 142 567Q70 567 29.5 594.5Q-11 622 -11 696H66Q66 658 84.5 644Q103 630 141 630Q179 630 198 644Q217 658 217 696Z" glyph-name="ibreve" horiz-adv-x="284" unicode="&#301;" /><glyph d="M0 0ZM141 638 75 573H-30V576L92 696H193L317 576V573H206ZM86 491H199V0H86Z" glyph-name="icircumflex" horiz-adv-x="284" unicode="&#238;" /><glyph d="M0 0ZM167 640Q167 672 185 687.5Q203 703 235 703Q267 703 285 687.5Q303 672 303 640Q303 608 285 592Q267 576 235 576Q203 576 185 592Q167 608 167 640ZM-20 640Q-20 672 -2 687.5Q16 703 48 703Q80 703 98 687.5Q116 672 116 640Q116 608 98 592Q80 576 48 576Q16 576 -2 592Q-20 608 -20 640ZM86 491H199V0H86Z" glyph-name="idieresis" horiz-adv-x="284" unicode="&#239;" /><glyph d="M71 640Q71 673 89.5 689.5Q108 706 142 706Q176 706 194.5 689.5Q213 673 213 640Q213 607 194.5 590.5Q176 574 142 574Q108 574 89.5 590.5Q71 607 71 640ZM86 491H199V0H86Z" glyph-name="idotaccent" horiz-adv-x="284" /><glyph d="M0 0ZM86 491H199V0H86ZM105 573 -15 690V696H119L197 577V573Z" glyph-name="igrave" horiz-adv-x="284" unicode="&#236;" /><glyph d="M71 0ZM71 640Q71 673 89.5 689.5Q108 706 142 706Q176 706 194.5 689.5Q213 673 213 640Q213 607 194.5 590.5Q176 574 142 574Q108 574 89.5 590.5Q71 607 71 640ZM86 491H199V0H86ZM355 640Q355 673 373.5 689.5Q392 706 426 706Q460 706 478.5 689.5Q497 673 497 640Q497 607 478.5 590.5Q460 574 426 574Q392 574 373.5 590.5Q355 607 355 640ZM370 -28V491H483V-39Q483 -132 437.5 -175Q392 -218 315 -218Q293 -218 271.5 -214.5Q250 -211 227 -202L245 -117Q258 -122 270.5 -125Q283 -128 301 -128Q317 -128 330 -123.5Q343 -119 352 -107.5Q361 -96 365.5 -76.5Q370 -57 370 -28Z" glyph-name="ij" horiz-adv-x="568" unicode="&#307;" /><glyph d="M9 0ZM86 491H199V0H86ZM276 666V597H9V666Z" glyph-name="imacron" horiz-adv-x="284" unicode="&#299;" /><glyph d="M71 641Q71 674 89.5 690Q108 706 142 706Q176 706 194.5 690Q213 674 213 641Q213 608 194.5 591.5Q176 575 142 575Q108 575 89.5 591.5Q71 608 71 641ZM105 -218Q81 -218 58.5 -213Q36 -208 18.5 -195Q1 -182 -10 -161.5Q-21 -141 -21 -109Q-21 -53 11 -17.5Q43 18 86 32V491H199V0H148Q101 -4 77.5 -33.5Q54 -63 54 -97Q54 -125 70.5 -136Q87 -147 114 -147Q131 -147 148 -143Q165 -139 180 -130L197 -194Q158 -218 105 -218Z" glyph-name="iogonek" horiz-adv-x="284" unicode="&#303;" /><glyph d="M0 0ZM86 491H199V0H86ZM231 690H307Q310 659 302 638Q294 617 280.5 604.5Q267 592 249 586.5Q231 581 214 581Q192 581 173.5 587Q155 593 139 600.5Q123 608 108.5 614Q94 620 80 620Q62 620 56.5 609Q51 598 51 584H-25Q-27 615 -19.5 636Q-12 657 1.5 669.5Q15 682 32.5 687.5Q50 693 67 693Q89 693 108 687Q127 681 143.5 673.5Q160 666 174.5 660Q189 654 203 654Q221 654 226 665Q231 676 231 690Z" glyph-name="itilde" horiz-adv-x="284" unicode="&#297;" /><glyph d="M71 640Q71 673 89.5 689.5Q108 706 142 706Q176 706 194.5 689.5Q213 673 213 640Q213 607 194.5 590.5Q176 574 142 574Q108 574 89.5 590.5Q71 607 71 640ZM86 -28V491H199V-39Q199 -132 153.5 -175Q108 -218 31 -218Q9 -218 -12.5 -214.5Q-34 -211 -57 -202L-39 -117Q-26 -122 -13.5 -125Q-1 -128 17 -128Q33 -128 46 -123.5Q59 -119 68 -107.5Q77 -96 81.5 -76.5Q86 -57 86 -28Z" glyph-name="j" horiz-adv-x="284" unicode="j" /><glyph d="M0 0ZM86 -28V491H199V-39Q199 -132 153.5 -175Q108 -218 31 -218Q9 -218 -12.5 -214.5Q-34 -211 -57 -202L-39 -117Q-26 -122 -13.5 -125Q-1 -128 17 -128Q33 -128 46 -123.5Q59 -119 68 -107.5Q77 -96 81.5 -76.5Q86 -57 86 -28ZM141 638 75 573H-30V576L92 696H193L317 576V573H206Z" glyph-name="jcircumflex" horiz-adv-x="284" unicode="&#309;" /><glyph d="M84 0V700H196L194 242L409 491H538L342 272L540 0H411L269 197L196 119V0Z" glyph-name="k" horiz-adv-x="546" unicode="k" /><glyph d="M85 0V700H197V0ZM409 -1 204 237V241L408 491H530L328 246L541 0Z" glyph-name="k.alt" horiz-adv-x="547" /><glyph d="M84 0ZM249 -307 228 -261Q258 -253 275.5 -232.5Q293 -212 298 -183Q263 -184 244.5 -168Q226 -152 226 -122Q226 -91 243.5 -76Q261 -61 292 -61Q325 -61 344 -81.5Q363 -102 363 -148Q363 -206 334 -250Q305 -294 249 -307ZM84 0V700H196L194 242L409 491H538L342 272L540 0H411L269 197L196 119V0Z" glyph-name="kcommaaccent" horiz-adv-x="546" unicode="&#311;" /><glyph d="M85 0ZM251 -307 230 -261Q260 -253 277.5 -232.5Q295 -212 300 -183Q265 -184 246.5 -168Q228 -152 228 -122Q228 -91 245.5 -76Q263 -61 294 -61Q327 -61 346 -81.5Q365 -102 365 -148Q365 -206 336 -250Q307 -294 251 -307ZM85 0V700H197V0ZM409 -1 204 237V241L408 491H530L328 246L541 0Z" glyph-name="kcommaaccent.alt" horiz-adv-x="547" /><glyph d="M84 0V491H196L195 242L409 491H538L342 272L540 0H411L270 197L196 119V0Z" glyph-name="kgreenlandic" horiz-adv-x="546" unicode="&#312;" /><glyph d="M207 0Q148 0 114.5 27.5Q81 55 81 124V700H194V133Q194 87 243 87H284V0Z" glyph-name="l" horiz-adv-x="294" unicode="l" /><glyph d="M199 700V0H86V700Z" glyph-name="l.alt" horiz-adv-x="284" /><glyph d="M81 0ZM293 901 173 784H82V788L160 907H293ZM207 0Q148 0 114.5 27.5Q81 55 81 124V700H194V133Q194 87 243 87H284V0Z" glyph-name="lacute" horiz-adv-x="294" unicode="&#314;" /><glyph d="M81 0ZM352 465H277L284 700H384ZM207 0Q148 0 114.5 27.5Q81 55 81 124V700H194V133Q194 87 243 87H284V0Z" glyph-name="lcaron" horiz-adv-x="355" unicode="&#318;" /><glyph d="M81 0ZM207 0Q148 0 114.5 27.5Q81 55 81 124V700H194V133Q194 87 243 87H284V0ZM137 -307 116 -261Q146 -253 163.5 -232.5Q181 -212 186 -183Q151 -184 132.5 -168Q114 -152 114 -122Q114 -91 131.5 -76Q149 -61 180 -61Q213 -61 232 -81.5Q251 -102 251 -148Q251 -206 222 -250Q193 -294 137 -307Z" glyph-name="lcommaaccent" horiz-adv-x="294" unicode="&#316;" /><glyph d="M81 0ZM207 0Q148 0 114.5 27.5Q81 55 81 124V700H194V133Q194 87 243 87H284V0ZM260 305Q260 337 279 352.5Q298 368 331 368Q363 368 381.5 352.5Q400 337 400 305Q400 273 381.5 257Q363 241 331 241Q298 241 279 257Q260 273 260 305Z" glyph-name="ldot" horiz-adv-x="388" unicode="&#320;" /><glyph d="M362 530 410 466 193 310 412 155 361 87 81 285V332Z" glyph-name="less" horiz-adv-x="494" unicode="&lt;" /><glyph d="M373 528 414 465 215 336 415 209 373 142 100 312V357ZM86 0V79H422V0Z" glyph-name="lessequal" horiz-adv-x="511" unicode="&#8804;" /><glyph d="M304 0H227Q168 0 134.5 27.5Q101 55 101 124V248L10 180V278L101 347V700H214V427L313 502V403L214 329V133Q214 87 263 87H304Z" glyph-name="lslash" horiz-adv-x="314" unicode="&#322;" /><glyph d="M84 0V491H179L190 401Q217 455 263 479Q309 503 359 503Q424 503 460.5 469.5Q497 436 510 386Q535 447 584.5 475Q634 503 694 503Q780 503 820 453Q860 403 860 310V0H747V278Q747 347 723.5 376Q700 405 655 405Q598 405 564 367Q530 329 528 252V0H415V275Q415 346 391 375.5Q367 405 319 405Q265 405 232 367Q199 329 197 251V0Z" glyph-name="m" horiz-adv-x="938" unicode="m" /><glyph d="M434 666V597H167V666Z" glyph-name="macron" horiz-adv-x="600" unicode="&#175;" /><glyph d="M457 349V270H50V349Z" glyph-name="minus" horiz-adv-x="507" unicode="&#8722;" /><glyph d="M32 0ZM280 10V-49H32V10Z" glyph-name="minus.inf" horiz-adv-x="311" /><glyph d="M123 135 68 190 191 312 67 438 125 496 250 371 374 495 428 441 304 317 430 191 371 133 245 258Z" glyph-name="multiply" horiz-adv-x="497" unicode="&#215;" /><glyph d="M84 491H180L191 400Q219 454 267.5 478.5Q316 503 376 503Q470 503 514 452Q558 401 558 307V0H445V275Q445 347 417.5 376.5Q390 406 337 406Q274 406 236.5 364.5Q199 323 197 243V0H84Z" glyph-name="n" horiz-adv-x="636" unicode="n" /><glyph d="M84 0ZM495 690 375 573H284V577L362 696H495ZM84 491H180L191 400Q219 454 267.5 478.5Q316 503 376 503Q470 503 514 452Q558 401 558 307V0H445V275Q445 347 417.5 376.5Q390 406 337 406Q274 406 236.5 364.5Q199 323 197 243V0H84Z" glyph-name="nacute" horiz-adv-x="636" unicode="&#324;" /><glyph d="M84 0ZM337 633 405 696H510V694L386 573H285L163 694V696H272ZM84 491H180L191 400Q219 454 267.5 478.5Q316 503 376 503Q470 503 514 452Q558 401 558 307V0H445V275Q445 347 417.5 376.5Q390 406 337 406Q274 406 236.5 364.5Q199 323 197 243V0H84Z" glyph-name="ncaron" horiz-adv-x="636" unicode="&#328;" /><glyph d="M84 0ZM283 -307 262 -261Q292 -253 309.5 -232.5Q327 -212 332 -183Q297 -184 278.5 -168Q260 -152 260 -122Q260 -91 277.5 -76Q295 -61 326 -61Q359 -61 378 -81.5Q397 -102 397 -148Q397 -206 368 -250Q339 -294 283 -307ZM84 491H180L191 400Q219 454 267.5 478.5Q316 503 376 503Q470 503 514 452Q558 401 558 307V0H445V275Q445 347 417.5 376.5Q390 406 337 406Q274 406 236.5 364.5Q199 323 197 243V0H84Z" glyph-name="ncommaaccent" horiz-adv-x="636" unicode="&#326;" /><glyph d="M446 488Q446 548 407.5 586Q369 624 300 624Q236 624 196 588.5Q156 553 156 481Q156 415 191 378Q226 341 301 341Q366 341 406 381Q446 421 446 488ZM290 -13Q206 -13 146.5 14.5Q87 42 55 100L132 161Q157 117 196.5 97Q236 77 290 77Q330 77 363 90.5Q396 104 420 136Q444 168 457 221.5Q470 275 470 355V379Q450 322 397.5 289Q345 256 277 256Q168 256 107 313.5Q46 371 46 479Q46 531 61.5 574Q77 617 108 648Q139 679 185.5 696Q232 713 294 713Q359 713 412 692Q465 671 502.5 627Q540 583 560.5 515Q581 447 581 352Q581 164 505.5 75.5Q430 -13 290 -13Z" glyph-name="nine" horiz-adv-x="625" unicode="9" /><glyph d="M467 488Q467 548 428 586Q389 624 319 624Q255 624 215 588.5Q175 553 175 481Q175 415 210.5 378.5Q246 342 320 342Q386 342 426.5 381.5Q467 421 467 488ZM310 -13Q225 -13 165 14.5Q105 42 73 100L150 161Q176 117 215.5 97Q255 77 309 77Q349 77 382.5 90.5Q416 104 440 136Q464 168 477.5 221.5Q491 275 491 355V379Q470 322 417.5 288.5Q365 255 295 255Q186 255 124.5 312.5Q63 370 63 479Q63 531 78.5 574Q94 617 125.5 648Q157 679 204 696Q251 713 313 713Q379 713 433 692Q487 671 525 627Q563 583 583.5 515Q604 447 604 352Q604 164 528 75.5Q452 -13 310 -13Z" glyph-name="nine.LP" horiz-adv-x="679" /><glyph d="M446 388Q446 448 409.5 486Q373 524 307 524Q247 524 209 488.5Q171 453 171 381Q171 315 204 278.5Q237 242 307 242Q370 242 408 281.5Q446 321 446 388ZM297 -113Q216 -113 157.5 -85.5Q99 -58 69 0L146 61Q170 17 207.5 -3Q245 -23 297 -23Q336 -23 368 -9.5Q400 4 423 36Q446 68 458.5 121.5Q471 175 471 255V279Q451 222 401 188.5Q351 155 283 155Q178 155 119 212.5Q60 270 60 379Q60 431 75 474Q90 517 120 548Q150 579 195.5 596Q241 613 301 613Q365 613 416.5 592Q468 571 505 527Q542 483 562 415Q582 347 582 252Q582 64 508.5 -24.5Q435 -113 297 -113Z" glyph-name="nine.OP" horiz-adv-x="649" /><glyph d="M445 388Q445 448 406 486Q367 524 298 524Q234 524 194 488.5Q154 453 154 381Q154 315 189.5 278Q225 241 299 241Q364 241 404.5 281Q445 321 445 388ZM289 -113Q204 -113 144.5 -85.5Q85 -58 54 0L130 61Q155 17 194.5 -3Q234 -23 288 -23Q328 -23 361.5 -9.5Q395 4 419 36Q443 68 456 121.5Q469 175 469 255V279Q448 222 396 189Q344 156 275 156Q167 156 105.5 213.5Q44 271 44 379Q44 431 59.5 474Q75 517 106 548Q137 579 183.5 596Q230 613 292 613Q357 613 410 592Q463 571 500.5 527Q538 483 558.5 415Q579 347 579 252Q579 64 504 -24.5Q429 -113 289 -113Z" glyph-name="nine.OT" horiz-adv-x="625" /><glyph d="M35 0ZM267 80Q267 112 247 130Q227 148 193 148Q161 148 140.5 131Q120 114 120 80Q120 48 137.5 30Q155 12 193 12Q227 12 247 30Q267 48 267 80ZM185 -211Q135 -211 97 -194.5Q59 -178 39 -145L94 -98Q121 -141 182 -141Q210 -141 229.5 -130Q249 -119 260.5 -99.5Q272 -80 277 -52.5Q282 -25 281 7V13Q268 -17 240 -35Q212 -53 171 -53Q108 -53 71.5 -19Q35 15 35 78Q35 141 73 180Q111 219 189 219Q272 219 319.5 168Q367 117 367 5Q367 -211 185 -211Z" glyph-name="nine.inf" horiz-adv-x="410" /><glyph d="M50 343V422H293L351 502H434L376 422H457V343H320L271 276H457V197H214L159 118H75L132 197H50V276H188L237 343Z" glyph-name="notequal" horiz-adv-x="507" unicode="&#8800;" /><glyph d="M84 0ZM84 491H180L191 400Q219 454 267.5 478.5Q316 503 376 503Q470 503 514 452Q558 401 558 307V0H445V275Q445 347 417.5 376.5Q390 406 337 406Q274 406 236.5 364.5Q199 323 197 243V0H84ZM425 690H501Q504 659 496 638Q488 617 474.5 604.5Q461 592 443 586.5Q425 581 408 581Q386 581 367.5 587Q349 593 333 600.5Q317 608 302.5 614Q288 620 274 620Q256 620 250.5 609Q245 598 245 584H169Q167 615 174.5 636Q182 657 195.5 669.5Q209 682 226.5 687.5Q244 693 261 693Q283 693 302 687Q321 681 337.5 673.5Q354 666 368.5 660Q383 654 397 654Q415 654 420 665Q425 676 425 690Z" glyph-name="ntilde" horiz-adv-x="636" unicode="&#241;" /><glyph d="M314 431 268 285H436L481 431ZM91 431 115 513H226L284 700H396L338 513H506L564 700H676L618 513H727L704 431H593L548 285H665L641 203H523L461 0H348L410 203H244L182 0H69L132 203H29L53 285H156L201 431Z" glyph-name="numbersign" horiz-adv-x="741" unicode="#" /><glyph d="M51 246Q51 379 115.5 441Q180 503 297 503Q421 503 481.5 442Q542 381 542 246Q542 114 480 50.5Q418 -13 297 -13Q176 -13 113.5 49Q51 111 51 246ZM432 245Q432 339 399.5 377.5Q367 416 297 416Q225 416 193 377.5Q161 339 161 245Q161 152 194 113Q227 74 297 74Q366 74 399 113Q432 152 432 245Z" glyph-name="o" horiz-adv-x="593" unicode="o" /><glyph d="M51 0ZM456 690 336 573H245V577L323 696H456ZM51 246Q51 379 115.5 441Q180 503 297 503Q421 503 481.5 442Q542 381 542 246Q542 114 480 50.5Q418 -13 297 -13Q176 -13 113.5 49Q51 111 51 246ZM432 245Q432 339 399.5 377.5Q367 416 297 416Q225 416 193 377.5Q161 339 161 245Q161 152 194 113Q227 74 297 74Q366 74 399 113Q432 152 432 245Z" glyph-name="oacute" horiz-adv-x="593" unicode="&#243;" /><glyph d="M51 0ZM51 246Q51 379 115.5 441Q180 503 297 503Q421 503 481.5 442Q542 381 542 246Q542 114 480 50.5Q418 -13 297 -13Q176 -13 113.5 49Q51 111 51 246ZM432 245Q432 339 399.5 377.5Q367 416 297 416Q225 416 193 377.5Q161 339 161 245Q161 152 194 113Q227 74 297 74Q366 74 399 113Q432 152 432 245ZM371 696H449Q449 659 438.5 634Q428 609 408 594Q388 579 360 573Q332 567 296 567Q224 567 183.5 594.5Q143 622 143 696H220Q220 658 238.5 644Q257 630 295 630Q333 630 352 644Q371 658 371 696Z" glyph-name="obreve" horiz-adv-x="593" unicode="&#335;" /><glyph d="M51 0ZM295 638 229 573H124V576L246 696H347L471 576V573H360ZM51 246Q51 379 115.5 441Q180 503 297 503Q421 503 481.5 442Q542 381 542 246Q542 114 480 50.5Q418 -13 297 -13Q176 -13 113.5 49Q51 111 51 246ZM432 245Q432 339 399.5 377.5Q367 416 297 416Q225 416 193 377.5Q161 339 161 245Q161 152 194 113Q227 74 297 74Q366 74 399 113Q432 152 432 245Z" glyph-name="ocircumflex" horiz-adv-x="593" unicode="&#244;" /><glyph d="M51 0ZM321 640Q321 672 339 687.5Q357 703 389 703Q421 703 439 687.5Q457 672 457 640Q457 608 439 592Q421 576 389 576Q357 576 339 592Q321 608 321 640ZM134 640Q134 672 152 687.5Q170 703 202 703Q234 703 252 687.5Q270 672 270 640Q270 608 252 592Q234 576 202 576Q170 576 152 592Q134 608 134 640ZM51 246Q51 379 115.5 441Q180 503 297 503Q421 503 481.5 442Q542 381 542 246Q542 114 480 50.5Q418 -13 297 -13Q176 -13 113.5 49Q51 111 51 246ZM432 245Q432 339 399.5 377.5Q367 416 297 416Q225 416 193 377.5Q161 339 161 245Q161 152 194 113Q227 74 297 74Q366 74 399 113Q432 152 432 245Z" glyph-name="odieresis" horiz-adv-x="593" unicode="&#246;" /><glyph d="M51 246Q51 379 115.5 441Q180 503 297 503Q433 503 489 424Q550 503 675 503Q732 503 773 484.5Q814 466 841 434Q868 402 880.5 357.5Q893 313 893 262Q893 240 890 213H543Q548 135 583 103Q618 71 681 71Q730 71 761.5 87Q793 103 814 148L889 105Q860 43 805 15Q750 -13 676 -13Q613 -13 565 6.5Q517 26 487 67Q428 -13 297 -13Q176 -13 113.5 49Q51 111 51 246ZM672 419Q616 419 582.5 389Q549 359 544 288H786Q783 357 754 388Q725 419 672 419ZM432 245Q432 339 399.5 377.5Q367 416 296 416Q225 416 193 377.5Q161 339 161 245Q161 152 194 113Q227 74 296 74Q366 74 399 113Q432 152 432 245Z" glyph-name="oe" horiz-adv-x="940" unicode="&#339;" /><glyph d="M313 -218Q289 -218 266.5 -213Q244 -208 226 -195Q208 -182 197.5 -161.5Q187 -141 187 -109Q187 -72 202 -43.5Q217 -15 241 4.5Q265 24 294.5 33.5Q324 43 353 42L356 0Q308 -4 285 -33.5Q262 -63 262 -97Q262 -125 278 -136Q294 -147 322 -147Q360 -147 388 -130L405 -194Q364 -218 313 -218Z" glyph-name="ogonek" horiz-adv-x="600" unicode="&#731;" /><glyph d="M51 0ZM51 246Q51 379 115.5 441Q180 503 297 503Q421 503 481.5 442Q542 381 542 246Q542 114 480 50.5Q418 -13 297 -13Q176 -13 113.5 49Q51 111 51 246ZM432 245Q432 339 399.5 377.5Q367 416 297 416Q225 416 193 377.5Q161 339 161 245Q161 152 194 113Q227 74 297 74Q366 74 399 113Q432 152 432 245ZM260 573 140 690V696H274L352 577V573Z" glyph-name="ograve" horiz-adv-x="593" unicode="&#242;" /><glyph d="M51 0ZM526 690 402 573H315V577L393 696H526ZM351 690 252 573H168V577L232 696H351ZM51 246Q51 379 115.5 441Q180 503 297 503Q421 503 481.5 442Q542 381 542 246Q542 114 480 50.5Q418 -13 297 -13Q176 -13 113.5 49Q51 111 51 246ZM432 245Q432 339 399.5 377.5Q367 416 297 416Q225 416 193 377.5Q161 339 161 245Q161 152 194 113Q227 74 297 74Q366 74 399 113Q432 152 432 245Z" glyph-name="ohungarumlaut" horiz-adv-x="593" unicode="&#337;" /><glyph d="M51 0ZM430 666V597H163V666ZM51 246Q51 379 115.5 441Q180 503 297 503Q421 503 481.5 442Q542 381 542 246Q542 114 480 50.5Q418 -13 297 -13Q176 -13 113.5 49Q51 111 51 246ZM432 245Q432 339 399.5 377.5Q367 416 297 416Q225 416 193 377.5Q161 339 161 245Q161 152 194 113Q227 74 297 74Q366 74 399 113Q432 152 432 245Z" glyph-name="omacron" horiz-adv-x="593" unicode="&#333;" /><glyph d="M84 0V99H253V562L164 502L118 593L292 702H364V99H541V0Z" glyph-name="one" horiz-adv-x="625" unicode="1" /><glyph d="M261 0H146V562L56 502L9 593L185 702H261Z" glyph-name="one.LP" horiz-adv-x="362" /><glyph d="M248 0H136V462L52 402L7 493L175 602H248Z" glyph-name="one.OP" horiz-adv-x="331" /><glyph d="M93 0V99H254V462L170 402L125 493L294 602H367V99H532V0Z" glyph-name="one.OT" horiz-adv-x="625" /><glyph d="M10 0ZM180 -200H91V106L43 76L10 144L123 210H180Z" glyph-name="one.inf" horiz-adv-x="240" /><glyph d="M10 0ZM515 0V68L650 186Q687 219 704.5 242.5Q722 266 722 292Q722 321 704.5 333Q687 345 657 345Q622 345 601.5 331Q581 317 565 286L505 329Q531 378 570.5 398.5Q610 419 667 419Q730 419 771 391Q812 363 812 302Q812 260 788.5 224Q765 188 714 143L638 74L828 77V0ZM180 293H91V599L43 569L10 637L123 703H180ZM586 700 245 0H142L484 700Z" glyph-name="onehalf" horiz-adv-x="860" unicode="&#189;" /><glyph d="M10 0ZM180 293H91V599L43 569L10 637L123 703H180ZM586 700 245 0H142L484 700ZM493 91V151L620 408H707L584 166H720V321H802V166H855V91H802V0H720V91Z" glyph-name="onequarter" horiz-adv-x="875" unicode="&#188;" /><glyph d="M10 294ZM180 294H91V600L43 570L10 638L123 704H180Z" glyph-name="onesuperior" horiz-adv-x="240" unicode="&#185;" /><glyph d="M332 305V214H49V305Z" glyph-name="onethirdemdash" horiz-adv-x="380" /><glyph d="M183 408Q225 408 250.5 434.5Q276 461 276 509V513H201Q119 513 119 456Q119 433 135 420.5Q151 408 183 408ZM158 345Q106 345 72.5 372.5Q39 400 39 453Q39 504 77.5 535Q116 566 198 566H276Q274 613 252.5 629.5Q231 646 191 646Q155 646 131 634Q107 622 91 602L52 653Q97 713 202 713Q237 713 266 705.5Q295 698 316 680.5Q337 663 348.5 635Q360 607 360 566V356H287L281 411Q264 380 233.5 362.5Q203 345 158 345Z" glyph-name="ordfeminine" horiz-adv-x="412" unicode="&#170;" /><glyph d="M300 530Q300 592 274.5 619.5Q249 647 210 647Q165 647 143.5 619Q122 591 122 529Q122 468 144 440Q166 412 210 412Q250 412 275 440Q300 468 300 530ZM309 356 304 412Q269 345 185 345Q116 345 77 391Q38 437 38 528Q38 621 79 667Q120 713 192 713Q273 713 306 648L314 702H384V356Z" glyph-name="ordfeminine.school" horiz-adv-x="445" /><glyph d="M38 530Q38 625 84.5 669Q131 713 215 713Q303 713 347 670Q391 627 391 530Q391 436 346 390.5Q301 345 215 345Q129 345 83.5 389Q38 433 38 530ZM308 530Q308 593 285 620Q262 647 214 647Q166 647 144 620Q122 593 122 530Q122 465 144.5 438Q167 411 214 411Q262 411 285 438Q308 465 308 530Z" glyph-name="ordmasculine" horiz-adv-x="426" unicode="&#186;" /><glyph d="M588 491 509 409Q547 348 547 246Q547 114 485 50.5Q423 -13 302 -13Q202 -13 142 32L111 0H19L96 80Q56 139 56 246Q56 379 120.5 441Q185 503 302 503Q405 503 465 458L497 491ZM175 160 396 388Q379 404 355.5 411Q332 418 302 418Q230 418 197.5 378.5Q165 339 165 245Q165 219 167.5 198Q170 177 175 160ZM438 245Q438 294 429 327L209 100Q226 85 248.5 78.5Q271 72 302 72Q372 72 405 111.5Q438 151 438 245Z" glyph-name="oslash" horiz-adv-x="603" unicode="&#248;" /><glyph d="M51 0ZM51 246Q51 379 115.5 441Q180 503 297 503Q421 503 481.5 442Q542 381 542 246Q542 114 480 50.5Q418 -13 297 -13Q176 -13 113.5 49Q51 111 51 246ZM432 245Q432 339 399.5 377.5Q367 416 297 416Q225 416 193 377.5Q161 339 161 245Q161 152 194 113Q227 74 297 74Q366 74 399 113Q432 152 432 245ZM385 690H461Q464 659 456 638Q448 617 434.5 604.5Q421 592 403 586.5Q385 581 368 581Q346 581 327.5 587Q309 593 293 600.5Q277 608 262.5 614Q248 620 234 620Q216 620 210.5 609Q205 598 205 584H129Q127 615 134.5 636Q142 657 155.5 669.5Q169 682 186.5 687.5Q204 693 221 693Q243 693 262 687Q281 681 297.5 673.5Q314 666 328.5 660Q343 654 357 654Q375 654 380 665Q385 676 385 690Z" glyph-name="otilde" horiz-adv-x="593" unicode="&#245;" /><glyph d="M196 244Q196 155 233 114.5Q270 74 328 74Q394 74 426.5 115.5Q459 157 459 245Q459 335 426.5 375.5Q394 416 331 416Q272 416 234 375.5Q196 335 196 244ZM84 491H179L190 403Q216 453 261 478Q306 503 366 503Q466 503 518 438.5Q570 374 570 249Q570 124 514 55.5Q458 -13 349 -13Q246 -13 197 59V-187H84Z" glyph-name="p" horiz-adv-x="621" unicode="p" /><glyph d="M179 469Q179 398 214.5 363Q250 328 313 326H332V604H312Q245 602 212 566.5Q179 531 179 469ZM501 604H433V325H501ZM602 700V0H501V230H433V0H332V231H328Q206 233 139.5 293.5Q73 354 73 470Q73 578 135.5 638.5Q198 699 320 700Z" glyph-name="paragraph" horiz-adv-x="668" unicode="&#182;" /><glyph d="M317 -15 309 -102Q171 -90 106 12.5Q41 115 41 312Q41 508 106 610.5Q171 713 308 725L317 638Q274 632 241 612Q208 592 186 553.5Q164 515 152.5 456Q141 397 141 312Q141 227 152.5 167.5Q164 108 186 69.5Q208 31 241 11Q274 -9 317 -15Z" glyph-name="parenleft" horiz-adv-x="352" unicode="(" /><glyph d="M27 0ZM200 -207 193 -275Q107 -267 67 -205Q27 -143 27 -25Q27 92 67 153.5Q107 215 192 223L200 154Q175 151 156 140.5Q137 130 124 109Q111 88 104.5 55.5Q98 23 98 -25Q98 -73 104.5 -106.5Q111 -140 124 -161Q137 -182 156 -192.5Q175 -203 200 -207Z" glyph-name="parenleft.inf" horiz-adv-x="222" /><glyph d="M35 -15Q78 -9 111 11Q144 31 166 69.5Q188 108 199.5 167.5Q211 227 211 312Q211 397 199.5 456Q188 515 166 553.5Q144 592 111 612Q78 632 35 638L44 725Q181 713 246 610.5Q311 508 311 312Q311 115 246 12.5Q181 -90 43 -102Z" glyph-name="parenright" horiz-adv-x="352" unicode=")" /><glyph d="M21 0ZM29 -275 21 -207Q46 -203 65.5 -192.5Q85 -182 98 -161Q111 -140 117.5 -106.5Q124 -73 124 -25Q124 23 117.5 55.5Q111 88 98 109Q85 130 65.5 140.5Q46 151 21 154L30 223Q115 215 155.5 153.5Q196 92 196 -25Q196 -143 155.5 -205Q115 -267 29 -275Z" glyph-name="parenright.inf" horiz-adv-x="222" /><glyph d="M39 0ZM657 204Q657 315 699.5 367Q742 419 835 419Q928 419 970.5 367Q1013 315 1013 204Q1013 93 970.5 41Q928 -11 835 -11Q742 -11 699.5 40.5Q657 92 657 204ZM925 204Q925 245 919 272.5Q913 300 901.5 316.5Q890 333 873.5 340Q857 347 835 347Q813 347 796.5 340Q780 333 768.5 316.5Q757 300 751 272Q745 244 745 203Q745 162 751 134.5Q757 107 768.5 90.5Q780 74 796.5 67Q813 60 835 60Q857 60 873.5 67Q890 74 901.5 90.5Q913 107 919 135Q925 163 925 204ZM39 497Q39 608 81.5 660Q124 712 217 712Q310 712 352.5 660Q395 608 395 497Q395 386 352.5 334Q310 282 217 282Q124 282 81.5 333.5Q39 385 39 497ZM307 497Q307 538 301 565.5Q295 593 283.5 609.5Q272 626 255.5 633Q239 640 217 640Q195 640 178.5 633Q162 626 150.5 609.5Q139 593 133 565Q127 537 127 496Q127 455 133 427.5Q139 400 150.5 383.5Q162 367 178.5 360Q195 353 217 353Q239 353 255.5 360Q272 367 283.5 383.5Q295 400 301 428Q307 456 307 497ZM745 700 404 0H301L643 700Z" glyph-name="percent" horiz-adv-x="1055" unicode="%" /><glyph d="M50 60Q50 94 69 110.5Q88 127 121 127Q153 127 171.5 110.5Q190 94 190 60Q190 28 171.5 11Q153 -6 121 -6Q88 -6 69 11Q50 28 50 60Z" glyph-name="period" horiz-adv-x="240" unicode="." /><glyph d="M50 271ZM50 337Q50 371 69 387.5Q88 404 121 404Q153 404 171.5 387.5Q190 371 190 337Q190 305 171.5 288Q153 271 121 271Q88 271 69 288Q50 305 50 337Z" glyph-name="periodcentered" horiz-adv-x="240" unicode="&#183;" /><glyph d="M39 0ZM657 204Q657 315 699.5 367Q742 419 835 419Q928 419 970.5 367Q1013 315 1013 204Q1013 93 970.5 41Q928 -11 835 -11Q742 -11 699.5 40.5Q657 92 657 204ZM925 204Q925 245 919 272.5Q913 300 901.5 316.5Q890 333 873.5 340Q857 347 835 347Q813 347 796.5 340Q780 333 768.5 316.5Q757 300 751 272Q745 244 745 203Q745 162 751 134.5Q757 107 768.5 90.5Q780 74 796.5 67Q813 60 835 60Q857 60 873.5 67Q890 74 901.5 90.5Q913 107 919 135Q925 163 925 204ZM39 497Q39 608 81.5 660Q124 712 217 712Q310 712 352.5 660Q395 608 395 497Q395 386 352.5 334Q310 282 217 282Q124 282 81.5 333.5Q39 385 39 497ZM307 497Q307 538 301 565.5Q295 593 283.5 609.5Q272 626 255.5 633Q239 640 217 640Q195 640 178.5 633Q162 626 150.5 609.5Q139 593 133 565Q127 537 127 496Q127 455 133 427.5Q139 400 150.5 383.5Q162 367 178.5 360Q195 353 217 353Q239 353 255.5 360Q272 367 283.5 383.5Q295 400 301 428Q307 456 307 497ZM1086 204Q1086 315 1128.5 367Q1171 419 1264 419Q1357 419 1399.5 367Q1442 315 1442 204Q1442 93 1399.5 41Q1357 -11 1264 -11Q1171 -11 1128.5 40.5Q1086 92 1086 204ZM1354 204Q1354 245 1348 272.5Q1342 300 1330.5 316.5Q1319 333 1302.5 340Q1286 347 1264 347Q1242 347 1225.5 340Q1209 333 1197.5 316.5Q1186 300 1180 272Q1174 244 1174 203Q1174 162 1180 134.5Q1186 107 1197.5 90.5Q1209 74 1225.5 67Q1242 60 1264 60Q1286 60 1302.5 67Q1319 74 1330.5 90.5Q1342 107 1348 135Q1354 163 1354 204ZM745 700 404 0H301L643 700Z" glyph-name="perthousand" horiz-adv-x="1484" unicode="&#8240;" /><glyph d="M297 110H211V270H50V349H211V511H297V349H457V270H297Z" glyph-name="plus" horiz-adv-x="507" unicode="+" /><glyph d="M32 0ZM190 -139H122V-49H32V10H122V101H190V10H280V-49H190Z" glyph-name="plus.inf" horiz-adv-x="311" /><glyph d="M297 140H211V285H50V364H211V511H297V364H457V285H297ZM457 79V0H50V79Z" glyph-name="plusminus" horiz-adv-x="507" unicode="&#177;" /><glyph glyph-name="punctuationspace" horiz-adv-x="240" unicode="&#8200;" /><glyph d="M537 -186H424V72Q372 -13 258 -13Q160 -13 105.5 51Q51 115 51 243Q51 371 108.5 437Q166 503 269 503Q324 503 366 481Q408 459 432 414L442 491H537ZM425 246Q425 291 415 323.5Q405 356 387 376.5Q369 397 344 406.5Q319 416 290 416Q226 416 194 376Q162 336 162 245Q162 157 194.5 116Q227 75 290 75Q349 75 387 115.5Q425 156 425 246Z" glyph-name="q" horiz-adv-x="621" unicode="q" /><glyph d="M191 203 189 365H238Q385 365 385 500Q385 560 347.5 592Q310 624 239 624Q184 624 145.5 601Q107 578 78 517L3 569Q39 645 100 680Q161 715 252 715Q364 715 428.5 660.5Q493 606 493 507Q493 411 441 358Q389 305 293 297L291 203ZM170 60Q170 94 188.5 110.5Q207 127 240 127Q272 127 290.5 110.5Q309 94 309 60Q309 28 290.5 11Q272 -6 240 -6Q207 -6 188.5 11Q170 28 170 60Z" glyph-name="question" horiz-adv-x="511" unicode="?" /><glyph d="M314 298 316 136H267Q120 136 120 1Q120 -59 157.5 -91Q195 -123 266 -123Q321 -123 359.5 -100Q398 -77 427 -16L502 -68Q466 -144 405 -179Q344 -214 253 -214Q141 -214 76.5 -159.5Q12 -105 12 -6Q12 90 64 143Q116 196 212 204L214 298ZM335 441Q335 407 316.5 390.5Q298 374 265 374Q233 374 214.5 390.5Q196 407 196 441Q196 473 214.5 490Q233 507 265 507Q298 507 316.5 490Q335 473 335 441Z" glyph-name="questiondown" horiz-adv-x="511" unicode="&#191;" /><glyph d="M307 501 309 339H260Q113 339 113 204Q113 144 150.5 112Q188 80 259 80Q314 80 352.5 103Q391 126 420 187L495 135Q459 59 398 24Q337 -11 246 -11Q134 -11 69.5 43.5Q5 98 5 197Q5 293 57 346Q109 399 205 407L207 501ZM328 644Q328 610 309.5 593.5Q291 577 258 577Q226 577 207.5 593.5Q189 610 189 644Q189 676 207.5 693Q226 710 258 710Q291 710 309.5 693Q328 676 328 644Z" glyph-name="questiondown.cap" horiz-adv-x="508" /><glyph d="M200 479 192 713H292L280 479ZM145 479H64L53 713H152Z" glyph-name="quotedbl" horiz-adv-x="341" unicode="&quot;" /><glyph d="M71 -133 49 -86Q78 -77 95.5 -55.5Q113 -34 118 -3Q85 -6 67 12.5Q49 31 49 59Q49 91 67.5 107Q86 123 115 123Q148 123 166.5 103Q185 83 185 35Q185 -26 156.5 -72Q128 -118 71 -133ZM244 -133 222 -86Q251 -77 268.5 -55.5Q286 -34 291 -3Q258 -6 240 12.5Q222 31 222 59Q222 91 240.5 107Q259 123 288 123Q321 123 339.5 103Q358 83 358 35Q358 -26 329.5 -72Q301 -118 244 -133Z" glyph-name="quotedblbase" horiz-adv-x="406" unicode="&#8222;" /><glyph d="M165 740 187 693Q157 683 139.5 661Q122 639 117 608Q151 611 169 592Q187 573 187 545Q187 513 168.5 496.5Q150 480 120 480Q86 480 67.5 500.5Q49 521 49 570Q49 632 77.5 678.5Q106 725 165 740ZM338 740 360 693Q330 683 312.5 661Q295 639 290 608Q324 611 342 592Q360 573 360 545Q360 513 341.5 496.5Q323 480 293 480Q259 480 240.5 500.5Q222 521 222 570Q222 632 250.5 678.5Q279 725 338 740Z" glyph-name="quotedblleft" horiz-adv-x="408" unicode="&#8220;" /><glyph d="M70 470 48 517Q78 527 95.5 549Q113 571 118 602Q84 599 66 618Q48 637 48 665Q48 697 66.5 713.5Q85 730 115 730Q149 730 167.5 709Q186 688 186 640Q186 578 157.5 531.5Q129 485 70 470ZM244 470 222 517Q252 527 269.5 549Q287 571 292 602Q258 599 240 618Q222 637 222 665Q222 697 240.5 713.5Q259 730 289 730Q323 730 341.5 709Q360 688 360 640Q360 578 331.5 531.5Q303 485 244 470Z" glyph-name="quotedblright" horiz-adv-x="408" unicode="&#8221;" /><glyph d="M165 740 187 693Q157 683 139.5 661Q122 639 117 608Q151 611 169 592Q187 573 187 545Q187 513 168.5 496.5Q150 480 120 480Q86 480 67.5 500.5Q49 521 49 570Q49 632 77.5 678.5Q106 725 165 740Z" glyph-name="quoteleft" horiz-adv-x="235" unicode="&#8216;" /><glyph d="M72 471 50 518Q80 528 97.5 550Q115 572 120 603Q86 600 68 619Q50 638 50 666Q50 698 68.5 714.5Q87 731 117 731Q151 731 169.5 710Q188 689 188 641Q188 579 159.5 532.5Q131 486 72 471Z" glyph-name="quoteright" horiz-adv-x="235" unicode="&#8217;" /><glyph d="M71 -132 49 -85Q78 -76 95.5 -54.5Q113 -33 118 -2Q85 -5 67 13.5Q49 32 49 60Q49 92 67.5 108Q86 124 115 124Q148 124 166.5 104Q185 84 185 36Q185 -25 156.5 -71Q128 -117 71 -132Z" glyph-name="quotesinglbase" horiz-adv-x="233" unicode="&#8218;" /><glyph d="M63 479 53 713H152L143 479Z" glyph-name="quotesingle" horiz-adv-x="201" unicode="'" /><glyph d="M84 0V491H179L190 389Q216 448 263.5 476Q311 504 373 501V393Q285 401 242 355Q199 309 197 220V0Z" glyph-name="r" horiz-adv-x="392" unicode="r" /><glyph d="M84 0ZM378 690 258 573H167V577L245 696H378ZM84 0V491H179L190 389Q216 448 263.5 476Q311 504 373 501V393Q285 401 242 355Q199 309 197 220V0Z" glyph-name="racute" horiz-adv-x="392" unicode="&#341;" /><glyph d="M57 0ZM231 633 299 696H404V694L280 573H179L57 694V696H166ZM84 0V491H179L190 389Q216 448 263.5 476Q311 504 373 501V393Q285 401 242 355Q199 309 197 220V0Z" glyph-name="rcaron" horiz-adv-x="392" unicode="&#345;" /><glyph d="M74 0ZM97 -307 76 -261Q106 -253 123.5 -232.5Q141 -212 146 -183Q111 -184 92.5 -168Q74 -152 74 -122Q74 -91 91.5 -76Q109 -61 140 -61Q173 -61 192 -81.5Q211 -102 211 -148Q211 -206 182 -250Q153 -294 97 -307ZM84 0V491H179L190 389Q216 448 263.5 476Q311 504 373 501V393Q285 401 242 355Q199 309 197 220V0Z" glyph-name="rcommaaccent" horiz-adv-x="392" unicode="&#343;" /><glyph d="M46 525Q46 610 96 661.5Q146 713 237 713Q328 713 378 661.5Q428 610 428 525Q428 440 378 388Q328 336 237 336Q146 336 96 388Q46 440 46 525ZM78 525Q78 445 122 404Q166 363 237 363Q307 363 351 404Q395 445 395 525Q395 604 351 645Q307 686 237 686Q166 686 122 645Q78 604 78 525ZM242 588H202V528H237Q255 528 264.5 535Q274 542 274 559Q274 588 242 588ZM162 436V622H245Q280 622 297.5 605.5Q315 589 315 560Q315 537 305.5 523Q296 509 280 501L315 436H270L240 494H202V436Z" glyph-name="registered" horiz-adv-x="473" unicode="&#174;" /><glyph d="M163 470Q104 485 75.5 531.5Q47 578 47 640Q47 689 66 709.5Q85 730 118 730Q148 730 166.5 713.5Q185 697 185 665Q185 637 167 618Q149 599 115 602Q120 571 137.5 549Q155 527 185 517ZM338 470Q279 485 250.5 531.5Q222 578 222 640Q222 689 241 709.5Q260 730 293 730Q323 730 341.5 713.5Q360 697 360 665Q360 637 342 618Q324 599 290 602Q295 571 312.5 549Q330 527 360 517Z" glyph-name="reversequotedblleft" horiz-adv-x="408" /><glyph d="M165 471Q106 486 77.5 532.5Q49 579 49 641Q49 690 68 710.5Q87 731 120 731Q150 731 168.5 714.5Q187 698 187 666Q187 638 169 619Q151 600 117 603Q122 572 139.5 550Q157 528 187 518Z" glyph-name="reversequoteleft" horiz-adv-x="235" /><glyph d="M199 645Q199 691 228.5 717Q258 743 303 743Q348 743 376.5 717Q405 691 405 645Q405 599 376 573.5Q347 548 302 548Q257 548 228 573.5Q199 599 199 645ZM255 645Q255 623 268 609Q281 595 302 595Q322 595 336 609Q350 623 350 645Q350 668 336.5 681.5Q323 695 303 695Q281 695 268 681.5Q255 668 255 645Z" glyph-name="ring" horiz-adv-x="600" unicode="&#730;" /><glyph d="M251 69Q304 69 327 86Q350 103 350 131Q350 154 332.5 167.5Q315 181 266 192L223 201Q136 219 98 259Q60 299 60 354Q60 386 72 413Q84 440 108 460Q132 480 168.5 491.5Q205 503 254 503Q322 503 366.5 483Q411 463 444 422L377 356Q352 387 324 403Q296 419 251 419Q163 419 163 362Q163 340 180.5 324.5Q198 309 243 299L298 287Q384 268 419.5 231Q455 194 455 142Q455 109 443 81Q431 53 405.5 32Q380 11 341 -1Q302 -13 249 -13Q176 -13 122 9.5Q68 32 35 86L105 145Q131 104 166 86.5Q201 69 251 69Z" glyph-name="s" horiz-adv-x="511" unicode="s" /><glyph d="M35 0ZM404 690 284 573H193V577L271 696H404ZM251 69Q304 69 327 86Q350 103 350 131Q350 154 332.5 167.5Q315 181 266 192L223 201Q136 219 98 259Q60 299 60 354Q60 386 72 413Q84 440 108 460Q132 480 168.5 491.5Q205 503 254 503Q322 503 366.5 483Q411 463 444 422L377 356Q352 387 324 403Q296 419 251 419Q163 419 163 362Q163 340 180.5 324.5Q198 309 243 299L298 287Q384 268 419.5 231Q455 194 455 142Q455 109 443 81Q431 53 405.5 32Q380 11 341 -1Q302 -13 249 -13Q176 -13 122 9.5Q68 32 35 86L105 145Q131 104 166 86.5Q201 69 251 69Z" glyph-name="sacute" horiz-adv-x="511" unicode="&#347;" /><glyph d="M35 0ZM246 633 314 696H419V694L295 573H194L72 694V696H181ZM251 69Q304 69 327 86Q350 103 350 131Q350 154 332.5 167.5Q315 181 266 192L223 201Q136 219 98 259Q60 299 60 354Q60 386 72 413Q84 440 108 460Q132 480 168.5 491.5Q205 503 254 503Q322 503 366.5 483Q411 463 444 422L377 356Q352 387 324 403Q296 419 251 419Q163 419 163 362Q163 340 180.5 324.5Q198 309 243 299L298 287Q384 268 419.5 231Q455 194 455 142Q455 109 443 81Q431 53 405.5 32Q380 11 341 -1Q302 -13 249 -13Q176 -13 122 9.5Q68 32 35 86L105 145Q131 104 166 86.5Q201 69 251 69Z" glyph-name="scaron" horiz-adv-x="511" unicode="&#353;" /><glyph d="M237 -242Q196 -242 163 -227Q130 -212 110 -179L157 -134Q171 -157 188 -169Q205 -181 233 -181Q256 -181 270.5 -172Q285 -163 285 -143Q285 -124 271 -113.5Q257 -103 232 -103Q226 -103 220.5 -103.5Q215 -104 209 -105L190 -90L212 -11Q152 -6 108 16.5Q64 39 35 86L105 145Q131 104 166 86.5Q201 69 251 69Q304 69 327 86Q350 103 350 131Q350 154 332.5 167.5Q315 181 266 192L223 201Q136 219 98 259Q60 299 60 354Q60 386 72 413Q84 440 108 460Q132 480 168.5 491.5Q205 503 254 503Q322 503 366.5 483Q411 463 444 422L377 356Q352 387 324 403Q296 419 251 419Q163 419 163 362Q163 340 180.5 324.5Q198 309 243 299L298 287Q384 268 419.5 231Q455 194 455 142Q455 81 412.5 38Q370 -5 279 -12L266 -57H268Q305 -58 333 -80Q361 -102 361 -144Q361 -169 351 -187.5Q341 -206 324 -218Q307 -230 284.5 -236Q262 -242 237 -242Z" glyph-name="scedilla" horiz-adv-x="511" unicode="&#351;" /><glyph d="M35 0ZM244 638 178 573H73V576L195 696H296L420 576V573H309ZM251 69Q304 69 327 86Q350 103 350 131Q350 154 332.5 167.5Q315 181 266 192L223 201Q136 219 98 259Q60 299 60 354Q60 386 72 413Q84 440 108 460Q132 480 168.5 491.5Q205 503 254 503Q322 503 366.5 483Q411 463 444 422L377 356Q352 387 324 403Q296 419 251 419Q163 419 163 362Q163 340 180.5 324.5Q198 309 243 299L298 287Q384 268 419.5 231Q455 194 455 142Q455 109 443 81Q431 53 405.5 32Q380 11 341 -1Q302 -13 249 -13Q176 -13 122 9.5Q68 32 35 86L105 145Q131 104 166 86.5Q201 69 251 69Z" glyph-name="scircumflex" horiz-adv-x="511" unicode="&#349;" /><glyph d="M35 0ZM202 -307 181 -261Q211 -253 228.5 -232.5Q246 -212 251 -183Q216 -184 197.5 -168Q179 -152 179 -122Q179 -91 196.5 -76Q214 -61 245 -61Q278 -61 297 -81.5Q316 -102 316 -148Q316 -206 287 -250Q258 -294 202 -307ZM251 69Q304 69 327 86Q350 103 350 131Q350 154 332.5 167.5Q315 181 266 192L223 201Q136 219 98 259Q60 299 60 354Q60 386 72 413Q84 440 108 460Q132 480 168.5 491.5Q205 503 254 503Q322 503 366.5 483Q411 463 444 422L377 356Q352 387 324 403Q296 419 251 419Q163 419 163 362Q163 340 180.5 324.5Q198 309 243 299L298 287Q384 268 419.5 231Q455 194 455 142Q455 109 443 81Q431 53 405.5 32Q380 11 341 -1Q302 -13 249 -13Q176 -13 122 9.5Q68 32 35 86L105 145Q131 104 166 86.5Q201 69 251 69Z" glyph-name="scommaaccent" horiz-adv-x="511" unicode="&#537;" /><glyph d="M257 -26Q190 -26 139.5 -6.5Q89 13 57 64L125 117Q148 82 178.5 66.5Q209 51 256 51Q310 51 332 68.5Q354 86 354 116Q354 142 334.5 158.5Q315 175 264 186L223 195Q180 205 150.5 220.5Q121 236 102.5 255.5Q84 275 76 298Q68 321 68 347Q68 363 72 380Q76 397 85 411.5Q94 426 108.5 438Q123 450 145 457Q111 478 96.5 506.5Q82 535 82 568Q82 596 91.5 622.5Q101 649 122 669Q143 689 177 701Q211 713 261 713Q324 713 363 695Q402 677 432 642L370 582Q347 608 322.5 621.5Q298 635 260 635Q215 635 195.5 618Q176 601 176 571Q176 550 193 530Q210 510 254 500L307 488Q393 468 429.5 432.5Q466 397 466 340Q466 306 449 276Q432 246 387 230Q454 194 454 119Q454 92 444.5 66Q435 40 412.5 19.5Q390 -1 352 -13.5Q314 -26 257 -26ZM369 332Q370 356 354 375Q338 394 291 405L265 411Q247 415 228.5 414.5Q210 414 195.5 407.5Q181 401 171.5 387.5Q162 374 161 352Q160 330 177.5 308.5Q195 287 239 278L243 277Q248 276 253 275.5Q258 275 262 274Q266 273 267 273Q314 265 341 281Q368 297 369 332Z" glyph-name="section" horiz-adv-x="519" unicode="&#167;" /><glyph d="M50 0ZM72 -137 50 -89Q80 -79 98 -57Q116 -35 121 -3Q86 -6 68 13Q50 32 50 61Q50 94 68.5 110.5Q87 127 118 127Q152 127 171 106Q190 85 190 36Q190 -27 161 -74.5Q132 -122 72 -137ZM51 423Q51 457 70 473.5Q89 490 122 490Q154 490 172.5 473.5Q191 457 191 423Q191 391 172.5 374Q154 357 122 357Q89 357 70 374Q51 391 51 423Z" glyph-name="semicolon" horiz-adv-x="240" unicode=";" /><glyph d="M195 0Q195 84 210.5 168.5Q226 253 255.5 331.5Q285 410 327 479.5Q369 549 422 602L70 600V700H555V610Q499 569 454.5 505Q410 441 379 361Q348 281 331 189Q314 97 314 0Z" glyph-name="seven" horiz-adv-x="625" unicode="7" /><glyph d="M156 0Q156 84 172 168.5Q188 253 217.5 331.5Q247 410 289.5 479.5Q332 549 385 602L31 600V700H519V610Q462 569 417 505Q372 441 341 361Q310 281 293 189Q276 97 276 0Z" glyph-name="seven.LP" horiz-adv-x="515" /><glyph d="M149 -100Q149 -16 164 68.5Q179 153 207.5 231.5Q236 310 276.5 379.5Q317 449 368 502L30 500V600H496V510Q442 469 399.5 405Q357 341 327 261Q297 181 281 89Q265 -3 265 -100Z" glyph-name="seven.OP" horiz-adv-x="493" /><glyph d="M192 -100Q192 -16 207.5 68.5Q223 153 252.5 231.5Q282 310 324.5 379.5Q367 449 420 502L68 500V600H553V510Q496 469 451.5 405Q407 341 376 261Q345 181 328.5 89Q312 -3 312 -100Z" glyph-name="seven.OT" horiz-adv-x="625" /><glyph d="M20 0ZM186 -200H92Q92 -101 127 -13.5Q162 74 222 132L20 130V207H319V142Q254 87 220 -1Q186 -89 186 -200Z" glyph-name="seven.inf" horiz-adv-x="324" /><glyph d="M332 -13Q267 -13 214 8Q161 29 123.5 73Q86 117 65.5 185Q45 253 45 348Q45 535 120 624Q195 713 335 713Q420 713 479 685Q538 657 569 598L491 537Q468 580 430 601.5Q392 623 336 623Q296 623 262.5 609.5Q229 596 205 563.5Q181 531 168 477.5Q155 424 155 344V320Q176 375 228.5 407Q281 439 350 439Q458 439 519 383Q580 327 580 221Q580 169 564.5 126Q549 83 518 52Q487 21 440.5 4Q394 -13 332 -13ZM179 211Q179 151 217.5 113Q256 75 325 75Q389 75 429 109Q469 143 469 214Q469 280 434 317Q399 354 325 354Q259 354 219 315.5Q179 277 179 211Z" glyph-name="six" horiz-adv-x="625" unicode="6" /><glyph d="M368 -13Q302 -13 248.5 8Q195 29 156.5 73Q118 117 97.5 185Q77 253 77 348Q77 535 153 624Q229 713 371 713Q456 713 515.5 685Q575 657 606 598L528 537Q504 580 466.5 601.5Q429 623 372 623Q331 623 297.5 609.5Q264 596 240 563.5Q216 531 203 477.5Q190 424 190 344V320Q211 375 263.5 407Q316 439 386 439Q495 439 557.5 383Q620 327 620 221Q620 169 604 126Q588 83 556.5 52Q525 21 478 4Q431 -13 368 -13ZM214 211Q214 151 253 113Q292 75 361 75Q426 75 466 109Q506 143 506 214Q506 280 470.5 317Q435 354 360 354Q295 354 254.5 315.5Q214 277 214 211Z" glyph-name="six.LP" horiz-adv-x="681" /><glyph d="M354 -13Q290 -13 238 8Q186 29 149.5 73Q113 117 93 185Q73 253 73 348Q73 535 146.5 624Q220 713 357 713Q439 713 496.5 685Q554 657 583 598L505 537Q482 580 447 601.5Q412 623 358 623Q319 623 287 609.5Q255 596 232 563.5Q209 531 196.5 477.5Q184 424 184 344V320Q204 375 254 407Q304 439 372 439Q477 439 536 383Q595 327 595 221Q595 169 580 126Q565 83 535 52Q505 21 459.5 4Q414 -13 354 -13ZM208 211Q208 151 244.5 113Q281 75 347 75Q408 75 446 109Q484 143 484 214Q484 280 450.5 317Q417 354 346 354Q284 354 246 315.5Q208 277 208 211Z" glyph-name="six.OP" horiz-adv-x="650" /><glyph d="M332 -13Q267 -13 214 8Q161 29 123.5 73Q86 117 65.5 185Q45 253 45 348Q45 535 120.5 624Q196 713 336 713Q420 713 479 685Q538 657 569 598L492 537Q468 580 430.5 601.5Q393 623 337 623Q296 623 263 609.5Q230 596 206 563.5Q182 531 169 477.5Q156 424 156 344V320Q177 375 229 407Q281 439 350 439Q458 439 519 383Q580 327 580 221Q580 169 564.5 126Q549 83 518 52Q487 21 440.5 4Q394 -13 332 -13ZM179 211Q179 151 218 113Q257 75 326 75Q390 75 430 109Q470 143 470 214Q470 280 434.5 317Q399 354 325 354Q259 354 219 315.5Q179 277 179 211Z" glyph-name="six.OT" horiz-adv-x="625" /><glyph d="M39 0ZM219 -211Q134 -211 86.5 -160Q39 -109 39 3Q39 219 220 219Q271 219 308.5 201.5Q346 184 365 149L308 102Q297 123 276.5 136Q256 149 223 149Q177 149 150.5 117Q124 85 125 3V-7Q138 21 166 38.5Q194 56 234 56Q297 56 333 23Q369 -10 369 -72Q369 -133 332 -172Q295 -211 219 -211ZM138 -75Q138 -105 157 -123.5Q176 -142 211 -142Q244 -142 265 -125Q286 -108 286 -74Q286 -44 268 -26.5Q250 -9 212 -9Q177 -9 157.5 -26.5Q138 -44 138 -75Z" glyph-name="six.inf" horiz-adv-x="411" /><glyph glyph-name="sixperemspace" horiz-adv-x="167" unicode="&#8198;" /><glyph d="M521 700 126 0H4L398 700Z" glyph-name="slash" horiz-adv-x="525" unicode="/" /><glyph glyph-name="space" horiz-adv-x="235" unicode=" " /><glyph d="M33 0V90H69Q101 90 110 117Q119 144 117 196L113 297H33V377H111L108 485Q106 545 122 588Q138 631 168.5 659Q199 687 241.5 700Q284 713 336 713Q413 713 462 682.5Q511 652 543 589L461 533Q441 575 411.5 598Q382 621 337 621Q275 621 246.5 586.5Q218 552 220 479L224 377H401V297H228L230 192Q231 160 227 133Q223 106 210 90H376Q421 90 452 104Q483 118 511 150L567 84Q532 37 487 18.5Q442 0 377 0Z" glyph-name="sterling" horiz-adv-x="589" unicode="&#163;" /><glyph d="M19 491H101V633H211V491H349V406H211V171Q211 114 232.5 95.5Q254 77 289 77Q307 77 320.5 80Q334 83 348 88L365 7Q338 -4 315.5 -8.5Q293 -13 267 -13Q230 -13 199.5 -3.5Q169 6 147 27.5Q125 49 113 82.5Q101 116 101 164V406H19Z" glyph-name="t" horiz-adv-x="380" unicode="t" /><glyph d="M349 491V406H211V324H349V256H211V169Q211 141 216.5 123.5Q222 106 232.5 95.5Q243 85 257.5 81Q272 77 289 77Q307 77 320.5 80Q334 83 348 88L365 7Q338 -4 315.5 -8.5Q293 -13 267 -13Q230 -13 199.5 -3.5Q169 6 147 27.5Q125 49 113 82.5Q101 116 101 164V256H19V324H101V406H19V491H101V633H211V491Z" glyph-name="tbar" horiz-adv-x="374" unicode="&#359;" /><glyph d="M347 555H272L279 751H379ZM19 491H101V633H211V491H349V406H211V171Q211 114 232.5 95.5Q254 77 289 77Q307 77 320.5 80Q334 83 348 88L365 7Q338 -4 315.5 -8.5Q293 -13 267 -13Q230 -13 199.5 -3.5Q169 6 147 27.5Q125 49 113 82.5Q101 116 101 164V406H19Z" glyph-name="tcaron" horiz-adv-x="390" unicode="&#357;" /><glyph d="M19 0ZM217 -307 196 -261Q226 -253 243.5 -232.5Q261 -212 266 -183Q231 -184 212.5 -168Q194 -152 194 -122Q194 -91 211.5 -76Q229 -61 260 -61Q293 -61 312 -81.5Q331 -102 331 -148Q331 -206 302 -250Q273 -294 217 -307ZM19 491H101V633H211V491H349V406H211V171Q211 114 232.5 95.5Q254 77 289 77Q307 77 320.5 80Q334 83 348 88L365 7Q338 -4 315.5 -8.5Q293 -13 267 -13Q230 -13 199.5 -3.5Q169 6 147 27.5Q125 49 113 82.5Q101 116 101 164V406H19Z" glyph-name="tcommaaccent" horiz-adv-x="374" unicode="&#355;" /><glyph glyph-name="thinspace" horiz-adv-x="200" unicode="&#8201;" /><glyph d="M196 244Q196 155 233 114.5Q270 74 328 74Q394 74 426.5 115.5Q459 157 459 245Q459 335 426.5 375.5Q394 416 331 416Q272 416 234 375.5Q196 335 196 244ZM197 700V414Q222 459 265.5 481Q309 503 366 503Q466 503 518 438.5Q570 374 570 249Q570 124 514 55.5Q458 -13 349 -13Q298 -13 259.5 5.5Q221 24 197 61V-187H84V700Z" glyph-name="thorn" horiz-adv-x="622" unicode="&#254;" /><glyph d="M309 -13Q218 -13 156 17Q94 47 56 113L135 171Q163 122 203.5 99.5Q244 77 304 77Q377 77 417 108Q457 139 457 204Q457 258 425.5 287Q394 316 328 316H236V408H326Q378 408 408.5 436Q439 464 439 515Q439 571 404 596.5Q369 622 304 622Q248 622 212.5 599.5Q177 577 148 525L68 578Q106 649 165.5 681Q225 713 316 713Q426 713 488.5 666Q551 619 551 524Q551 473 527 432Q503 391 457 366Q511 348 540 308Q569 268 569 206Q569 158 553.5 118Q538 78 505.5 49Q473 20 424 3.5Q375 -13 309 -13Z" glyph-name="three" horiz-adv-x="625" unicode="3" /><glyph d="M292 -13Q201 -13 138 17Q75 47 37 113L118 172Q147 123 187.5 100.5Q228 78 288 78Q361 78 400.5 109Q440 140 440 204Q440 258 409 287Q378 316 311 316H218V408H308Q361 408 391.5 436Q422 464 422 515Q422 570 387 595.5Q352 621 287 621Q231 621 195 598.5Q159 576 130 524L49 578Q88 649 148 681Q208 713 299 713Q411 713 473.5 666Q536 619 536 524Q536 473 512 432Q488 391 441 366Q495 348 524.5 308Q554 268 554 206Q554 158 538 118Q522 78 489.5 49Q457 20 408 3.5Q359 -13 292 -13Z" glyph-name="three.LP" horiz-adv-x="619" /><glyph d="M276 -114Q188 -114 129 -84Q70 -54 33 12L113 70Q139 21 176.5 -2Q214 -25 270 -25Q342 -25 381.5 6.5Q421 38 421 103Q421 157 390 186Q359 215 294 215H206V307H292Q343 307 372 335Q401 363 401 414Q401 470 367 496.5Q333 523 270 523Q219 523 186 500Q153 477 126 425L46 478Q83 549 139 581Q195 613 282 613Q391 613 452.5 565.5Q514 518 514 423Q514 372 490 331.5Q466 291 420 266Q474 248 503 207.5Q532 167 532 106Q532 58 516.5 17.5Q501 -23 469.5 -52Q438 -81 389.5 -97.5Q341 -114 276 -114Z" glyph-name="three.OP" horiz-adv-x="591" /><glyph d="M307 -113Q216 -113 154 -83Q92 -53 54 13L133 71Q161 22 201.5 -0.5Q242 -23 302 -23Q375 -23 415 8Q455 39 455 104Q455 158 423.5 187Q392 216 326 216H234V308H324Q376 308 406.5 336Q437 364 437 415Q437 471 401.5 496.5Q366 522 302 522Q246 522 210.5 499.5Q175 477 146 425L66 478Q104 549 163.5 581Q223 613 314 613Q424 613 486.5 566Q549 519 549 424Q549 373 525 332Q501 291 455 266Q509 248 538 208Q567 168 567 106Q567 58 551.5 18Q536 -22 503.5 -51Q471 -80 422 -96.5Q373 -113 307 -113Z" glyph-name="three.OT" horiz-adv-x="625" /><glyph d="M22 0ZM180 -211Q123 -211 84.5 -193Q46 -175 22 -134L83 -90Q100 -117 121.5 -128.5Q143 -140 174 -140Q211 -140 231.5 -125.5Q252 -111 252 -81Q252 -26 182 -26H133V41H182Q210 41 225.5 54.5Q241 68 241 94Q241 146 173 146Q143 146 124.5 135Q106 124 90 95L29 134Q53 179 90 199Q127 219 182 219Q252 219 290.5 189.5Q329 160 329 103Q329 42 274 11Q304 -1 321 -23.5Q338 -46 338 -82Q338 -140 298.5 -175.5Q259 -211 180 -211Z" glyph-name="three.inf" horiz-adv-x="376" /><glyph glyph-name="threeperemspace" horiz-adv-x="333" unicode="&#8196;" /><glyph d="M645 305V214H49V305Z" glyph-name="threequarteremdash" horiz-adv-x="693" /><glyph d="M22 0ZM180 282Q123 282 84.5 300Q46 318 22 359L83 403Q100 376 121.5 364.5Q143 353 174 353Q211 353 231.5 367.5Q252 382 252 412Q252 467 182 467H133V534H182Q210 534 225.5 547.5Q241 561 241 587Q241 639 173 639Q143 639 124.5 628Q106 617 90 588L29 627Q53 672 90 692Q127 712 182 712Q252 712 290.5 682.5Q329 653 329 596Q329 535 274 504Q304 492 321 469.5Q338 447 338 411Q338 353 298.5 317.5Q259 282 180 282ZM702 700 361 0H258L600 700ZM588 91V151L715 408H802L679 166H815V321H897V166H950V91H897V0H815V91Z" glyph-name="threequarters" horiz-adv-x="970" unicode="&#190;" /><glyph d="M22 283ZM180 283Q123 283 84.5 301Q46 319 22 360L83 404Q100 377 121.5 365.5Q143 354 174 354Q211 354 231.5 368.5Q252 383 252 413Q252 468 182 468H133V535H182Q210 535 225.5 548.5Q241 562 241 588Q241 640 173 640Q143 640 124.5 629Q106 618 90 589L29 628Q53 673 90 693Q127 713 182 713Q252 713 290.5 683.5Q329 654 329 597Q329 536 274 505Q304 493 321 470.5Q338 448 338 412Q338 354 298.5 318.5Q259 283 180 283Z" glyph-name="threesuperior" horiz-adv-x="376" unicode="&#179;" /><glyph d="M396 690H472Q475 659 467 638Q459 617 445.5 604.5Q432 592 414 586.5Q396 581 379 581Q357 581 338.5 587Q320 593 304 600.5Q288 608 273.5 614Q259 620 245 620Q227 620 221.5 609Q216 598 216 584H140Q138 615 145.5 636Q153 657 166.5 669.5Q180 682 197.5 687.5Q215 693 232 693Q254 693 273 687Q292 681 308.5 673.5Q325 666 339.5 660Q354 654 368 654Q386 654 391 665Q396 676 396 690Z" glyph-name="tilde" horiz-adv-x="600" unicode="&#732;" /><glyph d="M21 700H281V642H185V406H119V642H21ZM317 406V700H391L489 475L589 700H661V406H597L598 588L516 406H460L379 585L381 406Z" glyph-name="trademark" horiz-adv-x="698" unicode="&#8482;" /><glyph d="M59 0V96L289 308Q324 340 349.5 366.5Q375 393 392 417Q409 441 417.5 464.5Q426 488 426 513Q426 568 392.5 594Q359 620 299 620Q234 620 195.5 592Q157 564 128 506L49 564Q90 643 152.5 678Q215 713 310 713Q419 713 479 665.5Q539 618 539 523Q539 488 529.5 456.5Q520 425 499.5 391.5Q479 358 446.5 321.5Q414 285 368 242L211 94L571 96V0Z" glyph-name="two" horiz-adv-x="625" unicode="2" /><glyph d="M48 0V96L280 308Q315 340 340.5 366.5Q366 393 383 417Q400 441 408.5 464.5Q417 488 417 513Q417 568 383.5 594Q350 620 290 620Q224 620 185.5 592Q147 564 118 506L38 564Q79 643 141.5 678Q204 713 301 713Q410 713 471 665.5Q532 618 532 523Q532 488 522.5 456.5Q513 425 492 391.5Q471 358 438 321.5Q405 285 359 242L196 94L564 96V0Z" glyph-name="two.LP" horiz-adv-x="604" /><glyph d="M49 0 48 83 242 264Q272 292 294 315.5Q316 339 330.5 359.5Q345 380 351.5 399.5Q358 419 358 440Q358 484 331 503.5Q304 523 258 523Q210 523 177.5 498.5Q145 474 121 425L42 478Q75 547 129.5 580Q184 613 267 613Q362 613 416.5 572.5Q471 532 471 453Q471 423 462 395Q453 367 434 338Q415 309 386 277Q357 245 318 207L193 85L487 88V0Z" glyph-name="two.OP" horiz-adv-x="527" /><glyph d="M85 0 84 93 286 261Q320 290 346 312.5Q372 335 388.5 355.5Q405 376 413.5 395Q422 414 422 437Q422 482 392 501.5Q362 521 309 521Q254 521 219 497Q184 473 160 421L81 474Q118 546 175.5 579.5Q233 613 319 613Q424 614 480.5 572.5Q537 531 537 448Q537 417 528 389Q519 361 499 332Q479 303 447 271.5Q415 240 368 202L231 89L562 91V0Z" glyph-name="two.OT" horiz-adv-x="625" /><glyph d="M21 0ZM31 -200V-132L166 -14Q203 19 220.5 42.5Q238 66 238 92Q238 121 220.5 133Q203 145 173 145Q138 145 117.5 131Q97 117 81 86L21 129Q47 178 86.5 198.5Q126 219 183 219Q246 219 287 191Q328 163 328 102Q328 60 304.5 24Q281 -12 230 -57L154 -126L344 -123V-200Z" glyph-name="two.inf" horiz-adv-x="375" /><glyph d="M21 294ZM31 294V362L166 480Q203 513 220.5 536.5Q238 560 238 586Q238 615 220.5 627Q203 639 173 639Q138 639 117.5 625Q97 611 81 580L21 623Q47 672 86.5 692.5Q126 713 183 713Q246 713 287 685Q328 657 328 596Q328 554 304.5 518Q281 482 230 437L154 368L344 371V294Z" glyph-name="twosuperior" horiz-adv-x="375" unicode="&#178;" /><glyph d="M453 0 444 85Q416 34 368.5 10.5Q321 -13 267 -13Q169 -13 123.5 40.5Q78 94 78 187V491H191V211Q191 79 300 79Q361 79 397 120Q433 161 435 240V491H548V0Z" glyph-name="u" horiz-adv-x="632" unicode="u" /><glyph d="M78 0ZM471 690 351 573H260V577L338 696H471ZM453 0 444 85Q416 34 368.5 10.5Q321 -13 267 -13Q169 -13 123.5 40.5Q78 94 78 187V491H191V211Q191 79 300 79Q361 79 397 120Q433 161 435 240V491H548V0Z" glyph-name="uacute" horiz-adv-x="632" unicode="&#250;" /><glyph d="M78 0ZM453 0 444 85Q416 34 368.5 10.5Q321 -13 267 -13Q169 -13 123.5 40.5Q78 94 78 187V491H191V211Q191 79 300 79Q361 79 397 120Q433 161 435 240V491H548V0ZM387 696H465Q465 659 454.5 634Q444 609 424 594Q404 579 376 573Q348 567 312 567Q240 567 199.5 594.5Q159 622 159 696H236Q236 658 254.5 644Q273 630 311 630Q349 630 368 644Q387 658 387 696Z" glyph-name="ubreve" horiz-adv-x="632" unicode="&#365;" /><glyph d="M78 0ZM311 638 245 573H140V576L262 696H363L487 576V573H376ZM453 0 444 85Q416 34 368.5 10.5Q321 -13 267 -13Q169 -13 123.5 40.5Q78 94 78 187V491H191V211Q191 79 300 79Q361 79 397 120Q433 161 435 240V491H548V0Z" glyph-name="ucircumflex" horiz-adv-x="632" unicode="&#251;" /><glyph d="M78 0ZM337 640Q337 672 355 687.5Q373 703 405 703Q437 703 455 687.5Q473 672 473 640Q473 608 455 592Q437 576 405 576Q373 576 355 592Q337 608 337 640ZM150 640Q150 672 168 687.5Q186 703 218 703Q250 703 268 687.5Q286 672 286 640Q286 608 268 592Q250 576 218 576Q186 576 168 592Q150 608 150 640ZM453 0 444 85Q416 34 368.5 10.5Q321 -13 267 -13Q169 -13 123.5 40.5Q78 94 78 187V491H191V211Q191 79 300 79Q361 79 397 120Q433 161 435 240V491H548V0Z" glyph-name="udieresis" horiz-adv-x="632" unicode="&#252;" /><glyph d="M78 0ZM453 0 444 85Q416 34 368.5 10.5Q321 -13 267 -13Q169 -13 123.5 40.5Q78 94 78 187V491H191V211Q191 79 300 79Q361 79 397 120Q433 161 435 240V491H548V0ZM275 573 155 690V696H289L367 577V573Z" glyph-name="ugrave" horiz-adv-x="632" unicode="&#249;" /><glyph d="M78 0ZM453 0 444 85Q416 34 368.5 10.5Q321 -13 267 -13Q169 -13 123.5 40.5Q78 94 78 187V491H191V211Q191 79 300 79Q361 79 397 120Q433 161 435 240V491H548V0ZM536 690 412 573H325V577L403 696H536ZM361 690 262 573H178V577L242 696H361Z" glyph-name="uhungarumlaut" horiz-adv-x="632" unicode="&#369;" /><glyph d="M78 0ZM453 0 444 85Q416 34 368.5 10.5Q321 -13 267 -13Q169 -13 123.5 40.5Q78 94 78 187V491H191V211Q191 79 300 79Q361 79 397 120Q433 161 435 240V491H548V0ZM445 666V597H178V666Z" glyph-name="umacron" horiz-adv-x="632" unicode="&#363;" /><glyph d="M485 0V-86H-5V0Z" glyph-name="underscore" horiz-adv-x="480" unicode="_" /><glyph glyph-name="uni00A0" horiz-adv-x="176" unicode="&#160;" /><glyph d="M362 305V214H49V305Z" glyph-name="uni00AD" horiz-adv-x="410" unicode="&#173;" /><glyph d="M1037 305V214H49V305Z" glyph-name="uni2015" horiz-adv-x="1085" unicode="&#8213;" /><glyph d="M39 283ZM39 498Q39 609 81.5 661Q124 713 217 713Q310 713 352.5 661Q395 609 395 498Q395 387 352.5 335Q310 283 217 283Q124 283 81.5 334.5Q39 386 39 498ZM307 498Q307 539 301 566.5Q295 594 283.5 610.5Q272 627 255.5 634Q239 641 217 641Q195 641 178.5 634Q162 627 150.5 610.5Q139 594 133 566Q127 538 127 497Q127 456 133 428.5Q139 401 150.5 384.5Q162 368 178.5 361Q195 354 217 354Q239 354 255.5 361Q272 368 283.5 384.5Q295 401 301 429Q307 457 307 498Z" glyph-name="uni2070" horiz-adv-x="437" unicode="&#8304;" /><glyph d="M24 294ZM24 385V445L151 702H238L115 460H251V615H333V460H386V385H333V294H251V385Z" glyph-name="uni2074" horiz-adv-x="406" unicode="&#8308;" /><glyph d="M20 283ZM128 631 118 540Q154 555 198 555Q261 555 301.5 524.5Q342 494 342 426Q342 360 300 321.5Q258 283 177 283Q125 283 84.5 300Q44 317 20 355Q21 356 30 363Q39 370 50 378.5Q61 387 70 393.5Q79 400 80 401Q111 354 173 354Q210 354 232 372.5Q254 391 254 425Q254 459 233 475.5Q212 492 174 492Q128 492 93 465L39 491L58 701H323V630Z" glyph-name="uni2075" horiz-adv-x="366" unicode="&#8309;" /><glyph d="M39 283ZM219 283Q134 283 86.5 334Q39 385 39 497Q39 713 220 713Q271 713 308.5 695.5Q346 678 365 643L308 596Q297 617 276.5 630Q256 643 223 643Q177 643 150.5 611Q124 579 125 497V487Q138 515 166 532.5Q194 550 234 550Q297 550 333 517Q369 484 369 422Q369 361 332 322Q295 283 219 283ZM138 419Q138 389 157 370.5Q176 352 211 352Q244 352 265 369Q286 386 286 420Q286 450 268 467.5Q250 485 212 485Q177 485 157.5 467.5Q138 450 138 419Z" glyph-name="uni2076" horiz-adv-x="411" unicode="&#8310;" /><glyph d="M20 294ZM186 294H92Q92 393 127 480.5Q162 568 222 626L20 624V701H319V636Q254 581 220 493Q186 405 186 294Z" glyph-name="uni2077" horiz-adv-x="324" unicode="&#8311;" /><glyph d="M38 283ZM199 283Q121 283 79.5 314.5Q38 346 38 406Q38 447 57 471Q76 495 109 506Q83 519 68 541.5Q53 564 53 596Q53 656 90 684.5Q127 713 199 713Q271 713 309 684.5Q347 656 347 597Q347 565 331.5 542Q316 519 290 506Q323 495 342 470.5Q361 446 361 406Q361 346 319.5 314.5Q278 283 199 283ZM267 594Q267 619 249 632.5Q231 646 200 646Q168 646 150 632.5Q132 619 132 594Q132 538 199 538Q232 538 249.5 553Q267 568 267 594ZM274 408Q274 437 254.5 452.5Q235 468 201 468Q165 468 144.5 452.5Q124 437 124 408Q124 379 144 363.5Q164 348 199 348Q235 348 254.5 363.5Q274 379 274 408Z" glyph-name="uni2078" horiz-adv-x="402" unicode="&#8312;" /><glyph d="M35 283ZM267 574Q267 606 247 624Q227 642 193 642Q161 642 140.5 625Q120 608 120 574Q120 542 137.5 524Q155 506 193 506Q227 506 247 524Q267 542 267 574ZM185 283Q135 283 97 299.5Q59 316 39 349L94 396Q121 353 182 353Q210 353 229.5 364Q249 375 260.5 394.5Q272 414 277 441.5Q282 469 281 501V507Q268 477 240 459Q212 441 171 441Q108 441 71.5 475Q35 509 35 572Q35 635 73 674Q111 713 189 713Q272 713 319.5 662Q367 611 367 499Q367 283 185 283Z" glyph-name="uni2079" horiz-adv-x="410" unicode="&#8313;" /><glyph d="M32 356ZM190 356H122V446H32V505H122V596H190V505H280V446H190Z" glyph-name="uni207A" horiz-adv-x="311" unicode="&#8314;" /><glyph d="M32 446ZM280 505V446H32V505Z" glyph-name="uni207B" horiz-adv-x="311" unicode="&#8315;" /><glyph d="M32 399ZM280 550V490H32V550ZM280 460V399H32V460Z" glyph-name="uni207C" horiz-adv-x="311" unicode="&#8316;" /><glyph d="M27 220ZM200 288 193 220Q107 228 67 290Q27 352 27 470Q27 587 67 648.5Q107 710 192 718L200 649Q175 646 156 635.5Q137 625 124 604Q111 583 104.5 550.5Q98 518 98 470Q98 422 104.5 388.5Q111 355 124 334Q137 313 156 302.5Q175 292 200 288Z" glyph-name="uni207D" horiz-adv-x="224" unicode="&#8317;" /><glyph d="M21 220ZM29 220 21 288Q46 292 65.5 302.5Q85 313 98 334Q111 355 117.5 388.5Q124 422 124 470Q124 518 117.5 550.5Q111 583 98 604Q85 625 65.5 635.5Q46 646 21 649L30 718Q115 710 155.5 648.5Q196 587 196 470Q196 352 155.5 290Q115 228 29 220Z" glyph-name="uni207E" horiz-adv-x="224" unicode="&#8318;" /><glyph d="M39 204Q39 315 81.5 367Q124 419 217 419Q310 419 352.5 367Q395 315 395 204Q395 93 352.5 41Q310 -11 217 -11Q124 -11 81.5 40.5Q39 92 39 204ZM307 204Q307 245 301 272.5Q295 300 283.5 316.5Q272 333 255.5 340Q239 347 217 347Q195 347 178.5 340Q162 333 150.5 316.5Q139 300 133 272Q127 244 127 203Q127 162 133 134.5Q139 107 150.5 90.5Q162 74 178.5 67Q195 60 217 60Q239 60 255.5 67Q272 74 283.5 90.5Q295 107 301 135Q307 163 307 204Z" glyph-name="uni2080" horiz-adv-x="437" unicode="&#8320;" /><glyph d="M180 0H91V306L43 276L10 344L123 410H180Z" glyph-name="uni2081" horiz-adv-x="240" unicode="&#8321;" /><glyph d="M31 0V68L166 186Q203 219 220.5 242.5Q238 266 238 292Q238 321 220.5 333Q203 345 173 345Q138 345 117.5 331Q97 317 81 286L21 329Q47 378 86.5 398.5Q126 419 183 419Q246 419 287 391Q328 363 328 302Q328 260 304.5 224Q281 188 230 143L154 74L344 77V0Z" glyph-name="uni2082" horiz-adv-x="375" unicode="&#8322;" /><glyph d="M180 -11Q123 -11 84.5 7Q46 25 22 66L83 110Q100 83 121.5 71.5Q143 60 174 60Q211 60 231.5 74.5Q252 89 252 119Q252 174 182 174H133V241H182Q210 241 225.5 254.5Q241 268 241 294Q241 346 173 346Q143 346 124.5 335Q106 324 90 295L29 334Q53 379 90 399Q127 419 182 419Q252 419 290.5 389.5Q329 360 329 303Q329 242 274 211Q304 199 321 176.5Q338 154 338 118Q338 60 298.5 24.5Q259 -11 180 -11Z" glyph-name="uni2083" horiz-adv-x="376" unicode="&#8323;" /><glyph d="M24 91V151L151 408H238L115 166H251V321H333V166H386V91H333V0H251V91Z" glyph-name="uni2084" horiz-adv-x="406" unicode="&#8324;" /><glyph d="M128 337 118 246Q154 261 198 261Q261 261 301.5 230.5Q342 200 342 132Q342 66 300 27.5Q258 -11 177 -11Q125 -11 84.5 6Q44 23 20 61Q21 62 30 69Q39 76 50 84.5Q61 93 70 99.5Q79 106 80 107Q111 60 173 60Q210 60 232 78.5Q254 97 254 131Q254 165 233 181.5Q212 198 174 198Q128 198 93 171L39 197L58 407H323V336Z" glyph-name="uni2085" horiz-adv-x="366" unicode="&#8325;" /><glyph d="M219 -11Q134 -11 86.5 40Q39 91 39 203Q39 419 220 419Q271 419 308.5 401.5Q346 384 365 349L308 302Q297 323 276.5 336Q256 349 223 349Q177 349 150.5 317Q124 285 125 203V193Q138 221 166 238.5Q194 256 234 256Q297 256 333 223Q369 190 369 128Q369 67 332 28Q295 -11 219 -11ZM138 125Q138 95 157 76.5Q176 58 211 58Q244 58 265 75Q286 92 286 126Q286 156 268 173.5Q250 191 212 191Q177 191 157.5 173.5Q138 156 138 125Z" glyph-name="uni2086" horiz-adv-x="411" unicode="&#8326;" /><glyph d="M186 0H92Q92 99 127 186.5Q162 274 222 332L20 330V407H319V342Q254 287 220 199Q186 111 186 0Z" glyph-name="uni2087" horiz-adv-x="324" unicode="&#8327;" /><glyph d="M199 -11Q121 -11 79.5 20.5Q38 52 38 112Q38 153 57 177Q76 201 109 212Q83 225 68 247.5Q53 270 53 302Q53 362 90 390.5Q127 419 199 419Q271 419 309 390.5Q347 362 347 303Q347 271 331.5 248Q316 225 290 212Q323 201 342 176.5Q361 152 361 112Q361 52 319.5 20.5Q278 -11 199 -11ZM267 300Q267 325 249 338.5Q231 352 200 352Q168 352 150 338.5Q132 325 132 300Q132 244 199 244Q232 244 249.5 259Q267 274 267 300ZM274 114Q274 143 254.5 158.5Q235 174 201 174Q165 174 144.5 158.5Q124 143 124 114Q124 85 144 69.5Q164 54 199 54Q235 54 254.5 69.5Q274 85 274 114Z" glyph-name="uni2088" horiz-adv-x="402" unicode="&#8328;" /><glyph d="M267 280Q267 312 247 330Q227 348 193 348Q161 348 140.5 331Q120 314 120 280Q120 248 137.5 230Q155 212 193 212Q227 212 247 230Q267 248 267 280ZM185 -11Q135 -11 97 5.5Q59 22 39 55L94 102Q121 59 182 59Q210 59 229.5 70Q249 81 260.5 100.5Q272 120 277 147.5Q282 175 281 207V213Q268 183 240 165Q212 147 171 147Q108 147 71.5 181Q35 215 35 278Q35 341 73 380Q111 419 189 419Q272 419 319.5 368Q367 317 367 205Q367 -11 185 -11Z" glyph-name="uni2089" horiz-adv-x="410" unicode="&#8329;" /><glyph d="M190 61H122V151H32V210H122V301H190V210H280V151H190Z" glyph-name="uni208A" horiz-adv-x="311" unicode="&#8330;" /><glyph d="M280 210V151H32V210Z" glyph-name="uni208B" horiz-adv-x="311" unicode="&#8331;" /><glyph d="M280 255V195H32V255ZM280 165V104H32V165Z" glyph-name="uni208C" horiz-adv-x="311" unicode="&#8332;" /><glyph d="M200 -7 193 -75Q107 -67 67 -5Q27 57 27 175Q27 292 67 353.5Q107 415 192 423L200 354Q175 351 156 340.5Q137 330 124 309Q111 288 104.5 255.5Q98 223 98 175Q98 127 104.5 93.5Q111 60 124 39Q137 18 156 7.5Q175 -3 200 -7Z" glyph-name="uni208D" horiz-adv-x="222" unicode="&#8333;" /><glyph d="M29 -75 21 -7Q46 -3 65.5 7.5Q85 18 98 39Q111 60 117.5 93.5Q124 127 124 175Q124 223 117.5 255.5Q111 288 98 309Q85 330 65.5 340.5Q46 351 21 354L30 423Q115 415 155.5 353.5Q196 292 196 175Q196 57 155.5 -5Q115 -67 29 -75Z" glyph-name="uni208E" horiz-adv-x="222" unicode="&#8334;" /><glyph d="M10 0ZM659 -11Q602 -11 563.5 7Q525 25 501 66L562 110Q579 83 600.5 71.5Q622 60 653 60Q690 60 710.5 74.5Q731 89 731 119Q731 174 661 174H612V241H661Q689 241 704.5 254.5Q720 268 720 294Q720 346 652 346Q622 346 603.5 335Q585 324 569 295L508 334Q532 379 569 399Q606 419 661 419Q731 419 769.5 389.5Q808 360 808 303Q808 242 753 211Q783 199 800 176.5Q817 154 817 118Q817 60 777.5 24.5Q738 -11 659 -11ZM180 293H91V599L43 569L10 637L123 703H180ZM586 700 245 0H142L484 700Z" glyph-name="uni2153" horiz-adv-x="856" unicode="&#8531;" /><glyph d="M21 0ZM783 -11Q726 -11 687.5 7Q649 25 625 66L686 110Q703 83 724.5 71.5Q746 60 777 60Q814 60 834.5 74.5Q855 89 855 119Q855 174 785 174H736V241H785Q813 241 828.5 254.5Q844 268 844 294Q844 346 776 346Q746 346 727.5 335Q709 324 693 295L632 334Q656 379 693 399Q730 419 785 419Q855 419 893.5 389.5Q932 360 932 303Q932 242 877 211Q907 199 924 176.5Q941 154 941 118Q941 60 901.5 24.5Q862 -11 783 -11ZM31 293V361L166 479Q203 512 220.5 535.5Q238 559 238 585Q238 614 220.5 626Q203 638 173 638Q138 638 117.5 624Q97 610 81 579L21 622Q47 671 86.5 691.5Q126 712 183 712Q246 712 287 684Q328 656 328 595Q328 553 304.5 517Q281 481 230 436L154 367L344 370V293ZM710 700 369 0H266L608 700Z" glyph-name="uni2154" horiz-adv-x="979" unicode="&#8532;" /><glyph d="M10 0ZM180 293H91V599L43 569L10 637L123 703H180ZM611 337 601 246Q637 261 681 261Q744 261 784.5 230.5Q825 200 825 132Q825 66 783 27.5Q741 -11 660 -11Q608 -11 567.5 6Q527 23 503 61Q504 62 513 69Q522 76 533 84.5Q544 93 553 99.5Q562 106 563 107Q594 60 656 60Q693 60 715 78.5Q737 97 737 131Q737 165 716 181.5Q695 198 657 198Q611 198 576 171L522 197L541 407H806V336ZM586 700 245 0H142L484 700Z" glyph-name="uni2155" horiz-adv-x="849" unicode="&#8533;" /><glyph d="M21 0ZM31 293V361L166 479Q203 512 220.5 535.5Q238 559 238 585Q238 614 220.5 626Q203 638 173 638Q138 638 117.5 624Q97 610 81 579L21 622Q47 671 86.5 691.5Q126 712 183 712Q246 712 287 684Q328 656 328 595Q328 553 304.5 517Q281 481 230 436L154 367L344 370V293ZM734 337 724 246Q760 261 804 261Q867 261 907.5 230.5Q948 200 948 132Q948 66 906 27.5Q864 -11 783 -11Q731 -11 690.5 6Q650 23 626 61Q627 62 636 69Q645 76 656 84.5Q667 93 676 99.5Q685 106 686 107Q717 60 779 60Q816 60 838 78.5Q860 97 860 131Q860 165 839 181.5Q818 198 780 198Q734 198 699 171L645 197L664 407H929V336ZM710 700 369 0H266L608 700Z" glyph-name="uni2156" horiz-adv-x="972" unicode="&#8534;" /><glyph d="M22 0ZM180 282Q123 282 84.5 300Q46 318 22 359L83 403Q100 376 121.5 364.5Q143 353 174 353Q211 353 231.5 367.5Q252 382 252 412Q252 467 182 467H133V534H182Q210 534 225.5 547.5Q241 561 241 587Q241 639 173 639Q143 639 124.5 628Q106 617 90 588L29 627Q53 672 90 692Q127 712 182 712Q252 712 290.5 682.5Q329 653 329 596Q329 535 274 504Q304 492 321 469.5Q338 447 338 411Q338 353 298.5 317.5Q259 282 180 282ZM727 337 717 246Q753 261 797 261Q860 261 900.5 230.5Q941 200 941 132Q941 66 899 27.5Q857 -11 776 -11Q724 -11 683.5 6Q643 23 619 61Q620 62 629 69Q638 76 649 84.5Q660 93 669 99.5Q678 106 679 107Q710 60 772 60Q809 60 831 78.5Q853 97 853 131Q853 165 832 181.5Q811 198 773 198Q727 198 692 171L638 197L657 407H922V336ZM702 700 361 0H258L600 700Z" glyph-name="uni2157" horiz-adv-x="965" unicode="&#8535;" /><glyph d="M24 0ZM759 337 749 246Q785 261 829 261Q892 261 932.5 230.5Q973 200 973 132Q973 66 931 27.5Q889 -11 808 -11Q756 -11 715.5 6Q675 23 651 61Q652 62 661 69Q670 76 681 84.5Q692 93 701 99.5Q710 106 711 107Q742 60 804 60Q841 60 863 78.5Q885 97 885 131Q885 165 864 181.5Q843 198 805 198Q759 198 724 171L670 197L689 407H954V336ZM734 700 393 0H290L632 700ZM24 384V444L151 701H238L115 459H251V614H333V459H386V384H333V293H251V384Z" glyph-name="uni2158" horiz-adv-x="997" unicode="&#8536;" /><glyph d="M10 0ZM180 293H91V599L43 569L10 637L123 703H180ZM693 -11Q608 -11 560.5 40Q513 91 513 203Q513 419 694 419Q745 419 782.5 401.5Q820 384 839 349L782 302Q771 323 750.5 336Q730 349 697 349Q651 349 624.5 317Q598 285 599 203V193Q612 221 640 238.5Q668 256 708 256Q771 256 807 223Q843 190 843 128Q843 67 806 28Q769 -11 693 -11ZM612 125Q612 95 631 76.5Q650 58 685 58Q718 58 739 75Q760 92 760 126Q760 156 742 173.5Q724 191 686 191Q651 191 631.5 173.5Q612 156 612 125ZM586 700 245 0H142L484 700Z" glyph-name="uni2159" horiz-adv-x="885" unicode="&#8537;" /><glyph d="M20 0ZM128 630 118 539Q154 554 198 554Q261 554 301.5 523.5Q342 493 342 425Q342 359 300 320.5Q258 282 177 282Q125 282 84.5 299Q44 316 20 354Q21 355 30 362Q39 369 50 377.5Q61 386 70 392.5Q79 399 80 400Q111 353 173 353Q210 353 232 371.5Q254 390 254 424Q254 458 233 474.5Q212 491 174 491Q128 491 93 464L39 490L58 700H323V629ZM810 -11Q725 -11 677.5 40Q630 91 630 203Q630 419 811 419Q862 419 899.5 401.5Q937 384 956 349L899 302Q888 323 867.5 336Q847 349 814 349Q768 349 741.5 317Q715 285 716 203V193Q729 221 757 238.5Q785 256 825 256Q888 256 924 223Q960 190 960 128Q960 67 923 28Q886 -11 810 -11ZM729 125Q729 95 748 76.5Q767 58 802 58Q835 58 856 75Q877 92 877 126Q877 156 859 173.5Q841 191 803 191Q768 191 748.5 173.5Q729 156 729 125ZM702 700 361 0H258L600 700Z" glyph-name="uni215A" horiz-adv-x="1001" unicode="&#8538;" /><glyph d="M10 0ZM180 293H91V599L43 569L10 637L123 703H180ZM676 -11Q598 -11 556.5 20.5Q515 52 515 112Q515 153 534 177Q553 201 586 212Q560 225 545 247.5Q530 270 530 302Q530 362 567 390.5Q604 419 676 419Q748 419 786 390.5Q824 362 824 303Q824 271 808.5 248Q793 225 767 212Q800 201 819 176.5Q838 152 838 112Q838 52 796.5 20.5Q755 -11 676 -11ZM744 300Q744 325 726 338.5Q708 352 677 352Q645 352 627 338.5Q609 325 609 300Q609 244 676 244Q709 244 726.5 259Q744 274 744 300ZM751 114Q751 143 731.5 158.5Q712 174 678 174Q642 174 621.5 158.5Q601 143 601 114Q601 85 621 69.5Q641 54 676 54Q712 54 731.5 69.5Q751 85 751 114ZM586 700 245 0H142L484 700Z" glyph-name="uni215B" horiz-adv-x="878" unicode="&#8539;" /><glyph d="M22 0ZM180 282Q123 282 84.5 300Q46 318 22 359L83 403Q100 376 121.5 364.5Q143 353 174 353Q211 353 231.5 367.5Q252 382 252 412Q252 467 182 467H133V534H182Q210 534 225.5 547.5Q241 561 241 587Q241 639 173 639Q143 639 124.5 628Q106 617 90 588L29 627Q53 672 90 692Q127 712 182 712Q252 712 290.5 682.5Q329 653 329 596Q329 535 274 504Q304 492 321 469.5Q338 447 338 411Q338 353 298.5 317.5Q259 282 180 282ZM792 -11Q714 -11 672.5 20.5Q631 52 631 112Q631 153 650 177Q669 201 702 212Q676 225 661 247.5Q646 270 646 302Q646 362 683 390.5Q720 419 792 419Q864 419 902 390.5Q940 362 940 303Q940 271 924.5 248Q909 225 883 212Q916 201 935 176.5Q954 152 954 112Q954 52 912.5 20.5Q871 -11 792 -11ZM860 300Q860 325 842 338.5Q824 352 793 352Q761 352 743 338.5Q725 325 725 300Q725 244 792 244Q825 244 842.5 259Q860 274 860 300ZM867 114Q867 143 847.5 158.5Q828 174 794 174Q758 174 737.5 158.5Q717 143 717 114Q717 85 737 69.5Q757 54 792 54Q828 54 847.5 69.5Q867 85 867 114ZM702 700 361 0H258L600 700Z" glyph-name="uni215C" horiz-adv-x="994" unicode="&#8540;" /><glyph d="M20 0ZM792 -11Q714 -11 672.5 20.5Q631 52 631 112Q631 153 650 177Q669 201 702 212Q676 225 661 247.5Q646 270 646 302Q646 362 683 390.5Q720 419 792 419Q864 419 902 390.5Q940 362 940 303Q940 271 924.5 248Q909 225 883 212Q916 201 935 176.5Q954 152 954 112Q954 52 912.5 20.5Q871 -11 792 -11ZM860 300Q860 325 842 338.5Q824 352 793 352Q761 352 743 338.5Q725 325 725 300Q725 244 792 244Q825 244 842.5 259Q860 274 860 300ZM867 114Q867 143 847.5 158.5Q828 174 794 174Q758 174 737.5 158.5Q717 143 717 114Q717 85 737 69.5Q757 54 792 54Q828 54 847.5 69.5Q867 85 867 114ZM128 630 118 539Q154 554 198 554Q261 554 301.5 523.5Q342 493 342 425Q342 359 300 320.5Q258 282 177 282Q125 282 84.5 299Q44 316 20 354Q21 355 30 362Q39 369 50 377.5Q61 386 70 392.5Q79 399 80 400Q111 353 173 353Q210 353 232 371.5Q254 390 254 424Q254 458 233 474.5Q212 491 174 491Q128 491 93 464L39 490L58 700H323V629ZM702 700 361 0H258L600 700Z" glyph-name="uni215D" horiz-adv-x="994" unicode="&#8541;" /><glyph d="M20 0ZM719 -11Q641 -11 599.5 20.5Q558 52 558 112Q558 153 577 177Q596 201 629 212Q603 225 588 247.5Q573 270 573 302Q573 362 610 390.5Q647 419 719 419Q791 419 829 390.5Q867 362 867 303Q867 271 851.5 248Q836 225 810 212Q843 201 862 176.5Q881 152 881 112Q881 52 839.5 20.5Q798 -11 719 -11ZM787 300Q787 325 769 338.5Q751 352 720 352Q688 352 670 338.5Q652 325 652 300Q652 244 719 244Q752 244 769.5 259Q787 274 787 300ZM794 114Q794 143 774.5 158.5Q755 174 721 174Q685 174 664.5 158.5Q644 143 644 114Q644 85 664 69.5Q684 54 719 54Q755 54 774.5 69.5Q794 85 794 114ZM186 293H92Q92 392 127 479.5Q162 567 222 625L20 623V700H319V635Q254 580 220 492Q186 404 186 293ZM630 700 289 0H186L528 700Z" glyph-name="uni215E" horiz-adv-x="922" unicode="&#8542;" /><glyph d="M10 0ZM180 293H91V599L43 569L10 637L123 703H180ZM586 700 245 0H142L484 700Z" glyph-name="uni215F" horiz-adv-x="831" unicode="&#8543;" /><glyph d="M498 -218Q474 -218 451.5 -213Q429 -208 411.5 -195Q394 -182 383 -161.5Q372 -141 372 -109Q372 -62 395 -30Q418 2 451 19L443 85Q416 33 368.5 10Q321 -13 267 -13Q169 -13 123.5 40.5Q78 94 78 187V491H191V211Q191 79 300 79Q361 79 397 120Q433 161 435 240V491H548V0Q522 -2 503 -11Q484 -20 471.5 -33.5Q459 -47 453 -63.5Q447 -80 447 -97Q447 -125 463.5 -136Q480 -147 507 -147Q524 -147 541 -143Q558 -139 573 -130L590 -194Q551 -218 498 -218Z" glyph-name="uogonek" horiz-adv-x="632" unicode="&#371;" /><glyph d="M78 0ZM209 645Q209 691 238.5 717Q268 743 313 743Q358 743 386.5 717Q415 691 415 645Q415 599 386 573.5Q357 548 312 548Q267 548 238 573.5Q209 599 209 645ZM265 645Q265 623 278 609Q291 595 312 595Q332 595 346 609Q360 623 360 645Q360 668 346.5 681.5Q333 695 313 695Q291 695 278 681.5Q265 668 265 645ZM453 0 444 85Q416 34 368.5 10.5Q321 -13 267 -13Q169 -13 123.5 40.5Q78 94 78 187V491H191V211Q191 79 300 79Q361 79 397 120Q433 161 435 240V491H548V0Z" glyph-name="uring" horiz-adv-x="632" unicode="&#367;" /><glyph d="M78 0ZM453 0 444 85Q416 34 368.5 10.5Q321 -13 267 -13Q169 -13 123.5 40.5Q78 94 78 187V491H191V211Q191 79 300 79Q361 79 397 120Q433 161 435 240V491H548V0ZM401 690H477Q480 659 472 638Q464 617 450.5 604.5Q437 592 419 586.5Q401 581 384 581Q362 581 343.5 587Q325 593 309 600.5Q293 608 278.5 614Q264 620 250 620Q232 620 226.5 609Q221 598 221 584H145Q143 615 150.5 636Q158 657 171.5 669.5Q185 682 202.5 687.5Q220 693 237 693Q259 693 278 687Q297 681 313.5 673.5Q330 666 344.5 660Q359 654 373 654Q391 654 396 665Q401 676 401 690Z" glyph-name="utilde" horiz-adv-x="632" unicode="&#361;" /><glyph d="M7 491H125L265 112L403 491H518L323 0H203Z" glyph-name="v" horiz-adv-x="525" unicode="v" /><glyph d="M327 488H430L537 129L641 491H746L591 0H481L376 362L273 0H164L7 491H115L221 130Z" glyph-name="w" horiz-adv-x="752" unicode="w" /><glyph d="M7 0ZM534 690 414 573H323V577L401 696H534ZM327 488H430L537 129L641 491H746L591 0H481L376 362L273 0H164L7 491H115L221 130Z" glyph-name="wacute" horiz-adv-x="752" unicode="&#7811;" /><glyph d="M7 0ZM376 638 310 573H205V576L327 696H428L552 576V573H441ZM327 488H430L537 129L641 491H746L591 0H481L376 362L273 0H164L7 491H115L221 130Z" glyph-name="wcircumflex" horiz-adv-x="752" unicode="&#373;" /><glyph d="M7 0ZM402 640Q402 672 420 687.5Q438 703 470 703Q502 703 520 687.5Q538 672 538 640Q538 608 520 592Q502 576 470 576Q438 576 420 592Q402 608 402 640ZM215 640Q215 672 233 687.5Q251 703 283 703Q315 703 333 687.5Q351 672 351 640Q351 608 333 592Q315 576 283 576Q251 576 233 592Q215 608 215 640ZM327 488H430L537 129L641 491H746L591 0H481L376 362L273 0H164L7 491H115L221 130Z" glyph-name="wdieresis" horiz-adv-x="752" unicode="&#7813;" /><glyph d="M7 0ZM327 488H430L537 129L641 491H746L591 0H481L376 362L273 0H164L7 491H115L221 130ZM338 575 218 692V698H352L430 579V575Z" glyph-name="wgrave" horiz-adv-x="752" unicode="&#7809;" /><glyph d="M18 491H147L267 321L385 491H508L327 249L519 0H390L259 177L129 0H6L199 251Z" glyph-name="x" horiz-adv-x="525" unicode="x" /><glyph d="M187 -56 204 -6 5 491H123L263 113L402 491H519L285 -93Q256 -165 208.5 -191Q161 -217 99 -217Q74 -217 54 -213.5Q34 -210 10 -202L25 -115Q42 -121 57 -124.5Q72 -128 92 -128Q104 -128 117.5 -125.5Q131 -123 143.5 -115.5Q156 -108 167 -93.5Q178 -79 187 -56Z" glyph-name="y" horiz-adv-x="525" unicode="y" /><glyph d="M277 -218Q241 -214 208 -208Q175 -202 147.5 -189.5Q120 -177 97.5 -157Q75 -137 60 -105L132 -49Q156 -95 191.5 -113.5Q227 -132 275 -132Q340 -132 381 -99Q422 -66 422 10V82Q396 39 354.5 20Q313 1 266 1Q169 1 124 55Q79 109 79 202V491H191V223Q191 93 294 93Q353 93 386.5 134Q420 175 422 254V491H534V20Q534 -43 515 -88.5Q496 -134 462 -162.5Q428 -191 380.5 -204.5Q333 -218 277 -218Z" glyph-name="y.school" horiz-adv-x="619" /><glyph d="M5 0ZM187 -56 204 -6 5 491H123L263 113L402 491H519L285 -93Q256 -165 208.5 -191Q161 -217 99 -217Q74 -217 54 -213.5Q34 -210 10 -202L25 -115Q42 -121 57 -124.5Q72 -128 92 -128Q104 -128 117.5 -125.5Q131 -123 143.5 -115.5Q156 -108 167 -93.5Q178 -79 187 -56ZM421 690 301 573H210V577L288 696H421Z" glyph-name="yacute" horiz-adv-x="525" unicode="&#253;" /><glyph d="M60 0ZM277 -218Q241 -214 208 -208Q175 -202 147.5 -189.5Q120 -177 97.5 -157Q75 -137 60 -105L132 -49Q156 -95 191.5 -113.5Q227 -132 275 -132Q340 -132 381 -99Q422 -66 422 10V82Q396 39 354.5 20Q313 1 266 1Q169 1 124 55Q79 109 79 202V491H191V223Q191 93 294 93Q353 93 386.5 134Q420 175 422 254V491H534V20Q534 -43 515 -88.5Q496 -134 462 -162.5Q428 -191 380.5 -204.5Q333 -218 277 -218ZM438 690 318 573H227V577L305 696H438Z" glyph-name="yacute.school" horiz-adv-x="619" /><glyph d="M5 0ZM187 -56 204 -6 5 491H123L263 113L402 491H519L285 -93Q256 -165 208.5 -191Q161 -217 99 -217Q74 -217 54 -213.5Q34 -210 10 -202L25 -115Q42 -121 57 -124.5Q72 -128 92 -128Q104 -128 117.5 -125.5Q131 -123 143.5 -115.5Q156 -108 167 -93.5Q178 -79 187 -56ZM261 638 195 573H90V576L212 696H313L437 576V573H326Z" glyph-name="ycircumflex" horiz-adv-x="525" unicode="&#375;" /><glyph d="M60 0ZM309 638 243 573H138V576L260 696H361L485 576V573H374ZM277 -218Q241 -214 208 -208Q175 -202 147.5 -189.5Q120 -177 97.5 -157Q75 -137 60 -105L132 -49Q156 -95 191.5 -113.5Q227 -132 275 -132Q340 -132 381 -99Q422 -66 422 10V82Q396 39 354.5 20Q313 1 266 1Q169 1 124 55Q79 109 79 202V491H191V223Q191 93 294 93Q353 93 386.5 134Q420 175 422 254V491H534V20Q534 -43 515 -88.5Q496 -134 462 -162.5Q428 -191 380.5 -204.5Q333 -218 277 -218Z" glyph-name="ycircumflex.school" horiz-adv-x="619" /><glyph d="M5 0ZM187 -56 204 -6 5 491H123L263 113L402 491H519L285 -93Q256 -165 208.5 -191Q161 -217 99 -217Q74 -217 54 -213.5Q34 -210 10 -202L25 -115Q42 -121 57 -124.5Q72 -128 92 -128Q104 -128 117.5 -125.5Q131 -123 143.5 -115.5Q156 -108 167 -93.5Q178 -79 187 -56ZM287 640Q287 672 305 687.5Q323 703 355 703Q387 703 405 687.5Q423 672 423 640Q423 608 405 592Q387 576 355 576Q323 576 305 592Q287 608 287 640ZM100 640Q100 672 118 687.5Q136 703 168 703Q200 703 218 687.5Q236 672 236 640Q236 608 218 592Q200 576 168 576Q136 576 118 592Q100 608 100 640Z" glyph-name="ydieresis" horiz-adv-x="525" unicode="&#255;" /><glyph d="M60 0ZM336 640Q336 672 354 687.5Q372 703 404 703Q436 703 454 687.5Q472 672 472 640Q472 608 454 592Q436 576 404 576Q372 576 354 592Q336 608 336 640ZM149 640Q149 672 167 687.5Q185 703 217 703Q249 703 267 687.5Q285 672 285 640Q285 608 267 592Q249 576 217 576Q185 576 167 592Q149 608 149 640ZM277 -218Q241 -214 208 -208Q175 -202 147.5 -189.5Q120 -177 97.5 -157Q75 -137 60 -105L132 -49Q156 -95 191.5 -113.5Q227 -132 275 -132Q340 -132 381 -99Q422 -66 422 10V82Q396 39 354.5 20Q313 1 266 1Q169 1 124 55Q79 109 79 202V491H191V223Q191 93 294 93Q353 93 386.5 134Q420 175 422 254V491H534V20Q534 -43 515 -88.5Q496 -134 462 -162.5Q428 -191 380.5 -204.5Q333 -218 277 -218Z" glyph-name="ydieresis.school" horiz-adv-x="619" /><glyph d="M568 288V215H378V0H260V215H70V288H252L220 340H70V413H178L9 700H137L322 372L505 700H628L460 413H568V340H417L387 288Z" glyph-name="yen" horiz-adv-x="637" unicode="&#165;" /><glyph d="M37 0V74L317 404H42V491H450V414L169 86H458V0Z" glyph-name="z" horiz-adv-x="496" unicode="z" /><glyph d="M37 0ZM406 690 286 573H195V577L273 696H406ZM37 0V74L317 404H42V491H450V414L169 86H458V0Z" glyph-name="zacute" horiz-adv-x="496" unicode="&#378;" /><glyph d="M37 0ZM249 633 317 696H422V694L298 573H197L75 694V696H184ZM37 0V74L317 404H42V491H450V414L169 86H458V0Z" glyph-name="zcaron" horiz-adv-x="496" unicode="&#382;" /><glyph d="M37 0ZM37 0V74L317 404H42V491H450V414L169 86H458V0ZM178 640Q178 672 197 687.5Q216 703 249 703Q281 703 299.5 687.5Q318 672 318 640Q318 608 299.5 592Q281 576 249 576Q216 576 197 592Q178 608 178 640Z" glyph-name="zdotaccent" horiz-adv-x="496" unicode="&#380;" /><glyph d="M31 350Q31 446 48 514.5Q65 583 99.5 627Q134 671 187 692Q240 713 311 713Q455 713 524 627Q593 541 593 350Q593 161 523.5 74Q454 -13 311 -13Q240 -13 187 8Q134 29 99.5 73Q65 117 48 186Q31 255 31 350ZM482 351Q482 427 471 479Q460 531 438 562.5Q416 594 384.5 607.5Q353 621 311 621Q270 621 238.5 607.5Q207 594 185.5 562.5Q164 531 153 479Q142 427 142 349Q142 271 153 219Q164 167 185.5 135.5Q207 104 238.5 91Q270 78 311 78Q353 78 384.5 91.5Q416 105 438 136.5Q460 168 471 220.5Q482 273 482 351Z" glyph-name="zero" horiz-adv-x="625" unicode="0" /><glyph d="M76 350Q76 445 93 513.5Q110 582 145 626.5Q180 671 234.5 692Q289 713 363 713Q438 713 492.5 692Q547 671 582.5 626.5Q618 582 635 513.5Q652 445 652 350Q652 162 582.5 74.5Q513 -13 363 -13Q289 -13 234.5 8Q180 29 145 73Q110 117 93 186Q76 255 76 350ZM537 351Q537 427 525.5 478.5Q514 530 492 561.5Q470 593 437.5 607Q405 621 363 621Q321 621 289 607.5Q257 594 235.5 562.5Q214 531 202.5 479Q191 427 191 349Q191 271 202.5 219Q214 167 235.5 135.5Q257 104 289 91Q321 78 363 78Q405 78 437.5 91Q470 104 492 135.5Q514 167 525.5 219.5Q537 272 537 351Z" glyph-name="zero.LP" horiz-adv-x="729" /><glyph d="M56 300Q56 465 122.5 539Q189 613 315 613Q442 613 509 538.5Q576 464 576 299Q576 137 509 62Q442 -13 315 -13Q189 -13 122.5 61.5Q56 136 56 300ZM465 300Q465 363 455.5 406Q446 449 427 474.5Q408 500 380 511Q352 522 315 522Q279 522 251.5 511.5Q224 501 205.5 475.5Q187 450 177 407Q167 364 167 300Q167 236 177 193.5Q187 151 205.5 125.5Q224 100 251.5 89Q279 78 315 78Q352 78 380 88.5Q408 99 427 124.5Q446 150 455.5 193Q465 236 465 300Z" glyph-name="zero.OP" horiz-adv-x="632" /><glyph d="M39 300Q39 465 109 539Q179 613 312 613Q445 613 515.5 538.5Q586 464 586 299Q586 137 515.5 62Q445 -13 312 -13Q179 -13 109 61.5Q39 136 39 300ZM477 300Q477 363 466.5 406Q456 449 435 474.5Q414 500 383 511Q352 522 312 522Q273 522 242.5 511.5Q212 501 191 475.5Q170 450 159 407Q148 364 148 300Q148 236 159 193.5Q170 151 191 125.5Q212 100 242.5 89Q273 78 312 78Q352 78 383 88.5Q414 99 435 124.5Q456 150 466.5 193Q477 236 477 300Z" glyph-name="zero.OT" horiz-adv-x="625" /><glyph d="M39 0ZM39 4Q39 115 81.5 167Q124 219 217 219Q310 219 352.5 167Q395 115 395 4Q395 -107 352.5 -159Q310 -211 217 -211Q124 -211 81.5 -159.5Q39 -108 39 4ZM307 4Q307 45 301 72.5Q295 100 283.5 116.5Q272 133 255.5 140Q239 147 217 147Q195 147 178.5 140Q162 133 150.5 116.5Q139 100 133 72Q127 44 127 3Q127 -38 133 -65.5Q139 -93 150.5 -109.5Q162 -126 178.5 -133Q195 -140 217 -140Q239 -140 255.5 -133Q272 -126 283.5 -109.5Q295 -93 301 -65Q307 -37 307 4Z" glyph-name="zero.inf" horiz-adv-x="437" /><glyph glyph-name="zerowidthspace" horiz-adv-x="0" unicode="&#8203;" /></font>
</defs>
</svg>
