<?xml version="1.0" standalone="no"?><!DOCTYPE svg PUBLIC "-//W3C//DTD SVG 1.1//EN" "http://www.w3.org/Graphics/SVG/1.1/DTD/svg11.dtd" ><svg version="1.1" xmlns="http://www.w3.org/2000/svg"><defs><font horiz-adv-x="0" id="font"><font-face ascent="957" bbox="-77 -330 1141 957" cap-height="700" descent="-220" font-family="Honeywell Cond Web" font-stretch="condensed" font-style="normal" font-weight="800" units-per-em="1000" x-height="496" /><missing-glyph d="M85 0V700H612V0ZM303 346 157 585V105ZM394 346 540 108V584ZM215 626 349 404 484 626ZM347 289 220 74H477Z" horiz-adv-x="697" /><glyph d="M0 0Z" glyph-name=".ttfautohint" horiz-adv-x="540" /><glyph d="M270 533 204 232H336ZM388 0 362 116H178L152 0H8L187 700H358L536 0Z" glyph-name="A" horiz-adv-x="544" unicode="A" /><glyph d="M272 544 201 232H339ZM392 0 367 114H173L146 0H6L196 700H743V579H400L438 416H705V291H465L503 122H751V0Z" glyph-name="AE" horiz-adv-x="782" unicode="&#198;" /><glyph d="M8 0ZM270 533 204 232H336ZM388 0 362 116H178L152 0H8L187 700H358L536 0ZM415 900 314 775H210V780L273 907H415Z" glyph-name="Aacute" horiz-adv-x="544" unicode="&#193;" /><glyph d="M8 0ZM270 533 204 232H336ZM388 0 362 116H178L152 0H8L187 700H358L536 0ZM328 906H409Q409 867 399.5 840.5Q390 814 372.5 798Q355 782 329.5 775Q304 768 272 768Q239 768 214 775Q189 782 171.5 798Q154 814 145 840.5Q136 867 136 906H217Q217 870 230 856.5Q243 843 272 843Q301 843 314.5 856.5Q328 870 328 906Z" glyph-name="Abreve" horiz-adv-x="544" unicode="&#258;" /><glyph d="M8 0ZM270 533 204 232H336ZM388 0 362 116H178L152 0H8L187 700H358L536 0ZM269 834 226 775H123V779L217 907H328L423 779V775H315Z" glyph-name="Acircumflex" horiz-adv-x="544" unicode="&#194;" /><glyph d="M8 0ZM270 533 204 232H336ZM388 0 362 116H178L152 0H8L187 700H358L536 0ZM298 850Q298 884 316 902Q334 920 367 920Q438 920 438 850Q438 776 367 776Q334 776 316 795Q298 814 298 850ZM117 850Q117 884 135.5 902Q154 920 187 920Q257 920 257 850Q257 776 187 776Q154 776 135.5 795Q117 814 117 850Z" glyph-name="Adieresis" horiz-adv-x="544" unicode="&#196;" /><glyph d="M8 0ZM270 533 204 232H336ZM388 0 362 116H178L152 0H8L187 700H358L536 0ZM229 776 127 901V908H274L335 781V776Z" glyph-name="Agrave" horiz-adv-x="544" unicode="&#192;" /><glyph d="M8 0ZM270 533 204 232H336ZM388 0 362 116H178L152 0H8L187 700H358L536 0ZM386 879V794H158V879Z" glyph-name="Amacron" horiz-adv-x="544" unicode="&#256;" /><glyph d="M529 -196Q509 -211 488 -219Q467 -227 441 -227Q419 -227 397.5 -221Q376 -215 358.5 -200.5Q341 -186 330.5 -161.5Q320 -137 320 -100Q320 -55 339.5 -24.5Q359 6 385 23L364 116H176L150 0H8L187 700H358L536 0H469Q431 -4 414.5 -29.5Q398 -55 398 -85Q398 -117 414.5 -129.5Q431 -142 451 -142Q476 -142 496 -125ZM270 537 202 232H338Z" glyph-name="Aogonek" horiz-adv-x="544" unicode="&#260;" /><glyph d="M8 0ZM270 533 204 232H336ZM388 0 362 116H178L152 0H8L187 700H358L536 0ZM174 857Q174 905 201.5 931Q229 957 272 957Q314 957 341 931Q368 905 368 857Q368 807 341 781Q314 755 272 755Q229 755 201.5 781Q174 807 174 857ZM233 857Q233 835 244 822.5Q255 810 272 810Q288 810 299.5 822.5Q311 835 311 857Q311 878 299.5 890Q288 902 272 902Q255 902 244 890Q233 878 233 857Z" glyph-name="Aring" horiz-adv-x="544" unicode="&#197;" /><glyph d="M8 0ZM270 533 204 232H336ZM388 0 362 116H178L152 0H8L187 700H358L536 0ZM337 902H415Q417 868 410.5 845Q404 822 392 808Q380 794 365 788Q350 782 335 782Q317 782 302.5 787.5Q288 793 275 799.5Q262 806 250.5 811.5Q239 817 228 817Q215 817 211 806.5Q207 796 207 783H129Q127 817 133.5 840.5Q140 864 151.5 877.5Q163 891 178 897Q193 903 208 903Q226 903 241 897.5Q256 892 269 885.5Q282 879 293.5 873.5Q305 868 316 868Q330 868 333.5 878Q337 888 337 902Z" glyph-name="Atilde" horiz-adv-x="544" unicode="&#195;" /><glyph d="M64 0V700H319Q365 700 399 686Q433 672 455 647.5Q477 623 488 590Q499 557 499 519Q499 462 477 423Q455 384 420 363Q468 346 490.5 301Q513 256 513 201Q513 102 462.5 51Q412 0 314 0ZM284 582H202V410H283Q323 410 343 435Q363 460 363 497Q363 539 340.5 560.5Q318 582 284 582ZM289 295H202V116H287Q329 116 351 138Q373 160 373 208Q373 249 352 272Q331 295 289 295Z" glyph-name="B" horiz-adv-x="542" unicode="B" /><glyph d="M301 -14Q166 -14 103.5 74Q41 162 41 351Q41 542 106.5 628Q172 714 306 714Q348 714 383.5 704.5Q419 695 447.5 672.5Q476 650 497 613.5Q518 577 531 522L409 481Q395 539 369.5 561.5Q344 584 305 584Q276 584 254 573Q232 562 216.5 535Q201 508 193 463Q185 418 185 349Q185 281 193 235.5Q201 190 216.5 162.5Q232 135 254.5 123.5Q277 112 306 112Q345 112 373 137.5Q401 163 416 222L537 174Q511 77 451.5 31.5Q392 -14 301 -14Z" glyph-name="C" horiz-adv-x="549" unicode="C" /><glyph glyph-name="CR" horiz-adv-x="134" unicode="" /><glyph d="M41 0ZM301 -14Q166 -14 103.5 74Q41 162 41 351Q41 542 106.5 628Q172 714 306 714Q348 714 383.5 704.5Q419 695 447.5 672.5Q476 650 497 613.5Q518 577 531 522L409 481Q395 539 369.5 561.5Q344 584 305 584Q276 584 254 573Q232 562 216.5 535Q201 508 193 463Q185 418 185 349Q185 281 193 235.5Q201 190 216.5 162.5Q232 135 254.5 123.5Q277 112 306 112Q345 112 373 137.5Q401 163 416 222L537 174Q511 77 451.5 31.5Q392 -14 301 -14ZM445 900 344 775H240V780L303 907H445Z" glyph-name="Cacute" horiz-adv-x="549" unicode="&#262;" /><glyph d="M41 0ZM301 -14Q166 -14 103.5 74Q41 162 41 351Q41 542 106.5 628Q172 714 306 714Q348 714 383.5 704.5Q419 695 447.5 672.5Q476 650 497 613.5Q518 577 531 522L409 481Q395 539 369.5 561.5Q344 584 305 584Q276 584 254 573Q232 562 216.5 535Q201 508 193 463Q185 418 185 349Q185 281 193 235.5Q201 190 216.5 162.5Q232 135 254.5 123.5Q277 112 306 112Q345 112 373 137.5Q401 163 416 222L537 174Q511 77 451.5 31.5Q392 -14 301 -14ZM305 848 351 907H454V904L358 775H247L154 904V907H262Z" glyph-name="Ccaron" horiz-adv-x="549" unicode="&#268;" /><glyph d="M298 -249Q260 -249 225 -232Q190 -215 173 -173L233 -134Q255 -176 291 -176Q308 -176 319.5 -166.5Q331 -157 331 -139Q331 -122 320.5 -112Q310 -102 292 -102Q287 -102 283.5 -102.5Q280 -103 275 -104L255 -90L274 -13Q153 -5 97 83.5Q41 172 41 351Q41 542 106.5 628Q172 714 306 714Q348 714 383.5 704.5Q419 695 447.5 672.5Q476 650 497 613.5Q518 577 531 522L409 481Q395 539 369.5 561.5Q344 584 305 584Q276 584 254 573Q232 562 216.5 535Q201 508 193 463Q185 418 185 349Q185 281 193 235.5Q201 190 216.5 162.5Q232 135 254.5 123.5Q277 112 306 112Q345 112 373 137.5Q401 163 416 222L537 174Q514 88 464.5 43Q415 -2 340 -12L329 -51H330Q362 -53 387 -75.5Q412 -98 412 -141Q412 -169 403 -189Q394 -209 378 -222.5Q362 -236 341.5 -242.5Q321 -249 298 -249Z" glyph-name="Ccedilla" horiz-adv-x="549" unicode="&#199;" /><glyph d="M41 0ZM301 -14Q166 -14 103.5 74Q41 162 41 351Q41 542 106.5 628Q172 714 306 714Q348 714 383.5 704.5Q419 695 447.5 672.5Q476 650 497 613.5Q518 577 531 522L409 481Q395 539 369.5 561.5Q344 584 305 584Q276 584 254 573Q232 562 216.5 535Q201 508 193 463Q185 418 185 349Q185 281 193 235.5Q201 190 216.5 162.5Q232 135 254.5 123.5Q277 112 306 112Q345 112 373 137.5Q401 163 416 222L537 174Q511 77 451.5 31.5Q392 -14 301 -14ZM298 834 255 775H152V779L246 907H357L452 779V775H344Z" glyph-name="Ccircumflex" horiz-adv-x="549" unicode="&#264;" /><glyph d="M41 0ZM301 -14Q166 -14 103.5 74Q41 162 41 351Q41 542 106.5 628Q172 714 306 714Q348 714 383.5 704.5Q419 695 447.5 672.5Q476 650 497 613.5Q518 577 531 522L409 481Q395 539 369.5 561.5Q344 584 305 584Q276 584 254 573Q232 562 216.5 535Q201 508 193 463Q185 418 185 349Q185 281 193 235.5Q201 190 216.5 162.5Q232 135 254.5 123.5Q277 112 306 112Q345 112 373 137.5Q401 163 416 222L537 174Q511 77 451.5 31.5Q392 -14 301 -14ZM227 848Q227 920 300 920Q372 920 372 848Q372 775 300 775Q227 775 227 848Z" glyph-name="Cdotaccent" horiz-adv-x="549" unicode="&#266;" /><glyph d="M266 0H64V700H276Q412 700 478.5 616.5Q545 533 545 355Q545 178 476.5 89Q408 0 266 0ZM264 125Q296 125 321.5 136.5Q347 148 365 175Q383 202 392.5 245Q402 288 402 351Q402 471 370 523.5Q338 576 276 576H207V125Z" glyph-name="D" horiz-adv-x="586" unicode="D" /><glyph d="M64 0ZM266 0H64V700H276Q412 700 478.5 616.5Q545 533 545 355Q545 178 476.5 89Q408 0 266 0ZM264 125Q296 125 321.5 136.5Q347 148 365 175Q383 202 392.5 245Q402 288 402 351Q402 471 370 523.5Q338 576 276 576H207V125ZM304 848 350 907H453V904L357 775H246L153 904V907H261Z" glyph-name="Dcaron" horiz-adv-x="586" unicode="&#270;" /><glyph d="M281 0H79V292H27V408H79V700H291Q427 700 493.5 616.5Q560 533 560 355Q560 0 281 0ZM222 125H279Q311 125 336.5 136.5Q362 148 380 175Q398 202 407.5 245Q417 288 417 351Q417 471 384.5 523.5Q352 576 291 576H222V408H303V292H222Z" glyph-name="Dcroat" horiz-adv-x="601" unicode="&#272;" /><glyph d="M64 0V700H483V578H202V414H441V289H202V122H481V0Z" glyph-name="E" horiz-adv-x="518" unicode="E" /><glyph d="M64 0ZM64 0V700H483V578H202V414H441V289H202V122H481V0ZM419 900 318 775H214V780L277 907H419Z" glyph-name="Eacute" horiz-adv-x="518" unicode="&#201;" /><glyph d="M64 0ZM64 0V700H483V578H202V414H441V289H202V122H481V0ZM332 906H413Q413 867 403.5 840.5Q394 814 376.5 798Q359 782 333.5 775Q308 768 276 768Q243 768 218 775Q193 782 175.5 798Q158 814 149 840.5Q140 867 140 906H221Q221 870 234 856.5Q247 843 276 843Q305 843 318.5 856.5Q332 870 332 906Z" glyph-name="Ebreve" horiz-adv-x="518" unicode="&#276;" /><glyph d="M64 0ZM64 0V700H483V578H202V414H441V289H202V122H481V0ZM279 848 325 907H428V904L332 775H221L128 904V907H236Z" glyph-name="Ecaron" horiz-adv-x="518" unicode="&#282;" /><glyph d="M64 0ZM64 0V700H483V578H202V414H441V289H202V122H481V0ZM273 834 230 775H127V779L221 907H332L427 779V775H319Z" glyph-name="Ecircumflex" horiz-adv-x="518" unicode="&#202;" /><glyph d="M64 0ZM64 0V700H483V578H202V414H441V289H202V122H481V0ZM302 850Q302 884 320 902Q338 920 371 920Q442 920 442 850Q442 776 371 776Q338 776 320 795Q302 814 302 850ZM121 850Q121 884 139.5 902Q158 920 191 920Q261 920 261 850Q261 776 191 776Q158 776 139.5 795Q121 814 121 850Z" glyph-name="Edieresis" horiz-adv-x="518" unicode="&#203;" /><glyph d="M64 0ZM64 0V700H483V578H202V414H441V289H202V122H481V0ZM202 848Q202 920 275 920Q347 920 347 848Q347 775 275 775Q202 775 202 848Z" glyph-name="Edotaccent" horiz-adv-x="518" unicode="&#278;" /><glyph d="M64 0ZM64 0V700H483V578H202V414H441V289H202V122H481V0ZM233 776 131 901V908H278L339 781V776Z" glyph-name="Egrave" horiz-adv-x="518" unicode="&#200;" /><glyph d="M64 0ZM64 0V700H483V578H202V414H441V289H202V122H481V0ZM390 879V794H162V879Z" glyph-name="Emacron" horiz-adv-x="518" unicode="&#274;" /><glyph d="M415 -22V16L193 403L196 0H64V700H177L422 278L418 700H550V-37Q550 -131 506.5 -175.5Q463 -220 395 -220Q372 -220 347 -215.5Q322 -211 302 -199L327 -91Q347 -102 367 -102Q392 -102 403.5 -84.5Q415 -67 415 -22Z" glyph-name="Eng" horiz-adv-x="613" unicode="&#330;" /><glyph d="M490 -196Q470 -211 449 -219Q428 -227 402 -227Q380 -227 358.5 -221Q337 -215 319.5 -200.5Q302 -186 291.5 -161.5Q281 -137 281 -100Q281 -69 291 -43.5Q301 -18 317 0H64V700H483V578H202V414H441V289H202V122H481V0H430Q392 -4 375.5 -29.5Q359 -55 359 -85Q359 -117 375.5 -129.5Q392 -142 412 -142Q437 -142 457 -125Z" glyph-name="Eogonek" horiz-adv-x="518" unicode="&#280;" /><glyph d="M281 0H79V292H27V408H79V700H291Q427 700 493.5 616.5Q560 533 560 355Q560 0 281 0ZM222 125H279Q311 125 336.5 136.5Q362 148 380 175Q398 202 407.5 245Q417 288 417 351Q417 471 384.5 523.5Q352 576 291 576H222V408H303V292H222Z" glyph-name="Eth" horiz-adv-x="601" unicode="&#208;" /><glyph d="M545 167Q520 73 462 29Q404 -15 310 -15Q206 -15 147 45.5Q88 106 70 231H8V312H63Q62 323 62 336V357H8V437H66Q80 581 143.5 647.5Q207 714 320 714Q362 714 397 704.5Q432 695 459.5 673.5Q487 652 507.5 616Q528 580 540 528L418 488Q404 545 379.5 567Q355 589 316 589Q272 589 243 556Q214 523 205 437H376L358 357H200V336Q200 324 201 312H350L332 231H212Q223 163 250 135Q277 107 315 107Q354 107 382.5 133Q411 159 422 215Z" glyph-name="Euro" horiz-adv-x="560" unicode="&#8364;" /><glyph d="M64 0V700H470V574H207V404H434V274H207V0Z" glyph-name="F" horiz-adv-x="485" unicode="F" /><glyph d="M279 -14Q168 -14 104.5 75.5Q41 165 41 351Q41 446 57.5 514.5Q74 583 107 627.5Q140 672 189.5 693Q239 714 306 714Q348 714 384.5 704.5Q421 695 450 673.5Q479 652 499.5 617Q520 582 532 530L409 487Q394 543 368 564Q342 585 305 585Q275 585 252.5 574Q230 563 215 536Q200 509 192 463.5Q184 418 184 350Q184 281 192.5 234.5Q201 188 216.5 159.5Q232 131 255 119Q278 107 308 107Q326 107 343 114Q360 121 373.5 137.5Q387 154 396 180Q405 206 406 245V259H307V375H534V0H439L427 78Q406 33 368 9.5Q330 -14 279 -14Z" glyph-name="G" horiz-adv-x="579" unicode="G" /><glyph d="M305 259V375H546V288Q546 209 529.5 152Q513 95 481 58Q449 21 403 3.5Q357 -14 299 -14Q176 -14 108.5 75.5Q41 165 41 351Q41 541 107 627.5Q173 714 307 714Q349 714 384.5 705Q420 696 449 674Q478 652 499 617Q520 582 532 530L409 487Q393 543 367.5 564Q342 585 305 585Q276 585 253.5 574Q231 563 215.5 536Q200 509 192 463.5Q184 418 184 350Q184 281 192 234.5Q200 188 215.5 159.5Q231 131 253.5 119Q276 107 305 107Q348 107 377 142Q406 177 405 259Z" glyph-name="G.alt" horiz-adv-x="580" /><glyph d="M41 0ZM279 -14Q168 -14 104.5 75.5Q41 165 41 351Q41 446 57.5 514.5Q74 583 107 627.5Q140 672 189.5 693Q239 714 306 714Q348 714 384.5 704.5Q421 695 450 673.5Q479 652 499.5 617Q520 582 532 530L409 487Q394 543 368 564Q342 585 305 585Q275 585 252.5 574Q230 563 215 536Q200 509 192 463.5Q184 418 184 350Q184 281 192.5 234.5Q201 188 216.5 159.5Q232 131 255 119Q278 107 308 107Q326 107 343 114Q360 121 373.5 137.5Q387 154 396 180Q405 206 406 245V259H307V375H534V0H439L427 78Q406 33 368 9.5Q330 -14 279 -14ZM360 906H441Q441 867 431.5 840.5Q422 814 404.5 798Q387 782 361.5 775Q336 768 304 768Q271 768 246 775Q221 782 203.5 798Q186 814 177 840.5Q168 867 168 906H249Q249 870 262 856.5Q275 843 304 843Q333 843 346.5 856.5Q360 870 360 906Z" glyph-name="Gbreve" horiz-adv-x="579" unicode="&#286;" /><glyph d="M41 0ZM305 259V375H546V288Q546 209 529.5 152Q513 95 481 58Q449 21 403 3.5Q357 -14 299 -14Q176 -14 108.5 75.5Q41 165 41 351Q41 541 107 627.5Q173 714 307 714Q349 714 384.5 705Q420 696 449 674Q478 652 499 617Q520 582 532 530L409 487Q393 543 367.5 564Q342 585 305 585Q276 585 253.5 574Q231 563 215.5 536Q200 509 192 463.5Q184 418 184 350Q184 281 192 234.5Q200 188 215.5 159.5Q231 131 253.5 119Q276 107 305 107Q348 107 377 142Q406 177 405 259ZM361 907H442Q442 868 432.5 841.5Q423 815 405.5 799Q388 783 362.5 776Q337 769 305 769Q272 769 247 776Q222 783 204.5 799Q187 815 178 841.5Q169 868 169 907H250Q250 871 263 857.5Q276 844 305 844Q334 844 347.5 857.5Q361 871 361 907Z" glyph-name="Gbreve.alt" horiz-adv-x="580" /><glyph d="M41 0ZM279 -14Q168 -14 104.5 75.5Q41 165 41 351Q41 446 57.5 514.5Q74 583 107 627.5Q140 672 189.5 693Q239 714 306 714Q348 714 384.5 704.5Q421 695 450 673.5Q479 652 499.5 617Q520 582 532 530L409 487Q394 543 368 564Q342 585 305 585Q275 585 252.5 574Q230 563 215 536Q200 509 192 463.5Q184 418 184 350Q184 281 192.5 234.5Q201 188 216.5 159.5Q232 131 255 119Q278 107 308 107Q326 107 343 114Q360 121 373.5 137.5Q387 154 396 180Q405 206 406 245V259H307V375H534V0H439L427 78Q406 33 368 9.5Q330 -14 279 -14ZM302 834 259 775H156V779L250 907H361L456 779V775H348Z" glyph-name="Gcircumflex" horiz-adv-x="579" unicode="&#284;" /><glyph d="M41 0ZM305 259V375H546V288Q546 209 529.5 152Q513 95 481 58Q449 21 403 3.5Q357 -14 299 -14Q176 -14 108.5 75.5Q41 165 41 351Q41 541 107 627.5Q173 714 307 714Q349 714 384.5 705Q420 696 449 674Q478 652 499 617Q520 582 532 530L409 487Q393 543 367.5 564Q342 585 305 585Q276 585 253.5 574Q231 563 215.5 536Q200 509 192 463.5Q184 418 184 350Q184 281 192 234.5Q200 188 215.5 159.5Q231 131 253.5 119Q276 107 305 107Q348 107 377 142Q406 177 405 259ZM302 835 259 776H156V780L250 908H361L456 780V776H348Z" glyph-name="Gcircumflex.alt" horiz-adv-x="580" /><glyph d="M41 0ZM279 -14Q168 -14 104.5 75.5Q41 165 41 351Q41 446 57.5 514.5Q74 583 107 627.5Q140 672 189.5 693Q239 714 306 714Q348 714 384.5 704.5Q421 695 450 673.5Q479 652 499.5 617Q520 582 532 530L409 487Q394 543 368 564Q342 585 305 585Q275 585 252.5 574Q230 563 215 536Q200 509 192 463.5Q184 418 184 350Q184 281 192.5 234.5Q201 188 216.5 159.5Q232 131 255 119Q278 107 308 107Q326 107 343 114Q360 121 373.5 137.5Q387 154 396 180Q405 206 406 245V259H307V375H534V0H439L427 78Q406 33 368 9.5Q330 -14 279 -14ZM366 -147Q366 -216 333 -264Q300 -312 249 -327L219 -275Q246 -263 266 -242.5Q286 -222 291 -195Q259 -196 241 -179Q223 -162 223 -128Q223 -56 294 -56Q328 -56 347 -79Q366 -102 366 -147Z" glyph-name="Gcommaaccent" horiz-adv-x="579" unicode="&#290;" /><glyph d="M41 0ZM305 259V375H546V288Q546 209 529.5 152Q513 95 481 58Q449 21 403 3.5Q357 -14 299 -14Q176 -14 108.5 75.5Q41 165 41 351Q41 541 107 627.5Q173 714 307 714Q349 714 384.5 705Q420 696 449 674Q478 652 499 617Q520 582 532 530L409 487Q393 543 367.5 564Q342 585 305 585Q276 585 253.5 574Q231 563 215.5 536Q200 509 192 463.5Q184 418 184 350Q184 281 192 234.5Q200 188 215.5 159.5Q231 131 253.5 119Q276 107 305 107Q348 107 377 142Q406 177 405 259ZM375 -147Q375 -216 342 -264Q309 -312 258 -327L228 -275Q255 -263 275 -242.5Q295 -222 300 -195Q268 -196 250 -179Q232 -162 232 -128Q232 -56 303 -56Q337 -56 356 -79Q375 -102 375 -147Z" glyph-name="Gcommaaccent.alt" horiz-adv-x="580" /><glyph d="M41 0ZM279 -14Q168 -14 104.5 75.5Q41 165 41 351Q41 446 57.5 514.5Q74 583 107 627.5Q140 672 189.5 693Q239 714 306 714Q348 714 384.5 704.5Q421 695 450 673.5Q479 652 499.5 617Q520 582 532 530L409 487Q394 543 368 564Q342 585 305 585Q275 585 252.5 574Q230 563 215 536Q200 509 192 463.5Q184 418 184 350Q184 281 192.5 234.5Q201 188 216.5 159.5Q232 131 255 119Q278 107 308 107Q326 107 343 114Q360 121 373.5 137.5Q387 154 396 180Q405 206 406 245V259H307V375H534V0H439L427 78Q406 33 368 9.5Q330 -14 279 -14ZM230 848Q230 920 303 920Q375 920 375 848Q375 775 303 775Q230 775 230 848Z" glyph-name="Gdotaccent" horiz-adv-x="579" unicode="&#288;" /><glyph d="M41 0ZM305 259V375H546V288Q546 209 529.5 152Q513 95 481 58Q449 21 403 3.5Q357 -14 299 -14Q176 -14 108.5 75.5Q41 165 41 351Q41 541 107 627.5Q173 714 307 714Q349 714 384.5 705Q420 696 449 674Q478 652 499 617Q520 582 532 530L409 487Q393 543 367.5 564Q342 585 305 585Q276 585 253.5 574Q231 563 215.5 536Q200 509 192 463.5Q184 418 184 350Q184 281 192 234.5Q200 188 215.5 159.5Q231 131 253.5 119Q276 107 305 107Q348 107 377 142Q406 177 405 259ZM231 849Q231 921 304 921Q376 921 376 849Q376 776 304 776Q231 776 231 849Z" glyph-name="Gdotaccent.alt" horiz-adv-x="580" /><glyph d="M411 0V284H207V0H64V700H207V416H411V700H554V0Z" glyph-name="H" horiz-adv-x="618" unicode="H" /><glyph d="M219 416H423V501H219ZM423 0V284H219V0H76V501H27V582H76V700H219V582H423V700H566V582H614V501H566V0Z" glyph-name="Hbar" horiz-adv-x="641" unicode="&#294;" /><glyph d="M64 0ZM411 0V284H207V0H64V700H207V416H411V700H554V0ZM306 834 263 775H160V779L254 907H365L460 779V775H352Z" glyph-name="Hcircumflex" horiz-adv-x="618" unicode="&#292;" /><glyph d="M64 0V700H207V0Z" glyph-name="I" horiz-adv-x="270" unicode="I" /><glyph d="M64 0ZM64 0V700H207V0ZM651 250Q651 176 634.5 126Q618 76 589 44.5Q560 13 519 -0.5Q478 -14 430 -14Q392 -14 349.5 -1Q307 12 274 45L337 150Q357 132 379 123Q401 114 423 114Q462 114 485 144Q508 174 508 246V700H651Z" glyph-name="IJ" horiz-adv-x="702" unicode="&#306;" /><glyph d="M64 0ZM64 0V700H207V0ZM279 900 178 775H74V780L137 907H279Z" glyph-name="Iacute" horiz-adv-x="270" unicode="&#205;" /><glyph d="M0 0ZM64 0V700H207V0ZM192 906H273Q273 867 263.5 840.5Q254 814 236.5 798Q219 782 193.5 775Q168 768 136 768Q103 768 78 775Q53 782 35.5 798Q18 814 9 840.5Q0 867 0 906H81Q81 870 94 856.5Q107 843 136 843Q165 843 178.5 856.5Q192 870 192 906Z" glyph-name="Ibreve" horiz-adv-x="270" unicode="&#300;" /><glyph d="M0 0ZM64 0V700H207V0ZM133 834 90 775H-13V779L81 907H192L287 779V775H179Z" glyph-name="Icircumflex" horiz-adv-x="270" unicode="&#206;" /><glyph d="M0 0ZM64 0V700H207V0ZM162 850Q162 884 180 902Q198 920 231 920Q302 920 302 850Q302 776 231 776Q198 776 180 795Q162 814 162 850ZM-19 850Q-19 884 -0.5 902Q18 920 51 920Q121 920 121 850Q121 776 51 776Q18 776 -0.5 795Q-19 814 -19 850Z" glyph-name="Idieresis" horiz-adv-x="270" unicode="&#207;" /><glyph d="M62 0ZM64 0V700H207V0ZM62 848Q62 920 135 920Q207 920 207 848Q207 775 135 775Q62 775 62 848Z" glyph-name="Idotaccent" horiz-adv-x="270" unicode="&#304;" /><glyph d="M0 0ZM64 0V700H207V0ZM93 776 -9 901V908H138L199 781V776Z" glyph-name="Igrave" horiz-adv-x="270" unicode="&#204;" /><glyph d="M22 0ZM64 0V700H207V0ZM250 879V794H22V879Z" glyph-name="Imacron" horiz-adv-x="270" unicode="&#298;" /><glyph d="M207 -196Q187 -211 165.5 -219Q144 -227 118 -227Q96 -227 74.5 -221Q53 -215 36 -200.5Q19 -186 8.5 -161.5Q-2 -137 -2 -100Q-2 -55 17 -23Q36 9 64 26V700H207V0H146Q108 -4 91.5 -29.5Q75 -55 75 -85Q75 -117 91.5 -129.5Q108 -142 128 -142Q153 -142 173 -125Z" glyph-name="Iogonek" horiz-adv-x="270" unicode="&#302;" /><glyph d="M0 0ZM64 0V700H207V0ZM201 902H279Q281 868 274.5 845Q268 822 256 808Q244 794 229 788Q214 782 199 782Q181 782 166.5 787.5Q152 793 139 799.5Q126 806 114.5 811.5Q103 817 92 817Q79 817 75 806.5Q71 796 71 783H-7Q-9 817 -2.5 840.5Q4 864 15.5 877.5Q27 891 42 897Q57 903 72 903Q90 903 105 897.5Q120 892 133 885.5Q146 879 157.5 873.5Q169 868 180 868Q194 868 197.5 878Q201 888 201 902Z" glyph-name="Itilde" horiz-adv-x="270" unicode="&#296;" /><glyph d="M373 250Q373 176 356.5 126Q340 76 311 44.5Q282 13 241 -0.5Q200 -14 152 -14Q114 -14 71.5 -1Q29 12 -4 45L59 150Q79 132 101 123Q123 114 145 114Q184 114 207 144Q230 174 230 246V700H373Z" glyph-name="J" horiz-adv-x="426" unicode="J" /><glyph d="M0 0ZM373 250Q373 176 356.5 126Q340 76 311 44.5Q282 13 241 -0.5Q200 -14 152 -14Q114 -14 71.5 -1Q29 12 -4 45L59 150Q79 132 101 123Q123 114 145 114Q184 114 207 144Q230 174 230 246V700H373ZM296 834 253 775H150V779L244 907H355L450 779V775H342Z" glyph-name="Jcircumflex" horiz-adv-x="422" unicode="&#308;" /><glyph d="M208 188V0H64V700H208L206 388L389 700H551L355 407L555 0H387L261 268Z" glyph-name="K" horiz-adv-x="558" unicode="K" /><glyph d="M382 0 209 319V0H64V700H209V358L386 700H546L349 352L553 0Z" glyph-name="K.alt" horiz-adv-x="555" /><glyph d="M64 0ZM208 188V0H64V700H208L206 388L389 700H551L355 407L555 0H387L261 268ZM364 -147Q364 -216 331 -264Q298 -312 247 -327L217 -275Q244 -263 264 -242.5Q284 -222 289 -195Q257 -196 239 -179Q221 -162 221 -128Q221 -56 292 -56Q326 -56 345 -79Q364 -102 364 -147Z" glyph-name="Kcommaaccent" horiz-adv-x="558" unicode="&#310;" /><glyph d="M64 0ZM362 -147Q362 -216 329 -264Q296 -312 245 -327L215 -275Q242 -263 262 -242.5Q282 -222 287 -195Q255 -196 237 -179Q219 -162 219 -128Q219 -56 290 -56Q324 -56 343 -79Q362 -102 362 -147ZM382 0 209 319V0H64V700H209V358L386 700H546L349 352L553 0Z" glyph-name="Kcommaaccent.alt" horiz-adv-x="555" /><glyph d="M208 129H472V0H64V700H208Z" glyph-name="L" horiz-adv-x="493" unicode="L" /><glyph d="M64 0ZM208 129H472V0H64V700H208ZM279 900 178 775H74V780L137 907H279Z" glyph-name="Lacute" horiz-adv-x="493" unicode="&#313;" /><glyph d="M64 0ZM395 445H307L312 701H421ZM208 129H472V0H64V700H208Z" glyph-name="Lcaron" horiz-adv-x="496" unicode="&#317;" /><glyph d="M64 0ZM208 129H472V0H64V700H208ZM341 -147Q341 -216 308 -264Q275 -312 224 -327L194 -275Q221 -263 241 -242.5Q261 -222 266 -195Q234 -196 216 -179Q198 -162 198 -128Q198 -56 269 -56Q303 -56 322 -79Q341 -102 341 -147Z" glyph-name="Lcommaaccent" horiz-adv-x="493" unicode="&#315;" /><glyph d="M64 0ZM208 129H472V0H64V700H208ZM306 359Q306 431 379 431Q451 431 451 359Q451 286 379 286Q306 286 306 359Z" glyph-name="Ldot" horiz-adv-x="496" unicode="&#319;" /><glyph d="M488 0H81V221L18 170V292L81 343V700H224V423L348 516V393L224 300V129H488Z" glyph-name="Lslash" horiz-adv-x="509" unicode="&#321;" /><glyph d="M315 0 186 424 192 0H64V700H224L374 200L521 700H687V0H553L559 433L428 0Z" glyph-name="M" horiz-adv-x="750" unicode="M" /><glyph d="M424 0 194 401 197 0H64V700H177L421 280L417 700H550V0Z" glyph-name="N" horiz-adv-x="613" unicode="N" /><glyph glyph-name="NULL" horiz-adv-x="134" /><glyph d="M64 0ZM424 0 194 401 197 0H64V700H177L421 280L417 700H550V0ZM450 900 349 775H245V780L308 907H450Z" glyph-name="Nacute" horiz-adv-x="613" unicode="&#323;" /><glyph d="M64 0ZM424 0 194 401 197 0H64V700H177L421 280L417 700H550V0ZM310 848 356 907H459V904L363 775H252L159 904V907H267Z" glyph-name="Ncaron" horiz-adv-x="613" unicode="&#327;" /><glyph d="M64 0ZM424 0 194 401 197 0H64V700H177L421 280L417 700H550V0ZM381 -147Q381 -216 348 -264Q315 -312 264 -327L234 -275Q261 -263 281 -242.5Q301 -222 306 -195Q274 -196 256 -179Q238 -162 238 -128Q238 -56 309 -56Q343 -56 362 -79Q381 -102 381 -147Z" glyph-name="Ncommaaccent" horiz-adv-x="613" unicode="&#325;" /><glyph d="M64 0ZM424 0 194 401 197 0H64V700H177L421 280L417 700H550V0ZM372 902H450Q452 868 445.5 845Q439 822 427 808Q415 794 400 788Q385 782 370 782Q352 782 337.5 787.5Q323 793 310 799.5Q297 806 285.5 811.5Q274 817 263 817Q250 817 246 806.5Q242 796 242 783H164Q162 817 168.5 840.5Q175 864 186.5 877.5Q198 891 213 897Q228 903 243 903Q261 903 276 897.5Q291 892 304 885.5Q317 879 328.5 873.5Q340 868 351 868Q365 868 368.5 878Q372 888 372 902Z" glyph-name="Ntilde" horiz-adv-x="613" unicode="&#209;" /><glyph d="M303 -14Q164 -14 102.5 76Q41 166 41 351Q41 536 105 625Q169 714 305 714Q445 714 506.5 625Q568 536 568 350Q568 164 503.5 75Q439 -14 303 -14ZM305 585Q275 585 252.5 573.5Q230 562 215 534Q200 506 192.5 460.5Q185 415 185 348Q185 282 192.5 236.5Q200 191 215 163.5Q230 136 252.5 123.5Q275 111 305 111Q335 111 357 123Q379 135 393.5 162.5Q408 190 415.5 236Q423 282 423 350Q423 416 415.5 461Q408 506 393.5 533.5Q379 561 357 573Q335 585 305 585Z" glyph-name="O" horiz-adv-x="608" unicode="O" /><glyph d="M314 0Q178 0 109.5 86.5Q41 173 41 352Q41 529 107 614.5Q173 700 315 700H795V579H522V416H757V291H522V122H803V0ZM319 575Q286 575 261 563Q236 551 219 524.5Q202 498 193.5 455Q185 412 185 350Q185 289 193 246Q201 203 217 176Q233 149 257 136.5Q281 124 313 124H385V575Z" glyph-name="OE" horiz-adv-x="834" unicode="&#338;" /><glyph d="M41 0ZM303 -14Q164 -14 102.5 76Q41 166 41 351Q41 536 105 625Q169 714 305 714Q445 714 506.5 625Q568 536 568 350Q568 164 503.5 75Q439 -14 303 -14ZM305 585Q275 585 252.5 573.5Q230 562 215 534Q200 506 192.5 460.5Q185 415 185 348Q185 282 192.5 236.5Q200 191 215 163.5Q230 136 252.5 123.5Q275 111 305 111Q335 111 357 123Q379 135 393.5 162.5Q408 190 415.5 236Q423 282 423 350Q423 416 415.5 461Q408 506 393.5 533.5Q379 561 357 573Q335 585 305 585ZM444 900 343 775H239V780L302 907H444Z" glyph-name="Oacute" horiz-adv-x="608" unicode="&#211;" /><glyph d="M41 0ZM303 -14Q164 -14 102.5 76Q41 166 41 351Q41 536 105 625Q169 714 305 714Q445 714 506.5 625Q568 536 568 350Q568 164 503.5 75Q439 -14 303 -14ZM305 585Q275 585 252.5 573.5Q230 562 215 534Q200 506 192.5 460.5Q185 415 185 348Q185 282 192.5 236.5Q200 191 215 163.5Q230 136 252.5 123.5Q275 111 305 111Q335 111 357 123Q379 135 393.5 162.5Q408 190 415.5 236Q423 282 423 350Q423 416 415.5 461Q408 506 393.5 533.5Q379 561 357 573Q335 585 305 585ZM356 906H437Q437 867 427.5 840.5Q418 814 400.5 798Q383 782 357.5 775Q332 768 300 768Q267 768 242 775Q217 782 199.5 798Q182 814 173 840.5Q164 867 164 906H245Q245 870 258 856.5Q271 843 300 843Q329 843 342.5 856.5Q356 870 356 906Z" glyph-name="Obreve" horiz-adv-x="608" unicode="&#334;" /><glyph d="M41 0ZM303 -14Q164 -14 102.5 76Q41 166 41 351Q41 536 105 625Q169 714 305 714Q445 714 506.5 625Q568 536 568 350Q568 164 503.5 75Q439 -14 303 -14ZM305 585Q275 585 252.5 573.5Q230 562 215 534Q200 506 192.5 460.5Q185 415 185 348Q185 282 192.5 236.5Q200 191 215 163.5Q230 136 252.5 123.5Q275 111 305 111Q335 111 357 123Q379 135 393.5 162.5Q408 190 415.5 236Q423 282 423 350Q423 416 415.5 461Q408 506 393.5 533.5Q379 561 357 573Q335 585 305 585ZM297 834 254 775H151V779L245 907H356L451 779V775H343Z" glyph-name="Ocircumflex" horiz-adv-x="608" unicode="&#212;" /><glyph d="M41 0ZM303 -14Q164 -14 102.5 76Q41 166 41 351Q41 536 105 625Q169 714 305 714Q445 714 506.5 625Q568 536 568 350Q568 164 503.5 75Q439 -14 303 -14ZM305 585Q275 585 252.5 573.5Q230 562 215 534Q200 506 192.5 460.5Q185 415 185 348Q185 282 192.5 236.5Q200 191 215 163.5Q230 136 252.5 123.5Q275 111 305 111Q335 111 357 123Q379 135 393.5 162.5Q408 190 415.5 236Q423 282 423 350Q423 416 415.5 461Q408 506 393.5 533.5Q379 561 357 573Q335 585 305 585ZM326 850Q326 884 344 902Q362 920 395 920Q466 920 466 850Q466 776 395 776Q362 776 344 795Q326 814 326 850ZM145 850Q145 884 163.5 902Q182 920 215 920Q285 920 285 850Q285 776 215 776Q182 776 163.5 795Q145 814 145 850Z" glyph-name="Odieresis" horiz-adv-x="608" unicode="&#214;" /><glyph d="M41 0ZM303 -14Q164 -14 102.5 76Q41 166 41 351Q41 536 105 625Q169 714 305 714Q445 714 506.5 625Q568 536 568 350Q568 164 503.5 75Q439 -14 303 -14ZM305 585Q275 585 252.5 573.5Q230 562 215 534Q200 506 192.5 460.5Q185 415 185 348Q185 282 192.5 236.5Q200 191 215 163.5Q230 136 252.5 123.5Q275 111 305 111Q335 111 357 123Q379 135 393.5 162.5Q408 190 415.5 236Q423 282 423 350Q423 416 415.5 461Q408 506 393.5 533.5Q379 561 357 573Q335 585 305 585ZM258 776 156 901V908H303L364 781V776Z" glyph-name="Ograve" horiz-adv-x="608" unicode="&#210;" /><glyph d="M41 0ZM303 -14Q164 -14 102.5 76Q41 166 41 351Q41 536 105 625Q169 714 305 714Q445 714 506.5 625Q568 536 568 350Q568 164 503.5 75Q439 -14 303 -14ZM305 585Q275 585 252.5 573.5Q230 562 215 534Q200 506 192.5 460.5Q185 415 185 348Q185 282 192.5 236.5Q200 191 215 163.5Q230 136 252.5 123.5Q275 111 305 111Q335 111 357 123Q379 135 393.5 162.5Q408 190 415.5 236Q423 282 423 350Q423 416 415.5 461Q408 506 393.5 533.5Q379 561 357 573Q335 585 305 585ZM530 901 427 775H332V780L394 907H530ZM353 907V901L250 775H155V780L217 907Z" glyph-name="Ohungarumlaut" horiz-adv-x="608" unicode="&#336;" /><glyph d="M41 0ZM303 -14Q164 -14 102.5 76Q41 166 41 351Q41 536 105 625Q169 714 305 714Q445 714 506.5 625Q568 536 568 350Q568 164 503.5 75Q439 -14 303 -14ZM305 585Q275 585 252.5 573.5Q230 562 215 534Q200 506 192.5 460.5Q185 415 185 348Q185 282 192.5 236.5Q200 191 215 163.5Q230 136 252.5 123.5Q275 111 305 111Q335 111 357 123Q379 135 393.5 162.5Q408 190 415.5 236Q423 282 423 350Q423 416 415.5 461Q408 506 393.5 533.5Q379 561 357 573Q335 585 305 585ZM415 879V794H187V879Z" glyph-name="Omacron" horiz-adv-x="608" unicode="&#332;" /><glyph d="M308 -14Q206 -14 146 37L122 0H30L95 98Q69 143 57.5 206Q46 269 46 351Q46 536 110 625Q174 714 310 714Q361 714 400.5 702.5Q440 691 471 665L494 700H587L523 602Q573 515 573 350Q573 164 508.5 75Q444 -14 308 -14ZM190 348Q190 318 192 294Q194 270 198 251L392 543Q378 566 357 575.5Q336 585 309 585Q279 585 257 573.5Q235 562 220 534Q205 506 197.5 460.5Q190 415 190 348ZM309 111Q339 111 361 123Q383 135 397.5 162.5Q412 190 419.5 236Q427 282 427 350Q427 380 425 405Q423 430 419 450L224 155Q239 131 260 121Q281 111 309 111Z" glyph-name="Oslash" horiz-adv-x="611" unicode="&#216;" /><glyph d="M41 0ZM303 -14Q164 -14 102.5 76Q41 166 41 351Q41 536 105 625Q169 714 305 714Q445 714 506.5 625Q568 536 568 350Q568 164 503.5 75Q439 -14 303 -14ZM305 585Q275 585 252.5 573.5Q230 562 215 534Q200 506 192.5 460.5Q185 415 185 348Q185 282 192.5 236.5Q200 191 215 163.5Q230 136 252.5 123.5Q275 111 305 111Q335 111 357 123Q379 135 393.5 162.5Q408 190 415.5 236Q423 282 423 350Q423 416 415.5 461Q408 506 393.5 533.5Q379 561 357 573Q335 585 305 585ZM365 902H443Q445 868 438.5 845Q432 822 420 808Q408 794 393 788Q378 782 363 782Q345 782 330.5 787.5Q316 793 303 799.5Q290 806 278.5 811.5Q267 817 256 817Q243 817 239 806.5Q235 796 235 783H157Q155 817 161.5 840.5Q168 864 179.5 877.5Q191 891 206 897Q221 903 236 903Q254 903 269 897.5Q284 892 297 885.5Q310 879 321.5 873.5Q333 868 344 868Q358 868 361.5 878Q365 888 365 902Z" glyph-name="Otilde" horiz-adv-x="608" unicode="&#213;" /><glyph d="M64 0V700H308Q359 700 398 683Q437 666 462.5 634.5Q488 603 501 559.5Q514 516 514 462Q514 400 498 353Q482 306 452.5 274Q423 242 382 226Q341 210 291 210H207V0ZM282 570H207V337H283Q325 337 348.5 367.5Q372 398 372 457Q372 511 350.5 540.5Q329 570 282 570Z" glyph-name="P" horiz-adv-x="542" unicode="P" /><glyph d="M303 -14Q164 -14 102.5 76Q41 166 41 351Q41 536 105 625Q169 714 305 714Q445 714 506.5 625Q568 536 568 350Q568 236 544.5 159.5Q521 83 471 41L536 -88H413L372 -7Q343 -14 303 -14ZM304 585Q274 585 252 573.5Q230 562 215 534Q200 506 192.5 460.5Q185 415 185 348Q185 282 192.5 236.5Q200 191 215 163.5Q230 136 252 123.5Q274 111 304 111H313L255 225H378L400 181Q422 235 422 350Q422 416 414.5 461Q407 506 392.5 533.5Q378 561 356 573Q334 585 304 585Z" glyph-name="Q" horiz-adv-x="608" unicode="Q" /><glyph d="M288 575H205V359H288Q330 359 354 386.5Q378 414 378 469Q378 520 356 547.5Q334 575 288 575ZM205 235V0H64V700H313Q365 700 404 684Q443 668 469 638Q495 608 507.5 565.5Q520 523 520 471Q520 399 495.5 349Q471 299 425 272L523 0H370L291 235Z" glyph-name="R" horiz-adv-x="550" unicode="R" /><glyph d="M64 0ZM288 575H205V359H288Q330 359 354 386.5Q378 414 378 469Q378 520 356 547.5Q334 575 288 575ZM205 235V0H64V700H313Q365 700 404 684Q443 668 469 638Q495 608 507.5 565.5Q520 523 520 471Q520 399 495.5 349Q471 299 425 272L523 0H370L291 235ZM437 900 336 775H232V780L295 907H437Z" glyph-name="Racute" horiz-adv-x="550" unicode="&#340;" /><glyph d="M64 0ZM288 575H205V359H288Q330 359 354 386.5Q378 414 378 469Q378 520 356 547.5Q334 575 288 575ZM205 235V0H64V700H313Q365 700 404 684Q443 668 469 638Q495 608 507.5 565.5Q520 523 520 471Q520 399 495.5 349Q471 299 425 272L523 0H370L291 235ZM297 848 343 907H446V904L350 775H239L146 904V907H254Z" glyph-name="Rcaron" horiz-adv-x="550" unicode="&#344;" /><glyph d="M64 0ZM288 575H205V359H288Q330 359 354 386.5Q378 414 378 469Q378 520 356 547.5Q334 575 288 575ZM205 235V0H64V700H313Q365 700 404 684Q443 668 469 638Q495 608 507.5 565.5Q520 523 520 471Q520 399 495.5 349Q471 299 425 272L523 0H370L291 235ZM358 -147Q358 -216 325 -264Q292 -312 241 -327L211 -275Q238 -263 258 -242.5Q278 -222 283 -195Q251 -196 233 -179Q215 -162 215 -128Q215 -56 286 -56Q320 -56 339 -79Q358 -102 358 -147Z" glyph-name="Rcommaaccent" horiz-adv-x="550" unicode="&#342;" /><glyph d="M458 539 338 492Q324 542 299 565Q274 588 236 588Q202 588 182 570Q162 552 162 523Q162 493 183 472Q204 451 249 432L290 415Q378 379 421 327Q464 275 464 194Q464 98 406 42Q348 -14 240 -14Q149 -14 89 26.5Q29 67 3 162L123 211Q152 107 240 107Q278 107 299.5 129Q321 151 321 181Q321 211 303.5 230.5Q286 250 242 268L202 285Q153 306 119.5 330Q86 354 65 382Q44 410 34.5 442Q25 474 25 510Q25 553 38.5 590.5Q52 628 79 655.5Q106 683 145.5 698.5Q185 714 237 714Q329 714 385.5 667Q442 620 458 539Z" glyph-name="S" horiz-adv-x="491" unicode="S" /><glyph d="M3 0ZM458 539 338 492Q324 542 299 565Q274 588 236 588Q202 588 182 570Q162 552 162 523Q162 493 183 472Q204 451 249 432L290 415Q378 379 421 327Q464 275 464 194Q464 98 406 42Q348 -14 240 -14Q149 -14 89 26.5Q29 67 3 162L123 211Q152 107 240 107Q278 107 299.5 129Q321 151 321 181Q321 211 303.5 230.5Q286 250 242 268L202 285Q153 306 119.5 330Q86 354 65 382Q44 410 34.5 442Q25 474 25 510Q25 553 38.5 590.5Q52 628 79 655.5Q106 683 145.5 698.5Q185 714 237 714Q329 714 385.5 667Q442 620 458 539ZM384 898 283 773H179V778L242 905H384Z" glyph-name="Sacute" horiz-adv-x="491" unicode="&#346;" /><glyph d="M3 0ZM458 539 338 492Q324 542 299 565Q274 588 236 588Q202 588 182 570Q162 552 162 523Q162 493 183 472Q204 451 249 432L290 415Q378 379 421 327Q464 275 464 194Q464 98 406 42Q348 -14 240 -14Q149 -14 89 26.5Q29 67 3 162L123 211Q152 107 240 107Q278 107 299.5 129Q321 151 321 181Q321 211 303.5 230.5Q286 250 242 268L202 285Q153 306 119.5 330Q86 354 65 382Q44 410 34.5 442Q25 474 25 510Q25 553 38.5 590.5Q52 628 79 655.5Q106 683 145.5 698.5Q185 714 237 714Q329 714 385.5 667Q442 620 458 539ZM244 846 290 905H393V902L297 773H186L93 902V905H201Z" glyph-name="Scaron" horiz-adv-x="491" unicode="&#352;" /><glyph d="M233 -252Q195 -252 161 -234.5Q127 -217 110 -176L170 -137Q190 -179 227 -179Q244 -179 255.5 -169.5Q267 -160 267 -142Q267 -125 256.5 -115Q246 -105 228 -105Q223 -105 219.5 -105.5Q216 -106 211 -107L192 -93L212 -13Q132 -7 79 34Q26 75 3 162L123 211Q152 107 240 107Q277 107 298.5 129Q320 151 320 182Q320 212 302.5 231.5Q285 251 242 268L202 285Q104 324 64.5 380.5Q25 437 25 510Q25 553 38.5 590.5Q52 628 79 655.5Q106 683 145.5 698.5Q185 714 237 714Q329 714 385.5 667Q442 620 458 539L338 492Q324 542 298.5 565Q273 588 235 588Q203 588 183.5 569.5Q164 551 164 522Q164 492 184.5 471.5Q205 451 250 432L291 415Q378 380 421 327.5Q464 275 464 194Q464 106 416 52Q368 -2 278 -12L266 -54H267Q299 -56 323.5 -78.5Q348 -101 348 -144Q348 -172 339 -192Q330 -212 314 -225.5Q298 -239 277.5 -245.5Q257 -252 233 -252Z" glyph-name="Scedilla" horiz-adv-x="491" unicode="&#350;" /><glyph d="M3 0ZM458 539 338 492Q324 542 299 565Q274 588 236 588Q202 588 182 570Q162 552 162 523Q162 493 183 472Q204 451 249 432L290 415Q378 379 421 327Q464 275 464 194Q464 98 406 42Q348 -14 240 -14Q149 -14 89 26.5Q29 67 3 162L123 211Q152 107 240 107Q278 107 299.5 129Q321 151 321 181Q321 211 303.5 230.5Q286 250 242 268L202 285Q153 306 119.5 330Q86 354 65 382Q44 410 34.5 442Q25 474 25 510Q25 553 38.5 590.5Q52 628 79 655.5Q106 683 145.5 698.5Q185 714 237 714Q329 714 385.5 667Q442 620 458 539ZM238 832 195 773H92V777L186 905H297L392 777V773H284Z" glyph-name="Scircumflex" horiz-adv-x="491" unicode="&#348;" /><glyph d="M3 0ZM458 539 338 492Q324 542 299 565Q274 588 236 588Q202 588 182 570Q162 552 162 523Q162 493 183 472Q204 451 249 432L290 415Q378 379 421 327Q464 275 464 194Q464 98 406 42Q348 -14 240 -14Q149 -14 89 26.5Q29 67 3 162L123 211Q152 107 240 107Q278 107 299.5 129Q321 151 321 181Q321 211 303.5 230.5Q286 250 242 268L202 285Q153 306 119.5 330Q86 354 65 382Q44 410 34.5 442Q25 474 25 510Q25 553 38.5 590.5Q52 628 79 655.5Q106 683 145.5 698.5Q185 714 237 714Q329 714 385.5 667Q442 620 458 539ZM313 -150Q313 -219 280 -267Q247 -315 196 -330L166 -278Q193 -266 213 -245.5Q233 -225 238 -198Q206 -199 188 -182Q170 -165 170 -131Q170 -59 241 -59Q275 -59 294 -82Q313 -105 313 -150Z" glyph-name="Scommaaccent" horiz-adv-x="491" unicode="&#536;" /><glyph d="M13 700H474V569H314V0H171V569H13Z" glyph-name="T" horiz-adv-x="487" unicode="T" /><glyph d="M13 700H475V569H316V394H437V286H316V0H172V286H52V394H172V569H13Z" glyph-name="Tbar" horiz-adv-x="488" unicode="&#358;" /><glyph d="M13 0ZM13 700H474V569H314V0H171V569H13ZM246 848 292 907H395V904L299 775H188L95 904V907H203Z" glyph-name="Tcaron" horiz-adv-x="487" unicode="&#356;" /><glyph d="M13 0ZM13 700H474V569H314V0H171V569H13ZM317 -147Q317 -216 284 -264Q251 -312 200 -327L170 -275Q197 -263 217 -242.5Q237 -222 242 -195Q210 -196 192 -179Q174 -162 174 -128Q174 -56 245 -56Q279 -56 298 -79Q317 -102 317 -147Z" glyph-name="Tcommaaccent" horiz-adv-x="487" unicode="&#354;" /><glyph d="M207 0H64V700H207V589H317Q365 589 400.5 572.5Q436 556 459.5 525.5Q483 495 495 452Q507 409 507 356Q507 298 492 254Q477 210 449.5 180Q422 150 384 134.5Q346 119 301 119H207ZM292 459H207V246H292Q327 246 347 272.5Q367 299 367 354Q367 403 348.5 431Q330 459 292 459Z" glyph-name="Thorn" horiz-adv-x="532" unicode="&#222;" /><glyph d="M394 237V700H537V246Q537 116 473 51Q409 -14 295 -14Q180 -14 116.5 51Q53 116 53 246V700H196V237Q196 176 222 147Q248 118 295 118Q341 118 367.5 147Q394 176 394 237Z" glyph-name="U" horiz-adv-x="588" unicode="U" /><glyph d="M53 0ZM394 237V700H537V246Q537 116 473 51Q409 -14 295 -14Q180 -14 116.5 51Q53 116 53 246V700H196V237Q196 176 222 147Q248 118 295 118Q341 118 367.5 147Q394 176 394 237ZM439 900 338 775H234V780L297 907H439Z" glyph-name="Uacute" horiz-adv-x="588" unicode="&#218;" /><glyph d="M53 0ZM394 237V700H537V246Q537 116 473 51Q409 -14 295 -14Q180 -14 116.5 51Q53 116 53 246V700H196V237Q196 176 222 147Q248 118 295 118Q341 118 367.5 147Q394 176 394 237ZM351 906H432Q432 867 422.5 840.5Q413 814 395.5 798Q378 782 352.5 775Q327 768 295 768Q262 768 237 775Q212 782 194.5 798Q177 814 168 840.5Q159 867 159 906H240Q240 870 253 856.5Q266 843 295 843Q324 843 337.5 856.5Q351 870 351 906Z" glyph-name="Ubreve" horiz-adv-x="588" unicode="&#364;" /><glyph d="M53 0ZM394 237V700H537V246Q537 116 473 51Q409 -14 295 -14Q180 -14 116.5 51Q53 116 53 246V700H196V237Q196 176 222 147Q248 118 295 118Q341 118 367.5 147Q394 176 394 237ZM292 834 249 775H146V779L240 907H351L446 779V775H338Z" glyph-name="Ucircumflex" horiz-adv-x="588" unicode="&#219;" /><glyph d="M53 0ZM394 237V700H537V246Q537 116 473 51Q409 -14 295 -14Q180 -14 116.5 51Q53 116 53 246V700H196V237Q196 176 222 147Q248 118 295 118Q341 118 367.5 147Q394 176 394 237ZM321 850Q321 884 339 902Q357 920 390 920Q461 920 461 850Q461 776 390 776Q357 776 339 795Q321 814 321 850ZM140 850Q140 884 158.5 902Q177 920 210 920Q280 920 280 850Q280 776 210 776Q177 776 158.5 795Q140 814 140 850Z" glyph-name="Udieresis" horiz-adv-x="588" unicode="&#220;" /><glyph d="M53 0ZM394 237V700H537V246Q537 116 473 51Q409 -14 295 -14Q180 -14 116.5 51Q53 116 53 246V700H196V237Q196 176 222 147Q248 118 295 118Q341 118 367.5 147Q394 176 394 237ZM253 776 151 901V908H298L359 781V776Z" glyph-name="Ugrave" horiz-adv-x="588" unicode="&#217;" /><glyph d="M53 0ZM394 237V700H537V246Q537 116 473 51Q409 -14 295 -14Q180 -14 116.5 51Q53 116 53 246V700H196V237Q196 176 222 147Q248 118 295 118Q341 118 367.5 147Q394 176 394 237ZM525 901 422 775H327V780L389 907H525ZM348 907V901L245 775H150V780L212 907Z" glyph-name="Uhungarumlaut" horiz-adv-x="588" unicode="&#368;" /><glyph d="M53 0ZM394 237V700H537V246Q537 116 473 51Q409 -14 295 -14Q180 -14 116.5 51Q53 116 53 246V700H196V237Q196 176 222 147Q248 118 295 118Q341 118 367.5 147Q394 176 394 237ZM410 879V794H182V879Z" glyph-name="Umacron" horiz-adv-x="588" unicode="&#362;" /><glyph d="M367 -227Q345 -227 323.5 -221Q302 -215 285 -200.5Q268 -186 257.5 -161.5Q247 -137 247 -100Q247 -74 254 -52.5Q261 -31 272 -14Q165 -8 109 56.5Q53 121 53 242V700H196V237Q196 176 222 147Q248 118 295 118Q342 118 367.5 147Q393 176 393 237V700H536V242Q536 133 491.5 71.5Q447 10 365 -7Q344 -19 334 -40Q324 -61 324 -85Q324 -117 340.5 -129.5Q357 -142 377 -142Q402 -142 422 -125L456 -196Q436 -211 414.5 -219Q393 -227 367 -227Z" glyph-name="Uogonek" horiz-adv-x="588" unicode="&#370;" /><glyph d="M53 0ZM394 237V700H537V246Q537 116 473 51Q409 -14 295 -14Q180 -14 116.5 51Q53 116 53 246V700H196V237Q196 176 222 147Q248 118 295 118Q341 118 367.5 147Q394 176 394 237ZM197 857Q197 905 224.5 931Q252 957 295 957Q337 957 364 931Q391 905 391 857Q391 807 364 781Q337 755 295 755Q252 755 224.5 781Q197 807 197 857ZM256 857Q256 835 267 822.5Q278 810 295 810Q311 810 322.5 822.5Q334 835 334 857Q334 878 322.5 890Q311 902 295 902Q278 902 267 890Q256 878 256 857Z" glyph-name="Uring" horiz-adv-x="588" unicode="&#366;" /><glyph d="M53 0ZM394 237V700H537V246Q537 116 473 51Q409 -14 295 -14Q180 -14 116.5 51Q53 116 53 246V700H196V237Q196 176 222 147Q248 118 295 118Q341 118 367.5 147Q394 176 394 237ZM360 902H438Q440 868 433.5 845Q427 822 415 808Q403 794 388 788Q373 782 358 782Q340 782 325.5 787.5Q311 793 298 799.5Q285 806 273.5 811.5Q262 817 251 817Q238 817 234 806.5Q230 796 230 783H152Q150 817 156.5 840.5Q163 864 174.5 877.5Q186 891 201 897Q216 903 231 903Q249 903 264 897.5Q279 892 292 885.5Q305 879 316.5 873.5Q328 868 339 868Q353 868 356.5 878Q360 888 360 902Z" glyph-name="Utilde" horiz-adv-x="588" unicode="&#360;" /><glyph d="M273 177 390 700H534L353 0H186L7 700H154Z" glyph-name="V" horiz-adv-x="541" unicode="V" /><glyph d="M306 699H450L531 224L610 700H746L600 0H451L376 471L303 0H154L7 700H148L230 225Z" glyph-name="W" horiz-adv-x="753" unicode="W" /><glyph d="M7 0ZM306 699H450L531 224L610 700H746L600 0H451L376 471L303 0H154L7 700H148L230 225ZM520 900 419 775H315V780L378 907H520Z" glyph-name="Wacute" horiz-adv-x="753" unicode="&#7810;" /><glyph d="M7 0ZM306 699H450L531 224L610 700H746L600 0H451L376 471L303 0H154L7 700H148L230 225ZM373 834 330 775H227V779L321 907H432L527 779V775H419Z" glyph-name="Wcircumflex" horiz-adv-x="753" unicode="&#372;" /><glyph d="M7 0ZM306 699H450L531 224L610 700H746L600 0H451L376 471L303 0H154L7 700H148L230 225ZM402 850Q402 884 420 902Q438 920 471 920Q542 920 542 850Q542 776 471 776Q438 776 420 795Q402 814 402 850ZM221 850Q221 884 239.5 902Q258 920 291 920Q361 920 361 850Q361 776 291 776Q258 776 239.5 795Q221 814 221 850Z" glyph-name="Wdieresis" horiz-adv-x="753" unicode="&#7812;" /><glyph d="M7 0ZM306 699H450L531 224L610 700H746L600 0H451L376 471L303 0H154L7 700H148L230 225ZM334 776 232 901V908H379L440 781V776Z" glyph-name="Wgrave" horiz-adv-x="753" unicode="&#7808;" /><glyph d="M375 0 267 224 164 0H7L190 353L15 700H182L280 481L375 700H532L357 356L542 0Z" glyph-name="X" horiz-adv-x="548" unicode="X" /><glyph d="M199 263 7 700H162L273 404L386 700H534L342 260V0H199Z" glyph-name="Y" horiz-adv-x="541" unicode="Y" /><glyph d="M7 0ZM199 263 7 700H162L273 404L386 700H534L342 260V0H199ZM419 900 318 775H214V780L277 907H419Z" glyph-name="Yacute" horiz-adv-x="541" unicode="&#221;" /><glyph d="M7 0ZM199 263 7 700H162L273 404L386 700H534L342 260V0H199ZM273 834 230 775H127V779L221 907H332L427 779V775H319Z" glyph-name="Ycircumflex" horiz-adv-x="541" unicode="&#374;" /><glyph d="M7 0ZM199 263 7 700H162L273 404L386 700H534L342 260V0H199ZM302 850Q302 884 320 902Q338 920 371 920Q442 920 442 850Q442 776 371 776Q338 776 320 795Q302 814 302 850ZM121 850Q121 884 139.5 902Q158 920 191 920Q261 920 261 850Q261 776 191 776Q158 776 139.5 795Q121 814 121 850Z" glyph-name="Ydieresis" horiz-adv-x="541" unicode="&#376;" /><glyph d="M17 0V98L288 577L27 574V700H453V603L184 123L459 126V0Z" glyph-name="Z" horiz-adv-x="479" unicode="Z" /><glyph d="M17 0ZM17 0V98L288 577L27 574V700H453V603L184 123L459 126V0ZM381 900 280 775H176V780L239 907H381Z" glyph-name="Zacute" horiz-adv-x="479" unicode="&#377;" /><glyph d="M17 0ZM17 0V98L288 577L27 574V700H453V603L184 123L459 126V0ZM241 848 287 907H390V904L294 775H183L90 904V907H198Z" glyph-name="Zcaron" horiz-adv-x="479" unicode="&#381;" /><glyph d="M17 0ZM17 0V98L288 577L27 574V700H453V603L184 123L459 126V0ZM164 848Q164 920 237 920Q309 920 309 848Q309 775 237 775Q164 775 164 848Z" glyph-name="Zdotaccent" horiz-adv-x="479" unicode="&#379;" /><glyph d="M198 85Q230 85 250.5 113Q271 141 271 193V208H242Q197 208 173 188Q149 168 149 138Q149 113 162 99Q175 85 198 85ZM290 0 282 74Q264 35 231.5 11Q199 -13 157 -13Q98 -13 63.5 24Q29 61 29 128Q29 169 44.5 201Q60 233 86.5 254.5Q113 276 149 287.5Q185 299 227 299H271V304Q270 330 263.5 347Q257 364 247 374.5Q237 385 224 389Q211 393 198 393Q170 393 149 380Q128 367 116 338L28 402Q52 453 98 481.5Q144 510 215 510Q258 510 292.5 499Q327 488 352 463Q377 438 390.5 398Q404 358 404 300V0Z" glyph-name="a" horiz-adv-x="449" unicode="a" /><glyph d="M305 245Q305 326 285.5 362Q266 398 231 398Q198 398 180.5 362Q163 326 163 247Q163 171 179.5 135Q196 99 231 99Q265 99 285 134Q305 169 305 245ZM189 -14Q117 -14 73.5 51Q30 116 30 243Q30 378 76 444Q122 510 196 510Q284 510 320 423L330 496H440V0H328L318 73Q295 30 264 8Q233 -14 189 -14Z" glyph-name="a.school" horiz-adv-x="488" /><glyph d="M28 0ZM198 85Q230 85 250.5 113Q271 141 271 193V208H242Q197 208 173 188Q149 168 149 138Q149 113 162 99Q175 85 198 85ZM290 0 282 74Q264 35 231.5 11Q199 -13 157 -13Q98 -13 63.5 24Q29 61 29 128Q29 169 44.5 201Q60 233 86.5 254.5Q113 276 149 287.5Q185 299 227 299H271V304Q270 330 263.5 347Q257 364 247 374.5Q237 385 224 389Q211 393 198 393Q170 393 149 380Q128 367 116 338L28 402Q52 453 98 481.5Q144 510 215 510Q258 510 292.5 499Q327 488 352 463Q377 438 390.5 398Q404 358 404 300V0ZM359 697 258 572H154V577L217 704H359Z" glyph-name="aacute" horiz-adv-x="450" unicode="&#225;" /><glyph d="M30 0ZM305 245Q305 326 285.5 362Q266 398 231 398Q198 398 180.5 362Q163 326 163 247Q163 171 179.5 135Q196 99 231 99Q265 99 285 134Q305 169 305 245ZM189 -14Q117 -14 73.5 51Q30 116 30 243Q30 378 76 444Q122 510 196 510Q284 510 320 423L330 496H440V0H328L318 73Q295 30 264 8Q233 -14 189 -14ZM372 696 271 571H167V576L230 703H372Z" glyph-name="aacute.school" horiz-adv-x="488" /><glyph d="M28 0ZM198 85Q230 85 250.5 113Q271 141 271 193V208H242Q197 208 173 188Q149 168 149 138Q149 113 162 99Q175 85 198 85ZM290 0 282 74Q264 35 231.5 11Q199 -13 157 -13Q98 -13 63.5 24Q29 61 29 128Q29 169 44.5 201Q60 233 86.5 254.5Q113 276 149 287.5Q185 299 227 299H271V304Q270 330 263.5 347Q257 364 247 374.5Q237 385 224 389Q211 393 198 393Q170 393 149 380Q128 367 116 338L28 402Q52 453 98 481.5Q144 510 215 510Q258 510 292.5 499Q327 488 352 463Q377 438 390.5 398Q404 358 404 300V0ZM272 703H353Q353 664 343.5 637.5Q334 611 316.5 595Q299 579 273.5 572Q248 565 216 565Q183 565 158 572Q133 579 115.5 595Q98 611 89 637.5Q80 664 80 703H161Q161 667 174 653.5Q187 640 216 640Q245 640 258.5 653.5Q272 667 272 703Z" glyph-name="abreve" horiz-adv-x="450" unicode="&#259;" /><glyph d="M30 0ZM305 245Q305 326 285.5 362Q266 398 231 398Q198 398 180.5 362Q163 326 163 247Q163 171 179.5 135Q196 99 231 99Q265 99 285 134Q305 169 305 245ZM189 -14Q117 -14 73.5 51Q30 116 30 243Q30 378 76 444Q122 510 196 510Q284 510 320 423L330 496H440V0H328L318 73Q295 30 264 8Q233 -14 189 -14ZM285 702H366Q366 663 356.5 636.5Q347 610 329.5 594Q312 578 286.5 571Q261 564 229 564Q196 564 171 571Q146 578 128.5 594Q111 610 102 636.5Q93 663 93 702H174Q174 666 187 652.5Q200 639 229 639Q258 639 271.5 652.5Q285 666 285 702Z" glyph-name="abreve.school" horiz-adv-x="488" /><glyph d="M28 0ZM198 85Q230 85 250.5 113Q271 141 271 193V208H242Q197 208 173 188Q149 168 149 138Q149 113 162 99Q175 85 198 85ZM290 0 282 74Q264 35 231.5 11Q199 -13 157 -13Q98 -13 63.5 24Q29 61 29 128Q29 169 44.5 201Q60 233 86.5 254.5Q113 276 149 287.5Q185 299 227 299H271V304Q270 330 263.5 347Q257 364 247 374.5Q237 385 224 389Q211 393 198 393Q170 393 149 380Q128 367 116 338L28 402Q52 453 98 481.5Q144 510 215 510Q258 510 292.5 499Q327 488 352 463Q377 438 390.5 398Q404 358 404 300V0ZM213 631 170 572H67V576L161 704H272L367 576V572H259Z" glyph-name="acircumflex" horiz-adv-x="450" unicode="&#226;" /><glyph d="M30 0ZM225 630 182 571H79V575L173 703H284L379 575V571H271ZM305 245Q305 326 285.5 362Q266 398 231 398Q198 398 180.5 362Q163 326 163 247Q163 171 179.5 135Q196 99 231 99Q265 99 285 134Q305 169 305 245ZM189 -14Q117 -14 73.5 51Q30 116 30 243Q30 378 76 444Q122 510 196 510Q284 510 320 423L330 496H440V0H328L318 73Q295 30 264 8Q233 -14 189 -14Z" glyph-name="acircumflex.school" horiz-adv-x="487" /><glyph d="M364 696 263 571H159V576L222 703H364Z" glyph-name="acute" horiz-adv-x="459" unicode="&#180;" /><glyph d="M28 0ZM198 85Q230 85 250.5 113Q271 141 271 193V208H242Q197 208 173 188Q149 168 149 138Q149 113 162 99Q175 85 198 85ZM290 0 282 74Q264 35 231.5 11Q199 -13 157 -13Q98 -13 63.5 24Q29 61 29 128Q29 169 44.5 201Q60 233 86.5 254.5Q113 276 149 287.5Q185 299 227 299H271V304Q270 330 263.5 347Q257 364 247 374.5Q237 385 224 389Q211 393 198 393Q170 393 149 380Q128 367 116 338L28 402Q52 453 98 481.5Q144 510 215 510Q258 510 292.5 499Q327 488 352 463Q377 438 390.5 398Q404 358 404 300V0ZM242 647Q242 681 260 699Q278 717 311 717Q382 717 382 647Q382 573 311 573Q278 573 260 592Q242 611 242 647ZM61 647Q61 681 79.5 699Q98 717 131 717Q201 717 201 647Q201 573 131 573Q98 573 79.5 592Q61 611 61 647Z" glyph-name="adieresis" horiz-adv-x="450" unicode="&#228;" /><glyph d="M30 0ZM248 646Q248 680 266 698Q284 716 317 716Q388 716 388 646Q388 572 317 572Q284 572 266 591Q248 610 248 646ZM67 646Q67 680 85.5 698Q104 716 137 716Q207 716 207 646Q207 572 137 572Q104 572 85.5 591Q67 610 67 646ZM305 245Q305 326 285.5 362Q266 398 231 398Q198 398 180.5 362Q163 326 163 247Q163 171 179.5 135Q196 99 231 99Q265 99 285 134Q305 169 305 245ZM189 -14Q117 -14 73.5 51Q30 116 30 243Q30 378 76 444Q122 510 196 510Q284 510 320 423L330 496H440V0H328L318 73Q295 30 264 8Q233 -14 189 -14Z" glyph-name="adieresis.school" horiz-adv-x="487" /><glyph d="M477 -14Q426 -14 386 9.5Q346 33 324 84Q306 39 263.5 13Q221 -13 171 -13Q106 -13 67.5 23.5Q29 60 29 128Q29 168 44.5 199.5Q60 231 86.5 253Q113 275 149 286.5Q185 298 227 298H271Q269 354 248.5 374Q228 394 197 394Q170 394 149 380.5Q128 367 116 338L28 402Q52 453 97.5 481.5Q143 510 214 510Q256 510 288.5 493.5Q321 477 341 437Q364 472 397.5 491Q431 510 475 510Q524 510 558.5 490.5Q593 471 615 437.5Q637 404 647 359.5Q657 315 657 264Q657 237 654 207H404Q409 150 430 125.5Q451 101 489 101Q540 101 559 160L657 113Q646 85 631 61.5Q616 38 594 21.5Q572 5 543.5 -4.5Q515 -14 477 -14ZM474 393Q445 393 426.5 371.5Q408 350 405 297H536Q534 393 474 393ZM196 85Q231 85 251 113Q271 141 271 193V205H242Q197 205 173 186Q149 167 149 138Q149 113 161.5 99Q174 85 196 85Z" glyph-name="ae" horiz-adv-x="687" unicode="&#230;" /><glyph d="M28 0ZM198 85Q230 85 250.5 113Q271 141 271 193V208H242Q197 208 173 188Q149 168 149 138Q149 113 162 99Q175 85 198 85ZM290 0 282 74Q264 35 231.5 11Q199 -13 157 -13Q98 -13 63.5 24Q29 61 29 128Q29 169 44.5 201Q60 233 86.5 254.5Q113 276 149 287.5Q185 299 227 299H271V304Q270 330 263.5 347Q257 364 247 374.5Q237 385 224 389Q211 393 198 393Q170 393 149 380Q128 367 116 338L28 402Q52 453 98 481.5Q144 510 215 510Q258 510 292.5 499Q327 488 352 463Q377 438 390.5 398Q404 358 404 300V0ZM173 573 71 698V705H218L279 578V573Z" glyph-name="agrave" horiz-adv-x="450" unicode="&#224;" /><glyph d="M30 0ZM305 245Q305 326 285.5 362Q266 398 231 398Q198 398 180.5 362Q163 326 163 247Q163 171 179.5 135Q196 99 231 99Q265 99 285 134Q305 169 305 245ZM189 -14Q117 -14 73.5 51Q30 116 30 243Q30 378 76 444Q122 510 196 510Q284 510 320 423L330 496H440V0H328L318 73Q295 30 264 8Q233 -14 189 -14ZM187 572 85 697V704H232L293 577V572Z" glyph-name="agrave.school" horiz-adv-x="488" /><glyph d="M28 0ZM198 85Q230 85 250.5 113Q271 141 271 193V208H242Q197 208 173 188Q149 168 149 138Q149 113 162 99Q175 85 198 85ZM290 0 282 74Q264 35 231.5 11Q199 -13 157 -13Q98 -13 63.5 24Q29 61 29 128Q29 169 44.5 201Q60 233 86.5 254.5Q113 276 149 287.5Q185 299 227 299H271V304Q270 330 263.5 347Q257 364 247 374.5Q237 385 224 389Q211 393 198 393Q170 393 149 380Q128 367 116 338L28 402Q52 453 98 481.5Q144 510 215 510Q258 510 292.5 499Q327 488 352 463Q377 438 390.5 398Q404 358 404 300V0ZM331 676V591H103V676Z" glyph-name="amacron" horiz-adv-x="450" unicode="&#257;" /><glyph d="M30 0ZM305 245Q305 326 285.5 362Q266 398 231 398Q198 398 180.5 362Q163 326 163 247Q163 171 179.5 135Q196 99 231 99Q265 99 285 134Q305 169 305 245ZM189 -14Q117 -14 73.5 51Q30 116 30 243Q30 378 76 444Q122 510 196 510Q284 510 320 423L330 496H440V0H328L318 73Q295 30 264 8Q233 -14 189 -14ZM343 675V590H115V675Z" glyph-name="amacron.school" horiz-adv-x="488" /><glyph d="M491 -18Q444 9 395 45Q324 -14 224 -14Q123 -14 69 35Q15 84 15 177Q15 229 36 275Q57 321 105 365Q82 410 68.5 453.5Q55 497 55 539Q55 625 99.5 669.5Q144 714 227 714Q305 714 344.5 675.5Q384 637 384 566Q384 538 378.5 511.5Q373 485 359.5 458.5Q346 432 323 405Q300 378 265 349Q290 317 318.5 285.5Q347 254 378 225Q398 275 408.5 340Q419 405 419 482H541Q541 375 523.5 291Q506 207 474 144Q496 127 517 114Q538 101 558 90ZM174 545Q174 499 205 442Q238 470 253 496.5Q268 523 268 555Q268 580 255.5 593Q243 606 221 606Q201 606 187.5 592Q174 578 174 545ZM234 98Q272 98 303 121Q267 154 233.5 190.5Q200 227 171 265Q158 247 151.5 227Q145 207 145 183Q145 144 168.5 121Q192 98 234 98Z" glyph-name="ampersand" horiz-adv-x="562" unicode="&amp;" /><glyph d="M438 -195Q400 -226 350 -226Q328 -226 306.5 -220Q285 -214 268 -199.5Q251 -185 240.5 -160.5Q230 -136 230 -99Q230 -57 246 -26.5Q262 4 288 23L282 74Q264 35 231.5 11Q199 -13 157 -13Q98 -13 63.5 24Q29 61 29 128Q29 169 44.5 201Q60 233 86.5 254.5Q113 276 149 287.5Q185 299 227 299H271V304Q270 330 263.5 347Q257 364 247 374.5Q237 385 224 389Q211 393 198 393Q170 393 149 380Q128 367 116 338L28 402Q52 453 98 481.5Q144 510 215 510Q258 510 292.5 499Q327 488 352 463Q377 438 390.5 398Q404 358 404 300V0H371Q337 -6 322.5 -30.5Q308 -55 308 -84Q308 -116 323.5 -128.5Q339 -141 359 -141Q385 -141 405 -124ZM198 85Q230 85 250.5 113Q271 141 271 193V208H242Q197 208 173 188Q149 168 149 138Q149 113 162 99Q175 85 198 85Z" glyph-name="aogonek" horiz-adv-x="449" unicode="&#261;" /><glyph d="M30 0ZM305 245Q305 326 285.5 362Q266 398 231 398Q198 398 180.5 362Q163 326 163 247Q163 171 179.5 135Q196 99 231 99Q265 99 285 134Q305 169 305 245ZM189 -14Q117 -14 73.5 51Q30 116 30 243Q30 378 76 444Q122 510 196 510Q284 510 320 423L330 496H440V0H328L318 73Q295 30 264 8Q233 -14 189 -14ZM394 -227Q372 -227 350.5 -221Q329 -215 312 -200.5Q295 -186 284.5 -161.5Q274 -137 274 -100Q274 -63 287 -34.5Q300 -6 320.5 13Q341 32 367.5 41Q394 50 421 48L422 0Q384 -4 367.5 -29.5Q351 -55 351 -85Q351 -117 367 -129.5Q383 -142 403 -142Q429 -142 449 -125L482 -196Q462 -211 441 -219Q420 -227 394 -227Z" glyph-name="aogonek.school" horiz-adv-x="489" /><glyph d="M268 408Q283 408 307 414Q331 420 351 437V346Q334 333 309 326.5Q284 320 262 320Q241 320 224.5 325.5Q208 331 192 337Q176 343 160.5 348.5Q145 354 126 354Q109 354 84.5 348.5Q60 343 40 326V417Q57 430 81 436Q105 442 127 442Q148 442 165.5 436.5Q183 431 199.5 425Q216 419 232 413.5Q248 408 268 408ZM268 257Q283 257 307 263Q331 269 351 286V194Q334 181 309 174.5Q284 168 262 168Q241 168 224.5 173.5Q208 179 192 185Q176 191 160.5 196.5Q145 202 126 202Q109 202 84.5 196.5Q60 191 40 174V266Q57 279 81 285Q105 291 127 291Q148 291 165.5 285.5Q183 280 199.5 274Q216 268 232 262.5Q248 257 268 257Z" glyph-name="approxequal" horiz-adv-x="391" unicode="&#8776;" /><glyph d="M28 0ZM198 85Q230 85 250.5 113Q271 141 271 193V208H242Q197 208 173 188Q149 168 149 138Q149 113 162 99Q175 85 198 85ZM290 0 282 74Q264 35 231.5 11Q199 -13 157 -13Q98 -13 63.5 24Q29 61 29 128Q29 169 44.5 201Q60 233 86.5 254.5Q113 276 149 287.5Q185 299 227 299H271V304Q270 330 263.5 347Q257 364 247 374.5Q237 385 224 389Q211 393 198 393Q170 393 149 380Q128 367 116 338L28 402Q52 453 98 481.5Q144 510 215 510Q258 510 292.5 499Q327 488 352 463Q377 438 390.5 398Q404 358 404 300V0ZM118 654Q118 702 145.5 728Q173 754 216 754Q258 754 285 728Q312 702 312 654Q312 604 285 578Q258 552 216 552Q173 552 145.5 578Q118 604 118 654ZM177 654Q177 632 188 619.5Q199 607 216 607Q232 607 243.5 619.5Q255 632 255 654Q255 675 243.5 687Q232 699 216 699Q199 699 188 687Q177 675 177 654Z" glyph-name="aring" horiz-adv-x="450" unicode="&#229;" /><glyph d="M30 0ZM305 245Q305 326 285.5 362Q266 398 231 398Q198 398 180.5 362Q163 326 163 247Q163 171 179.5 135Q196 99 231 99Q265 99 285 134Q305 169 305 245ZM189 -14Q117 -14 73.5 51Q30 116 30 243Q30 378 76 444Q122 510 196 510Q284 510 320 423L330 496H440V0H328L318 73Q295 30 264 8Q233 -14 189 -14ZM131 653Q131 701 158.5 727Q186 753 229 753Q271 753 298 727Q325 701 325 653Q325 603 298 577Q271 551 229 551Q186 551 158.5 577Q131 603 131 653ZM190 653Q190 631 201 618.5Q212 606 229 606Q245 606 256.5 618.5Q268 631 268 653Q268 674 256.5 686Q245 698 229 698Q212 698 201 686Q190 674 190 653Z" glyph-name="aring.school" horiz-adv-x="488" /><glyph d="M132 700H258L368 371V368H257L192 587L128 368H21V371Z" glyph-name="asciicircum" horiz-adv-x="389" unicode="^" /><glyph d="M325 424 416 408Q411 330 379 291Q347 252 298 252Q275 252 254 262Q233 272 214 283Q197 293 181.5 301.5Q166 310 149 310Q134 310 124 297Q114 284 112 254L21 270Q26 348 58.5 386.5Q91 425 141 425Q164 425 185 415.5Q206 406 224 394Q241 384 257 376Q273 368 288 368Q303 368 313 381Q323 394 325 424Z" glyph-name="asciitilde" horiz-adv-x="437" unicode="~" /><glyph d="M116 347 32 403 95 494 11 529 49 627 121 593 115 714H226L221 593L295 627L331 528L248 494L311 403L226 347L171 433Z" glyph-name="asterisk" horiz-adv-x="342" unicode="*" /><glyph d="M316 -104Q251 -104 199.5 -79.5Q148 -55 111.5 -10Q75 35 55.5 99Q36 163 36 242Q36 322 55.5 386.5Q75 451 111 496Q147 541 199 565Q251 589 316 589Q380 589 430.5 567Q481 545 515.5 504Q550 463 568 405Q586 347 586 276Q586 181 550 129Q514 77 449 77Q390 77 365 125Q330 71 274 71Q234 71 209 96.5Q184 122 184 167Q184 194 194 215.5Q204 237 222 251.5Q240 266 264.5 274Q289 282 317 282H348Q347 322 329.5 335.5Q312 349 294 349Q256 349 238 306L181 351Q197 385 228 405Q259 425 310 425Q367 425 401.5 391.5Q436 358 436 283V182Q436 156 443.5 143Q451 130 471 130Q497 130 516.5 166Q536 202 536 275Q536 342 519 392.5Q502 443 472.5 476.5Q443 510 403 526.5Q363 543 316 543Q267 543 225 524Q183 505 152 467.5Q121 430 103.5 373.5Q86 317 86 242Q86 166 104 109.5Q122 53 153.5 15.5Q185 -22 226.5 -40.5Q268 -59 316 -59Q370 -59 413 -40.5Q456 -22 487 21L523 -8Q488 -57 436 -80.5Q384 -104 316 -104ZM296 136Q319 136 333.5 155.5Q348 175 348 210V227H327Q296 227 279.5 211.5Q263 196 263 173Q263 156 272 146Q281 136 296 136Z" glyph-name="at" horiz-adv-x="623" unicode="@" /><glyph d="M36 4ZM316 4Q251 4 199.5 28.5Q148 53 111.5 98Q75 143 55.5 207Q36 271 36 350Q36 430 55.5 494.5Q75 559 111 604Q147 649 199 673Q251 697 316 697Q380 697 430.5 675Q481 653 515.5 612Q550 571 568 513Q586 455 586 384Q586 289 550 237Q514 185 449 185Q390 185 365 233Q330 179 274 179Q234 179 209 204.5Q184 230 184 275Q184 302 194 323.5Q204 345 222 359.5Q240 374 264.5 382Q289 390 317 390H348Q347 430 329.5 443.5Q312 457 294 457Q256 457 238 414L181 459Q197 493 228 513Q259 533 310 533Q367 533 401.5 499.5Q436 466 436 391V290Q436 264 443.5 251Q451 238 471 238Q497 238 516.5 274Q536 310 536 383Q536 450 519 500.5Q502 551 472.5 584.5Q443 618 403 634.5Q363 651 316 651Q267 651 225 632Q183 613 152 575.5Q121 538 103.5 481.5Q86 425 86 350Q86 274 104 217.5Q122 161 153.5 123.5Q185 86 226.5 67.5Q268 49 316 49Q370 49 413 67.5Q456 86 487 129L523 100Q488 51 436 27.5Q384 4 316 4ZM296 244Q319 244 333.5 263.5Q348 283 348 318V335H327Q296 335 279.5 319.5Q263 304 263 281Q263 264 272 254Q281 244 296 244Z" glyph-name="at.cap" horiz-adv-x="621" /><glyph d="M28 0ZM198 85Q230 85 250.5 113Q271 141 271 193V208H242Q197 208 173 188Q149 168 149 138Q149 113 162 99Q175 85 198 85ZM290 0 282 74Q264 35 231.5 11Q199 -13 157 -13Q98 -13 63.5 24Q29 61 29 128Q29 169 44.5 201Q60 233 86.5 254.5Q113 276 149 287.5Q185 299 227 299H271V304Q270 330 263.5 347Q257 364 247 374.5Q237 385 224 389Q211 393 198 393Q170 393 149 380Q128 367 116 338L28 402Q52 453 98 481.5Q144 510 215 510Q258 510 292.5 499Q327 488 352 463Q377 438 390.5 398Q404 358 404 300V0ZM281 699H359Q361 665 354.5 642Q348 619 336 605Q324 591 309 585Q294 579 279 579Q261 579 246.5 584.5Q232 590 219 596.5Q206 603 194.5 608.5Q183 614 172 614Q159 614 155 603.5Q151 593 151 580H73Q71 614 77.5 637.5Q84 661 95.5 674.5Q107 688 122 694Q137 700 152 700Q170 700 185 694.5Q200 689 213 682.5Q226 676 237.5 670.5Q249 665 260 665Q274 665 277.5 675Q281 685 281 699Z" glyph-name="atilde" horiz-adv-x="450" unicode="&#227;" /><glyph d="M30 0ZM305 245Q305 326 285.5 362Q266 398 231 398Q198 398 180.5 362Q163 326 163 247Q163 171 179.5 135Q196 99 231 99Q265 99 285 134Q305 169 305 245ZM189 -14Q117 -14 73.5 51Q30 116 30 243Q30 378 76 444Q122 510 196 510Q284 510 320 423L330 496H440V0H328L318 73Q295 30 264 8Q233 -14 189 -14ZM294 698H372Q374 664 367.5 641Q361 618 349 604Q337 590 322 584Q307 578 292 578Q274 578 259.5 583.5Q245 589 232 595.5Q219 602 207.5 607.5Q196 613 185 613Q172 613 168 602.5Q164 592 164 579H86Q84 613 90.5 636.5Q97 660 108.5 673.5Q120 687 135 693Q150 699 165 699Q183 699 198 693.5Q213 688 226 681.5Q239 675 250.5 669.5Q262 664 273 664Q287 664 290.5 674Q294 684 294 698Z" glyph-name="atilde.school" horiz-adv-x="488" /><glyph d="M289 -14Q206 -14 160 67L153 0H50V700H187V436Q208 472 239.5 491Q271 510 308 510Q378 510 419 446.5Q460 383 460 255Q460 130 417 58Q374 -14 289 -14ZM185 245Q185 167 204 132.5Q223 98 256 98Q292 98 310 134Q328 170 328 246Q328 326 309.5 361Q291 396 259 396Q225 396 205 361Q185 326 185 245Z" glyph-name="b" horiz-adv-x="490" unicode="b" /><glyph d="M286 0 3 700H152L435 0Z" glyph-name="backslash" horiz-adv-x="444" unicode="\" /><glyph d="M62 -65V766H185V-65Z" glyph-name="bar" horiz-adv-x="247" unicode="|" /><glyph d="M258 -132Q224 -130 195.5 -119Q167 -108 146 -88.5Q125 -69 113 -40Q101 -11 101 27Q101 62 105 91Q109 120 109 151Q109 199 88.5 221.5Q68 244 26 244H10V351H26Q68 351 88.5 373Q109 395 109 445Q109 475 105 504.5Q101 534 101 569Q101 607 113 635.5Q125 664 146 684Q167 704 195.5 715Q224 726 258 728L286 612Q251 609 232.5 590Q214 571 214 530Q214 502 218 476Q222 450 222 421Q222 378 204 347.5Q186 317 154 297Q186 278 203.5 247.5Q221 217 221 175Q221 146 217.5 119.5Q214 93 214 66Q214 26 232.5 6.5Q251 -13 286 -15Z" glyph-name="braceleft" horiz-adv-x="309" unicode="{" /><glyph d="M18 -15Q53 -13 71.5 6.5Q90 26 90 66Q90 93 86.5 119.5Q83 146 83 175Q83 217 100.5 247.5Q118 278 150 297Q118 317 100 347.5Q82 378 82 421Q82 450 86 476Q90 502 90 530Q90 571 71.5 590Q53 609 18 612L46 728Q80 726 108.5 715Q137 704 158 684Q179 664 191 635.5Q203 607 203 569Q203 534 199 504.5Q195 475 195 445Q195 395 215.5 373Q236 351 278 351H294V244H278Q236 244 215.5 221.5Q195 199 195 151Q195 120 199 91Q203 62 203 27Q203 -11 191 -40Q179 -69 158 -88.5Q137 -108 108.5 -119Q80 -130 46 -132Z" glyph-name="braceright" horiz-adv-x="308" unicode="}" /><glyph d="M48 -121V716H259V608H172V-12H261V-121Z" glyph-name="bracketleft" horiz-adv-x="283" unicode="[" /><glyph d="M19 -121V-12H108V608H21V716H232V-121Z" glyph-name="bracketright" horiz-adv-x="283" unicode="]" /><glyph d="M285 702H366Q366 663 356.5 636.5Q347 610 329.5 594Q312 578 286.5 571Q261 564 229 564Q196 564 171 571Q146 578 128.5 594Q111 610 102 636.5Q93 663 93 702H174Q174 666 187 652.5Q200 639 229 639Q258 639 271.5 652.5Q285 666 285 702Z" glyph-name="breve" horiz-adv-x="459" unicode="&#728;" /><glyph d="M62 384V766H185V384ZM62 -65V318H185V-65Z" glyph-name="brokenbar" horiz-adv-x="247" unicode="&#166;" /><glyph d="M31 327Q31 390 66.5 429Q102 468 165 468Q228 468 263.5 429Q299 390 299 327Q299 264 263.5 225Q228 186 165 186Q102 186 66.5 225Q31 264 31 327Z" glyph-name="bullet" horiz-adv-x="330" unicode="&#8226;" /><glyph d="M232 -14Q186 -14 148.5 1Q111 16 85 47.5Q59 79 44.5 129Q30 179 30 248Q30 385 84.5 447.5Q139 510 236 510Q304 510 347 475Q390 440 409 366L299 321Q288 358 273.5 374Q259 390 236 390Q217 390 203 383Q189 376 179.5 359.5Q170 343 165 315.5Q160 288 160 247Q160 174 176.5 139.5Q193 105 235 105Q259 105 275.5 121.5Q292 138 303 176L409 129Q389 57 346.5 21.5Q304 -14 232 -14Z" glyph-name="c" horiz-adv-x="422" unicode="c" /><glyph d="M30 0ZM232 -14Q186 -14 148.5 1Q111 16 85 47.5Q59 79 44.5 129Q30 179 30 248Q30 385 84.5 447.5Q139 510 236 510Q304 510 347 475Q390 440 409 366L299 321Q288 358 273.5 374Q259 390 236 390Q217 390 203 383Q189 376 179.5 359.5Q170 343 165 315.5Q160 288 160 247Q160 174 176.5 139.5Q193 105 235 105Q259 105 275.5 121.5Q292 138 303 176L409 129Q389 57 346.5 21.5Q304 -14 232 -14ZM373 696 272 571H168V576L231 703H373Z" glyph-name="cacute" horiz-adv-x="422" unicode="&#263;" /><glyph d="M231 644 277 703H380V700L284 571H173L80 700V703H188Z" glyph-name="caron" horiz-adv-x="459" unicode="&#711;" /><glyph d="M286 445H198L203 701H312Z" glyph-name="caronSlovak" horiz-adv-x="459" /><glyph d="M30 0ZM232 -14Q186 -14 148.5 1Q111 16 85 47.5Q59 79 44.5 129Q30 179 30 248Q30 385 84.5 447.5Q139 510 236 510Q304 510 347 475Q390 440 409 366L299 321Q288 358 273.5 374Q259 390 236 390Q217 390 203 383Q189 376 179.5 359.5Q170 343 165 315.5Q160 288 160 247Q160 174 176.5 139.5Q193 105 235 105Q259 105 275.5 121.5Q292 138 303 176L409 129Q389 57 346.5 21.5Q304 -14 232 -14ZM233 644 279 703H382V700L286 571H175L82 700V703H190Z" glyph-name="ccaron" horiz-adv-x="422" unicode="&#269;" /><glyph d="M222 -249Q184 -249 149 -232Q114 -215 97 -173L157 -134Q179 -176 215 -176Q232 -176 243.5 -166.5Q255 -157 255 -139Q255 -122 244.5 -112Q234 -102 216 -102Q211 -102 207.5 -102.5Q204 -103 200 -104L179 -90L199 -12Q120 -3 75 59Q30 121 30 248Q30 384 85 447Q140 510 238 510Q304 510 346.5 475Q389 440 408 366L301 321Q290 358 274.5 374Q259 390 236 390Q217 390 203 383Q189 376 179.5 359.5Q170 343 165 315.5Q160 288 160 247Q160 171 176.5 135Q193 99 235 99Q262 99 280 117Q298 135 309 170L411 127Q393 72 358.5 34.5Q324 -3 264 -11L253 -51H254Q286 -53 311 -75.5Q336 -98 336 -141Q336 -169 327 -189Q318 -209 302.5 -222.5Q287 -236 266 -242.5Q245 -249 222 -249Z" glyph-name="ccedilla" horiz-adv-x="422" unicode="&#231;" /><glyph d="M30 0ZM232 -14Q186 -14 148.5 1Q111 16 85 47.5Q59 79 44.5 129Q30 179 30 248Q30 385 84.5 447.5Q139 510 236 510Q304 510 347 475Q390 440 409 366L299 321Q288 358 273.5 374Q259 390 236 390Q217 390 203 383Q189 376 179.5 359.5Q170 343 165 315.5Q160 288 160 247Q160 174 176.5 139.5Q193 105 235 105Q259 105 275.5 121.5Q292 138 303 176L409 129Q389 57 346.5 21.5Q304 -14 232 -14ZM227 630 184 571H81V575L175 703H286L381 575V571H273Z" glyph-name="ccircumflex" horiz-adv-x="422" unicode="&#265;" /><glyph d="M30 0ZM232 -14Q186 -14 148.5 1Q111 16 85 47.5Q59 79 44.5 129Q30 179 30 248Q30 385 84.5 447.5Q139 510 236 510Q304 510 347 475Q390 440 409 366L299 321Q288 358 273.5 374Q259 390 236 390Q217 390 203 383Q189 376 179.5 359.5Q170 343 165 315.5Q160 288 160 247Q160 174 176.5 139.5Q193 105 235 105Q259 105 275.5 121.5Q292 138 303 176L409 129Q389 57 346.5 21.5Q304 -14 232 -14ZM156 644Q156 716 229 716Q301 716 301 644Q301 571 229 571Q156 571 156 644Z" glyph-name="cdotaccent" horiz-adv-x="422" unicode="&#267;" /><glyph d="M243 -249Q205 -249 171 -232Q137 -215 120 -173L179 -134Q199 -176 237 -176Q254 -176 265.5 -166.5Q277 -157 277 -139Q277 -122 266.5 -112Q256 -102 238 -102Q231 -102 221 -104L201 -90L223 0H290L276 -51H277Q308 -53 332.5 -75.5Q357 -98 357 -141Q357 -169 348 -189Q339 -209 323.5 -222.5Q308 -236 287 -242.5Q266 -249 243 -249Z" glyph-name="cedilla" horiz-adv-x="459" unicode="&#184;" /><glyph d="M397 136Q377 86 343.5 51.5Q310 17 252 9V-62H189V8Q113 18 69 77Q25 136 25 258Q25 376 68 436Q111 496 189 507V579H252V508Q363 494 395 378L302 330Q287 380 252 392V118Q291 132 306 183ZM135 256Q135 198 148 165.5Q161 133 189 121V391Q162 380 148.5 348.5Q135 317 135 256Z" glyph-name="cent" horiz-adv-x="416" unicode="&#162;" /><glyph d="M228 630 185 571H82V575L176 703H287L382 575V571H274Z" glyph-name="circumflex" horiz-adv-x="459" unicode="&#710;" /><glyph d="M28 0ZM103 -7Q67 -7 47.5 14Q28 35 28 72Q28 110 47.5 130.5Q67 151 103 151Q140 151 159.5 130.5Q179 110 179 72Q179 35 159.5 14Q140 -7 103 -7ZM103 337Q67 337 47.5 358Q28 379 28 416Q28 454 47.5 474.5Q67 495 103 495Q140 495 159.5 474.5Q179 454 179 416Q179 379 159.5 358Q140 337 103 337Z" glyph-name="colon" horiz-adv-x="206" unicode=":" /><glyph d="M54 -146 22 -88Q50 -76 69.5 -55Q89 -34 95 -5Q64 -3 46 16.5Q28 36 28 72Q28 110 48 130.5Q68 151 104 151Q180 151 180 57Q180 -16 147.5 -70.5Q115 -125 54 -146Z" glyph-name="comma" horiz-adv-x="207" unicode="," /><glyph d="M302 -147Q302 -216 269 -264Q236 -312 185 -327L155 -275Q182 -263 202 -242.5Q222 -222 227 -195Q195 -196 177 -179Q159 -162 159 -128Q159 -56 230 -56Q264 -56 283 -79Q302 -102 302 -147Z" glyph-name="commaaccent" horiz-adv-x="459" unicode="&#63171;" /><glyph d="M39 350Q39 432 58.5 496.5Q78 561 114.5 605.5Q151 650 203 673.5Q255 697 319 697Q383 697 434.5 673.5Q486 650 522 605.5Q558 561 577.5 496.5Q597 432 597 350Q597 268 577.5 203.5Q558 139 522 94.5Q486 50 434.5 26.5Q383 3 319 3Q255 3 203 26.5Q151 50 114.5 94.5Q78 139 58.5 203.5Q39 268 39 350ZM90 350Q90 274 107.5 217.5Q125 161 156 123.5Q187 86 229 67.5Q271 49 319 49Q368 49 409.5 67.5Q451 86 481.5 123.5Q512 161 529.5 217.5Q547 274 547 350Q547 426 529.5 482.5Q512 539 481.5 576.5Q451 614 409.5 632.5Q368 651 319 651Q271 651 229 632.5Q187 614 156 576.5Q125 539 107.5 482.5Q90 426 90 350ZM457 272Q437 217 403.5 191.5Q370 166 322 166Q290 166 263 176Q236 186 216.5 208.5Q197 231 186 267Q175 303 175 355Q175 456 216.5 500.5Q258 545 327 545Q375 545 406 522Q437 499 455 449L377 407Q362 459 324 459Q297 459 282 436.5Q267 414 267 353Q267 294 283 272.5Q299 251 326 251Q367 251 381 304Z" glyph-name="copyright" horiz-adv-x="638" unicode="&#169;" /><glyph d="M163 341Q98 341 60 384.5Q22 428 22 527Q22 625 60.5 669.5Q99 714 168 714Q213 714 243 696Q273 678 289 634L218 583Q201 628 170 628Q144 628 131 606Q118 584 118 527Q118 474 130 449Q142 424 171 424Q209 424 221 472L291 430Q274 386 243 363.5Q212 341 163 341Z" glyph-name="cordinal" horiz-adv-x="307" /><glyph d="M305 245Q305 327 285.5 362.5Q266 398 233 398Q198 398 180.5 361.5Q163 325 163 247Q163 171 180.5 135Q198 99 233 99Q265 99 285 134Q305 169 305 245ZM329 0 319 75Q297 32 267 9Q237 -14 190 -14Q119 -14 74.5 51Q30 116 30 243Q30 375 76.5 442.5Q123 510 197 510Q232 510 258 491.5Q284 473 304 440V700H441V0Z" glyph-name="d" horiz-adv-x="489" unicode="d" /><glyph d="M222 499H174L172 274H70V499H21V596H69L68 712H176L175 596H222Z" glyph-name="dagger" horiz-adv-x="245" unicode="&#8224;" /><glyph d="M21 467H71V523H21V618H70L68 712H176L175 618H222V523H173V467H222V371H175L176 274H68L69 371H21Z" glyph-name="daggerdbl" horiz-adv-x="245" unicode="&#8225;" /><glyph d="M30 0ZM580 444H492L497 700H606ZM305 245Q305 327 285.5 362.5Q266 398 233 398Q198 398 180.5 361.5Q163 325 163 247Q163 171 180.5 135Q198 99 233 99Q265 99 285 134Q305 169 305 245ZM329 0 319 75Q297 32 267 9Q237 -14 190 -14Q119 -14 74.5 51Q30 116 30 243Q30 375 76.5 442.5Q123 510 197 510Q232 510 258 491.5Q284 473 304 440V700H441V0Z" glyph-name="dcaron" horiz-adv-x="594" unicode="&#271;" /><glyph d="M305 245Q305 323 285.5 358Q266 393 233 393Q200 393 181.5 358.5Q163 324 163 247Q163 99 233 99Q265 99 285 134.5Q305 170 305 245ZM319 75Q298 32 267.5 9Q237 -14 190 -14Q118 -14 74 50.5Q30 115 30 241Q30 371 76.5 437.5Q123 504 197 504Q232 504 258 486Q284 468 303 435V547H209V628H303V700H441V628H485V547H441V0H329Z" glyph-name="dcroat" horiz-adv-x="498" unicode="&#273;" /><glyph d="M181 351Q111 351 72.5 401Q34 451 34 532Q34 614 72.5 663.5Q111 713 181 713Q250 713 288.5 663.5Q327 614 327 532Q327 451 288.5 401Q250 351 181 351ZM181 632Q151 632 132.5 607Q114 582 114 532Q114 482 132.5 457Q151 432 181 432Q209 432 228 457Q247 482 247 532Q247 582 228 607Q209 632 181 632Z" glyph-name="degree" horiz-adv-x="361" unicode="&#176;" /><glyph d="M255 646Q255 680 273 698Q291 716 324 716Q395 716 395 646Q395 572 324 572Q291 572 273 591Q255 610 255 646ZM74 646Q74 680 92.5 698Q111 716 144 716Q214 716 214 646Q214 572 144 572Q111 572 92.5 591Q74 610 74 646Z" glyph-name="dieresis" horiz-adv-x="459" unicode="&#168;" /><glyph d="M127 487Q127 520 144.5 539Q162 558 195 558Q228 558 246 539Q264 520 264 487Q264 452 246 433Q228 414 195 414Q162 414 144.5 433Q127 452 127 487ZM351 356V264H40V356ZM127 137Q127 171 144.5 190Q162 209 195 209Q228 209 246 190Q264 171 264 137Q264 103 246 84Q228 65 195 65Q162 65 144.5 84Q127 103 127 137Z" glyph-name="divide" horiz-adv-x="391" unicode="&#247;" /><glyph d="M203 431V581Q173 576 160 556Q147 536 147 510Q147 457 203 431ZM261 113Q290 119 304 138.5Q318 158 318 185Q318 214 305.5 233Q293 252 261 269ZM203 -62V5Q132 9 82 46.5Q32 84 9 167L120 206Q142 126 203 113V289L199 292Q105 328 68 381Q31 434 31 502Q31 580 75.5 631.5Q120 683 203 691V766H261V691Q330 685 375 647Q420 609 437 532L327 492Q317 530 300.5 550Q284 570 261 578V410L279 403Q365 371 403 323Q441 275 441 200Q441 115 395 65Q349 15 261 7V-62Z" glyph-name="dollar" horiz-adv-x="467" unicode="$" /><glyph d="M157 644Q157 716 230 716Q302 716 302 644Q302 571 230 571Q157 571 157 644Z" glyph-name="dotaccent" horiz-adv-x="459" unicode="&#729;" /><glyph d="M50 496H187V0H50Z" glyph-name="dotlessi" horiz-adv-x="236" unicode="&#305;" /><glyph d="M50 -27V496H187V-37Q187 -131 143.5 -175.5Q100 -220 32 -220Q-1 -220 -26 -213.5Q-51 -207 -72 -195L-39 -90Q-21 -102 0 -102Q24 -102 37 -85.5Q50 -69 50 -27Z" glyph-name="dotlessj" horiz-adv-x="236" unicode="&#567;" /><glyph d="M234 -65V766H358V-65ZM62 -65V766H185V-65Z" glyph-name="doublebar" horiz-adv-x="419" /><glyph d="M232 -14Q187 -14 150 1.5Q113 17 86 49.5Q59 82 44.5 131Q30 180 30 246Q30 371 82.5 440.5Q135 510 231 510Q279 510 314 490.5Q349 471 371.5 437.5Q394 404 404.5 358Q415 312 415 260Q415 230 412 202H160Q164 147 185.5 124Q207 101 244 101Q298 101 315 159L414 113Q403 85 387 61.5Q371 38 349.5 21.5Q328 5 299 -4.5Q270 -14 232 -14ZM230 393Q200 393 180.5 371Q161 349 159 298H291Q291 346 275 369.5Q259 393 230 393Z" glyph-name="e" horiz-adv-x="444" unicode="e" /><glyph d="M30 0ZM232 -14Q187 -14 150 1.5Q113 17 86 49.5Q59 82 44.5 131Q30 180 30 246Q30 371 82.5 440.5Q135 510 231 510Q279 510 314 490.5Q349 471 371.5 437.5Q394 404 404.5 358Q415 312 415 260Q415 230 412 202H160Q164 147 185.5 124Q207 101 244 101Q298 101 315 159L414 113Q403 85 387 61.5Q371 38 349.5 21.5Q328 5 299 -4.5Q270 -14 232 -14ZM230 393Q200 393 180.5 371Q161 349 159 298H291Q291 346 275 369.5Q259 393 230 393ZM368 696 267 571H163V576L226 703H368Z" glyph-name="eacute" horiz-adv-x="440" unicode="&#233;" /><glyph d="M30 0ZM232 -14Q187 -14 150 1.5Q113 17 86 49.5Q59 82 44.5 131Q30 180 30 246Q30 371 82.5 440.5Q135 510 231 510Q279 510 314 490.5Q349 471 371.5 437.5Q394 404 404.5 358Q415 312 415 260Q415 230 412 202H160Q164 147 185.5 124Q207 101 244 101Q298 101 315 159L414 113Q403 85 387 61.5Q371 38 349.5 21.5Q328 5 299 -4.5Q270 -14 232 -14ZM230 393Q200 393 180.5 371Q161 349 159 298H291Q291 346 275 369.5Q259 393 230 393ZM281 702H362Q362 663 352.5 636.5Q343 610 325.5 594Q308 578 282.5 571Q257 564 225 564Q192 564 167 571Q142 578 124.5 594Q107 610 98 636.5Q89 663 89 702H170Q170 666 183 652.5Q196 639 225 639Q254 639 267.5 652.5Q281 666 281 702Z" glyph-name="ebreve" horiz-adv-x="440" unicode="&#277;" /><glyph d="M30 0ZM232 -14Q187 -14 150 1.5Q113 17 86 49.5Q59 82 44.5 131Q30 180 30 246Q30 371 82.5 440.5Q135 510 231 510Q279 510 314 490.5Q349 471 371.5 437.5Q394 404 404.5 358Q415 312 415 260Q415 230 412 202H160Q164 147 185.5 124Q207 101 244 101Q298 101 315 159L414 113Q403 85 387 61.5Q371 38 349.5 21.5Q328 5 299 -4.5Q270 -14 232 -14ZM230 393Q200 393 180.5 371Q161 349 159 298H291Q291 346 275 369.5Q259 393 230 393ZM228 644 274 703H377V700L281 571H170L77 700V703H185Z" glyph-name="ecaron" horiz-adv-x="440" unicode="&#283;" /><glyph d="M30 0ZM232 -14Q187 -14 150 1.5Q113 17 86 49.5Q59 82 44.5 131Q30 180 30 246Q30 371 82.5 440.5Q135 510 231 510Q279 510 314 490.5Q349 471 371.5 437.5Q394 404 404.5 358Q415 312 415 260Q415 230 412 202H160Q164 147 185.5 124Q207 101 244 101Q298 101 315 159L414 113Q403 85 387 61.5Q371 38 349.5 21.5Q328 5 299 -4.5Q270 -14 232 -14ZM230 393Q200 393 180.5 371Q161 349 159 298H291Q291 346 275 369.5Q259 393 230 393ZM222 630 179 571H76V575L170 703H281L376 575V571H268Z" glyph-name="ecircumflex" horiz-adv-x="440" unicode="&#234;" /><glyph d="M30 0ZM232 -14Q187 -14 150 1.5Q113 17 86 49.5Q59 82 44.5 131Q30 180 30 246Q30 371 82.5 440.5Q135 510 231 510Q279 510 314 490.5Q349 471 371.5 437.5Q394 404 404.5 358Q415 312 415 260Q415 230 412 202H160Q164 147 185.5 124Q207 101 244 101Q298 101 315 159L414 113Q403 85 387 61.5Q371 38 349.5 21.5Q328 5 299 -4.5Q270 -14 232 -14ZM230 393Q200 393 180.5 371Q161 349 159 298H291Q291 346 275 369.5Q259 393 230 393ZM251 646Q251 680 269 698Q287 716 320 716Q391 716 391 646Q391 572 320 572Q287 572 269 591Q251 610 251 646ZM70 646Q70 680 88.5 698Q107 716 140 716Q210 716 210 646Q210 572 140 572Q107 572 88.5 591Q70 610 70 646Z" glyph-name="edieresis" horiz-adv-x="440" unicode="&#235;" /><glyph d="M30 0ZM232 -14Q187 -14 150 1.5Q113 17 86 49.5Q59 82 44.5 131Q30 180 30 246Q30 371 82.5 440.5Q135 510 231 510Q279 510 314 490.5Q349 471 371.5 437.5Q394 404 404.5 358Q415 312 415 260Q415 230 412 202H160Q164 147 185.5 124Q207 101 244 101Q298 101 315 159L414 113Q403 85 387 61.5Q371 38 349.5 21.5Q328 5 299 -4.5Q270 -14 232 -14ZM230 393Q200 393 180.5 371Q161 349 159 298H291Q291 346 275 369.5Q259 393 230 393ZM151 644Q151 716 224 716Q296 716 296 644Q296 571 224 571Q151 571 151 644Z" glyph-name="edotaccent" horiz-adv-x="440" unicode="&#279;" /><glyph d="M30 0ZM232 -14Q187 -14 150 1.5Q113 17 86 49.5Q59 82 44.5 131Q30 180 30 246Q30 371 82.5 440.5Q135 510 231 510Q279 510 314 490.5Q349 471 371.5 437.5Q394 404 404.5 358Q415 312 415 260Q415 230 412 202H160Q164 147 185.5 124Q207 101 244 101Q298 101 315 159L414 113Q403 85 387 61.5Q371 38 349.5 21.5Q328 5 299 -4.5Q270 -14 232 -14ZM230 393Q200 393 180.5 371Q161 349 159 298H291Q291 346 275 369.5Q259 393 230 393ZM182 572 80 697V704H227L288 577V572Z" glyph-name="egrave" horiz-adv-x="440" unicode="&#232;" /><glyph d="M51 0ZM267 -14Q161 -14 106 41.5Q51 97 51 194Q51 257 76.5 301.5Q102 346 146 368Q112 391 91 430Q70 469 70 519Q70 613 121.5 663.5Q173 714 267 714Q362 714 413.5 663.5Q465 613 465 519Q465 469 444 430Q423 391 389 368Q433 346 458.5 302Q484 258 484 194Q484 97 428.5 41.5Q373 -14 267 -14ZM341 513Q341 550 322 576.5Q303 603 268 603Q231 603 212.5 576.5Q194 550 194 513Q194 476 213 449.5Q232 423 267 423Q302 423 321.5 449Q341 475 341 513ZM268 98Q308 98 329 126Q350 154 350 200Q350 243 328.5 272Q307 301 269 301Q227 301 206 272Q185 243 185 200Q185 155 206.5 126.5Q228 98 268 98Z" glyph-name="eight" horiz-adv-x="535" unicode="8" /><glyph d="M257 -14Q151 -14 96 41.5Q41 97 41 194Q41 257 66.5 301.5Q92 346 136 368Q102 391 81 430Q60 469 60 519Q60 613 111.5 663.5Q163 714 257 714Q352 714 403.5 663.5Q455 613 455 519Q455 469 434 430Q413 391 379 368Q423 346 448.5 302Q474 258 474 194Q474 97 418.5 41.5Q363 -14 257 -14ZM331 513Q331 550 312 576.5Q293 603 258 603Q221 603 202.5 576.5Q184 550 184 513Q184 476 203 449.5Q222 423 257 423Q292 423 311.5 449Q331 475 331 513ZM258 98Q298 98 319 126Q340 154 340 200Q340 243 318.5 272Q297 301 259 301Q217 301 196 272Q175 243 175 200Q175 155 196.5 126.5Q218 98 258 98Z" glyph-name="eight.LP" horiz-adv-x="515" /><glyph d="M246 -14Q141 -14 85.5 41.5Q30 97 30 194Q30 257 56 301.5Q82 346 125 368Q91 391 70.5 430Q50 469 50 519Q50 613 101 663.5Q152 714 246 714Q342 714 393 663.5Q444 613 444 519Q444 469 423 430Q402 391 368 368Q412 346 437.5 302Q463 258 463 194Q463 97 408 41.5Q353 -14 246 -14ZM320 513Q320 550 301.5 576.5Q283 603 247 603Q211 603 192.5 576.5Q174 550 174 513Q174 476 192.5 449.5Q211 423 246 423Q282 423 301 449Q320 475 320 513ZM247 98Q287 98 308 126Q329 154 329 200Q329 243 308 272Q287 301 246 301Q207 301 186 272Q165 243 165 200Q165 155 186.5 126.5Q208 98 247 98Z" glyph-name="eight.OP" horiz-adv-x="494" /><glyph d="M267 -14Q162 -14 106.5 41.5Q51 97 51 194Q51 257 77 301.5Q103 346 146 368Q112 391 91.5 430Q71 469 71 519Q71 613 122 663.5Q173 714 267 714Q363 714 414 663.5Q465 613 465 519Q465 469 444 430Q423 391 389 368Q433 346 458.5 302Q484 258 484 194Q484 97 429 41.5Q374 -14 267 -14ZM341 513Q341 550 322.5 576.5Q304 603 268 603Q232 603 213.5 576.5Q195 550 195 513Q195 476 213.5 449.5Q232 423 267 423Q303 423 322 449Q341 475 341 513ZM268 98Q308 98 329 126Q350 154 350 200Q350 243 329 272Q308 301 267 301Q228 301 207 272Q186 243 186 200Q186 155 207.5 126.5Q229 98 268 98Z" glyph-name="eight.OT" horiz-adv-x="535" /><glyph d="M22 0ZM158 -209Q92 -209 57 -176Q22 -143 22 -85Q22 -48 37 -22.5Q52 3 79 16Q59 30 46.5 52.5Q34 75 34 104Q34 161 66 191Q98 221 158 221Q218 221 250 191Q282 161 282 104Q282 75 269.5 52.5Q257 30 237 16Q263 2 278.5 -23Q294 -48 294 -85Q294 -143 259.5 -176Q225 -209 158 -209ZM196 98Q196 116 186.5 130Q177 144 159 144Q139 144 129.5 130Q120 116 120 98Q120 79 130 65.5Q140 52 158 52Q177 52 186.5 65Q196 78 196 98ZM200 -83Q200 -62 189.5 -46.5Q179 -31 159 -31Q137 -31 126.5 -46.5Q116 -62 116 -83Q116 -106 127 -121Q138 -136 158 -136Q178 -136 189 -121Q200 -106 200 -83Z" glyph-name="eight.inf" horiz-adv-x="317" /><glyph d="M510 -7Q474 -7 454.5 14Q435 35 435 72Q435 110 454.5 130.5Q474 151 510 151Q546 151 565.5 130.5Q585 110 585 72Q585 35 565.5 14Q546 -7 510 -7ZM307 -7Q271 -7 251.5 14Q232 35 232 72Q232 110 251.5 130.5Q271 151 307 151Q343 151 362.5 130.5Q382 110 382 72Q382 35 362.5 14Q343 -7 307 -7ZM103 -7Q67 -7 47.5 14Q28 35 28 72Q28 110 47.5 130.5Q67 151 103 151Q140 151 159.5 130.5Q179 110 179 72Q179 35 159.5 14Q140 -7 103 -7Z" glyph-name="ellipsis" horiz-adv-x="614" unicode="&#8230;" /><glyph d="M30 0ZM232 -14Q187 -14 150 1.5Q113 17 86 49.5Q59 82 44.5 131Q30 180 30 246Q30 371 82.5 440.5Q135 510 231 510Q279 510 314 490.5Q349 471 371.5 437.5Q394 404 404.5 358Q415 312 415 260Q415 230 412 202H160Q164 147 185.5 124Q207 101 244 101Q298 101 315 159L414 113Q403 85 387 61.5Q371 38 349.5 21.5Q328 5 299 -4.5Q270 -14 232 -14ZM230 393Q200 393 180.5 371Q161 349 159 298H291Q291 346 275 369.5Q259 393 230 393ZM340 675V590H112V675Z" glyph-name="emacron" horiz-adv-x="440" unicode="&#275;" /><glyph d="M563 325V208H39V325Z" glyph-name="emdash" horiz-adv-x="601" unicode="&#8212;" /><glyph d="M39 293ZM563 410V293H39V410Z" glyph-name="emdash.cap" horiz-adv-x="601" /><glyph glyph-name="emspace" horiz-adv-x="759" unicode="&#8195;" /><glyph d="M412 325V208H39V325Z" glyph-name="endash" horiz-adv-x="450" unicode="&#8211;" /><glyph d="M39 293ZM412 410V293H39V410Z" glyph-name="endash.cap" horiz-adv-x="450" /><glyph d="M317 -23V284Q317 338 302.5 359.5Q288 381 260 381Q228 381 207.5 347Q187 313 187 246V0H50V496H163L174 407Q196 460 231.5 485Q267 510 313 510Q350 510 376.5 496.5Q403 483 420.5 458Q438 433 446 397.5Q454 362 454 319V-40Q454 -132 410 -176Q366 -220 298 -220Q276 -220 250.5 -215.5Q225 -211 203 -198L230 -91Q250 -102 270 -102Q295 -102 306 -84.5Q317 -67 317 -23Z" glyph-name="eng" horiz-adv-x="499" unicode="&#331;" /><glyph glyph-name="enspace" horiz-adv-x="380" unicode="&#8194;" /><glyph d="M285 -227Q264 -227 242.5 -221Q221 -215 204 -200.5Q187 -186 176.5 -161.5Q166 -137 166 -100Q166 -73 173 -50.5Q180 -28 192 -11Q118 3 74 65.5Q30 128 30 246Q30 371 82.5 440.5Q135 510 231 510Q279 510 314 490.5Q349 471 371.5 437.5Q394 404 404.5 358Q415 312 415 260Q415 230 412 202H160Q164 147 185.5 124Q207 101 244 101Q298 101 315 159L414 113Q395 66 364 34Q333 2 282 -9Q261 -21 252 -41.5Q243 -62 243 -85Q243 -117 259 -129.5Q275 -142 295 -142Q321 -142 341 -125L374 -196Q354 -211 332.5 -219Q311 -227 285 -227ZM230 393Q200 393 180.5 371Q161 349 159 298H291Q291 346 275 369.5Q259 393 230 393Z" glyph-name="eogonek" horiz-adv-x="440" unicode="&#281;" /><glyph d="M351 429V338H40V429ZM351 281V190H40V281Z" glyph-name="equal" horiz-adv-x="391" unicode="=" /><glyph d="M21 0ZM222 64V-7H21V64ZM222 -34V-104H21V-34Z" glyph-name="equal.inf" horiz-adv-x="244" /><glyph d="M236 -14Q133 -14 81.5 48.5Q30 111 30 241Q30 373 81 434Q132 495 219 495Q267 495 300 459Q287 520 256 566L199 523L169 570L216 607Q181 639 130 656L165 750Q207 742 242.5 724Q278 706 307 680L369 731L402 684L344 637Q390 576 415 484.5Q440 393 440 279V256Q440 114 388 50Q336 -14 236 -14ZM310 240Q310 319 292.5 352.5Q275 386 236 386Q196 386 178.5 352.5Q161 319 161 240Q161 162 179.5 129.5Q198 97 236 97Q273 97 291.5 129.5Q310 162 310 240Z" glyph-name="eth" horiz-adv-x="470" unicode="&#240;" /><glyph d="M172 700 151 214H54L34 700ZM103 -7Q67 -7 47 14Q27 35 27 72Q27 110 47 130.5Q67 151 103 151Q139 151 158.5 130.5Q178 110 178 72Q178 35 158.5 14Q139 -7 103 -7Z" glyph-name="exclam" horiz-adv-x="206" unicode="!" /><glyph d="M29 -193 50 293H147L167 -193ZM98 514Q134 514 154 493Q174 472 174 435Q174 397 154 376.5Q134 356 98 356Q62 356 42.5 376.5Q23 397 23 435Q23 472 42.5 493Q62 514 98 514Z" glyph-name="exclamdown" horiz-adv-x="204" unicode="&#161;" /><glyph d="M29 0 50 486H147L167 0ZM98 707Q134 707 154 686Q174 665 174 628Q174 590 154 569.5Q134 549 98 549Q62 549 42.5 569.5Q23 590 23 628Q23 665 42.5 686Q62 707 98 707Z" glyph-name="exclamdown.cap" horiz-adv-x="204" /><glyph d="M305 385H209V0H73V385H14V496H73V542Q73 590 85.5 625.5Q98 661 120.5 684.5Q143 708 172.5 719Q202 730 237 730Q266 730 291 723Q316 716 333 704L299 601Q291 607 280.5 609Q270 611 259 611Q237 611 223 596.5Q209 582 209 545V496H305Z" glyph-name="f" horiz-adv-x="315" unicode="f" /><glyph d="M427 564Q390 564 369.5 584.5Q349 605 349 643Q349 682 369.5 702Q390 722 427 722Q465 722 485 702Q505 682 505 643Q505 605 485 584.5Q465 564 427 564ZM304 385H208V0H72V385H13V496H72V546Q72 593 84 627.5Q96 662 117.5 685Q139 708 168 719Q197 730 232 730Q287 730 324 702L290 600Q273 611 253 611Q233 611 220.5 595.5Q208 580 208 541V496H304ZM358 496H496V0H358Z" glyph-name="fi" horiz-adv-x="544" unicode="&#64257;" /><glyph d="M412 325V208H39V325Z" glyph-name="figuredash" horiz-adv-x="450" unicode="&#8210;" /><glyph d="M39 293ZM412 410V293H39V410Z" glyph-name="figuredash.cap" horiz-adv-x="450" /><glyph glyph-name="figurespace" horiz-adv-x="475" unicode="&#8199;" /><glyph d="M41 0ZM255 -15Q178 -15 122.5 20.5Q67 56 41 137L148 191Q165 141 191 122Q217 103 252 103Q298 103 322 137Q346 171 346 227Q346 287 321.5 314Q297 341 256 341Q229 341 207 329Q185 317 168 295L71 339L94 700H458V579H209L199 423Q219 437 244.5 444Q270 451 297 451Q337 451 371.5 438Q406 425 431 398Q456 371 470 329Q484 287 484 229Q484 176 469.5 131.5Q455 87 426 54.5Q397 22 354 3.5Q311 -15 255 -15Z" glyph-name="five" horiz-adv-x="535" unicode="5" /><glyph d="M224 -15Q147 -15 91.5 20.5Q36 56 10 137L117 191Q134 141 160 122Q186 103 221 103Q267 103 291 137Q315 171 315 227Q315 287 290.5 314Q266 341 225 341Q198 341 176 329Q154 317 137 295L40 339L63 700H427V579H178L168 423Q188 437 213.5 444Q239 451 266 451Q306 451 340.5 438Q375 425 400 398Q425 371 439 329Q453 287 453 229Q453 176 438.5 131.5Q424 87 395 54.5Q366 22 323 3.5Q280 -15 224 -15Z" glyph-name="five.LP" horiz-adv-x="486" /><glyph d="M218 -115Q143 -115 88 -79.5Q33 -44 7 37L114 91Q131 40 156 20.5Q181 1 216 1Q261 1 284.5 35.5Q308 70 308 127Q308 187 284 214Q260 241 220 241Q194 241 172.5 229Q151 217 134 195L37 239L60 600H421V479H175L166 323Q185 337 209 344Q233 351 259 351Q299 351 333.5 338Q368 325 393 298Q418 271 432 229Q446 187 446 129Q446 16 388.5 -49.5Q331 -115 218 -115Z" glyph-name="five.OP" horiz-adv-x="477" /><glyph d="M249 -115Q174 -115 119 -79.5Q64 -44 38 37L145 91Q162 40 187 20.5Q212 1 247 1Q292 1 315.5 35.5Q339 70 339 127Q339 187 315 214Q291 241 251 241Q225 241 203.5 229Q182 217 165 195L68 239L91 600H452V479H206L197 323Q216 337 240 344Q264 351 290 351Q330 351 364.5 338Q399 325 424 298Q449 271 463 229Q477 187 477 129Q477 16 419.5 -49.5Q362 -115 249 -115Z" glyph-name="five.OT" horiz-adv-x="535" /><glyph d="M4 0ZM118 130 113 53Q135 67 169 67Q218 67 250 35.5Q282 4 282 -65Q282 -133 243 -171Q204 -209 138 -209Q92 -209 58 -190Q24 -171 4 -123L76 -82Q87 -109 101 -118.5Q115 -128 135 -128Q160 -128 172 -111Q184 -94 184 -65Q184 -35 171.5 -20.5Q159 -6 139 -6Q109 -6 92 -32L24 -1L38 212H269V130Z" glyph-name="five.inf" horiz-adv-x="299" /><glyph d="M304 385H208V0H72V385H13V496H72V546Q72 593 84 627.5Q96 662 117.5 685Q139 708 168 719Q197 730 232 730Q287 730 324 702L290 600Q273 611 253 611Q233 611 220.5 595.5Q208 580 208 541V496H304ZM484 0Q426 0 392 30Q358 60 358 134V700H495V145Q495 125 503.5 115Q512 105 524 105H553V0Z" glyph-name="fl" horiz-adv-x="562" unicode="&#64258;" /><glyph d="M304 385H208V0H72V385H13V496H72V546Q72 593 84 627.5Q96 662 117.5 685Q139 708 168 719Q197 730 232 730Q287 730 324 702L290 600Q273 611 253 611Q233 611 220.5 595.5Q208 580 208 541V496H304ZM495 700V0H358V700Z" glyph-name="fl.alt" horiz-adv-x="540" /><glyph d="M7 -220Q-13 -220 -36.5 -215.5Q-60 -211 -77 -199L-46 -98Q-30 -109 -10 -109Q13 -109 26 -90.5Q39 -72 45 -24L78 270H20L36 379H92L98 432Q109 529 152.5 576.5Q196 624 266 624Q297 624 322.5 617Q348 610 364 599L331 501Q323 506 313 509.5Q303 513 292 513Q269 513 251.5 495Q234 477 229 429L224 379H320L305 270H209L177 -31Q166 -128 120 -174Q74 -220 7 -220Z" glyph-name="florin" horiz-adv-x="343" unicode="&#402;" /><glyph d="M24 0ZM24 155V259L180 700H317L164 281H313V516H446V281H512V155H446V0H313V155Z" glyph-name="four" horiz-adv-x="535" unicode="4" /><glyph d="M23 155V259L179 700H316L163 281H312V516H445V281H511V155H445V0H312V155Z" glyph-name="four.LP" horiz-adv-x="527" /><glyph d="M25 55V157L176 600H310L162 180H304V414H434V180H495V55H434V-100H304V55Z" glyph-name="four.OP" horiz-adv-x="512" /><glyph d="M33 55V157L184 600H318L170 180H312V414H442V180H503V55H442V-100H312V55Z" glyph-name="four.OT" horiz-adv-x="535" /><glyph d="M16 0ZM16 -115V-43L106 212H202L113 -29H191V90H283V-29H320V-115H283V-200H191V-115Z" glyph-name="four.inf" horiz-adv-x="331" /><glyph glyph-name="fourperemspace" horiz-adv-x="191" unicode="&#8197;" /><glyph d="M400 700 135 0H20L286 700Z" glyph-name="fraction" horiz-adv-x="439" unicode="&#8260;" /><glyph d="M305 257Q305 327 285 362Q265 397 233 397Q198 397 180 363Q162 329 162 256Q162 182 180.5 147Q199 112 231 112Q266 112 285.5 148.5Q305 185 305 257ZM220 -220Q141 -220 93 -188.5Q45 -157 21 -95L128 -37Q151 -108 214 -108Q303 -108 303 19V82Q286 45 256.5 25Q227 5 189 5Q119 5 74.5 66Q30 127 30 254Q30 382 77.5 446Q125 510 205 510Q280 510 321 428L329 496H440V34Q440 -94 381 -157Q322 -220 220 -220Z" glyph-name="g" horiz-adv-x="489" unicode="g" /><glyph d="M21 0ZM305 257Q305 327 285 362Q265 397 233 397Q198 397 180 363Q162 329 162 256Q162 182 180.5 147Q199 112 231 112Q266 112 285.5 148.5Q305 185 305 257ZM220 -220Q141 -220 93 -188.5Q45 -157 21 -95L128 -37Q151 -108 214 -108Q303 -108 303 19V82Q286 45 256.5 25Q227 5 189 5Q119 5 74.5 66Q30 127 30 254Q30 382 77.5 446Q125 510 205 510Q280 510 321 428L329 496H440V34Q440 -94 381 -157Q322 -220 220 -220ZM287 702H368Q368 663 358.5 636.5Q349 610 331.5 594Q314 578 288.5 571Q263 564 231 564Q198 564 173 571Q148 578 130.5 594Q113 610 104 636.5Q95 663 95 702H176Q176 666 189 652.5Q202 639 231 639Q260 639 273.5 652.5Q287 666 287 702Z" glyph-name="gbreve" horiz-adv-x="488" unicode="&#287;" /><glyph d="M21 0ZM230 630 187 571H84V575L178 703H289L384 575V571H276ZM305 257Q305 327 285 362Q265 397 233 397Q198 397 180 363Q162 329 162 256Q162 182 180.5 147Q199 112 231 112Q266 112 285.5 148.5Q305 185 305 257ZM220 -220Q141 -220 93 -188.5Q45 -157 21 -95L128 -37Q151 -108 214 -108Q303 -108 303 19V82Q286 45 256.5 25Q227 5 189 5Q119 5 74.5 66Q30 127 30 254Q30 382 77.5 446Q125 510 205 510Q280 510 321 428L329 496H440V34Q440 -94 381 -157Q322 -220 220 -220Z" glyph-name="gcircumflex" horiz-adv-x="488" unicode="&#285;" /><glyph d="M150 652Q150 721 183 769Q216 817 267 832L297 780Q270 768 250 747.5Q230 727 225 700Q257 701 275 684Q293 667 293 633Q293 561 222 561Q188 561 169 584Q150 607 150 652ZM305 257Q305 327 285 362Q265 397 233 397Q198 397 180 363Q162 329 162 256Q162 182 180.5 147Q199 112 231 112Q266 112 285.5 148.5Q305 185 305 257ZM220 -220Q141 -220 93 -188.5Q45 -157 21 -95L128 -37Q151 -108 214 -108Q303 -108 303 19V82Q286 45 256.5 25Q227 5 189 5Q119 5 74.5 66Q30 127 30 254Q30 382 77.5 446Q125 510 205 510Q280 510 321 428L329 496H440V34Q440 -94 381 -157Q322 -220 220 -220Z" glyph-name="gcommaaccent" horiz-adv-x="487" unicode="&#291;" /><glyph d="M21 0ZM305 257Q305 327 285 362Q265 397 233 397Q198 397 180 363Q162 329 162 256Q162 182 180.5 147Q199 112 231 112Q266 112 285.5 148.5Q305 185 305 257ZM220 -220Q141 -220 93 -188.5Q45 -157 21 -95L128 -37Q151 -108 214 -108Q303 -108 303 19V82Q286 45 256.5 25Q227 5 189 5Q119 5 74.5 66Q30 127 30 254Q30 382 77.5 446Q125 510 205 510Q280 510 321 428L329 496H440V34Q440 -94 381 -157Q322 -220 220 -220ZM159 644Q159 716 232 716Q304 716 304 644Q304 571 232 571Q159 571 159 644Z" glyph-name="gdotaccent" horiz-adv-x="488" unicode="&#289;" /><glyph d="M270 303H241V427H266Q297 427 316 451.5Q335 476 335 518Q335 557 315.5 580Q296 603 261 603Q224 603 204.5 577Q185 551 185 501V0H50V491Q50 600 103.5 661.5Q157 723 263 723Q362 723 415.5 671.5Q469 620 469 529Q469 478 447 441.5Q425 405 391 383Q442 365 468.5 316.5Q495 268 495 200Q495 99 443 45.5Q391 -8 307 -8Q284 -8 262.5 -3.5Q241 1 223 10L244 115Q262 106 285 106Q316 106 337 129Q358 152 358 204Q358 249 336.5 276Q315 303 270 303Z" glyph-name="germandbls" horiz-adv-x="526" unicode="&#223;" /><glyph d="M190 571 88 696V703H235L296 576V571Z" glyph-name="grave" horiz-adv-x="459" unicode="`" /><glyph d="M113 80 60 153 224 306 58 460 114 538 328 338V280Z" glyph-name="greater" horiz-adv-x="386" unicode="&gt;" /><glyph d="M132 145 85 220 250 339 85 457 132 535 369 368V314ZM372 91V0H77V91Z" glyph-name="greaterequal" horiz-adv-x="451" unicode="&#8805;" /><glyph d="M179 0 29 246V249L178 496H312L161 250L315 0ZM382 0 226 248V251L376 496H510L359 252L518 0Z" glyph-name="guillemotleft" horiz-adv-x="539" unicode="&#171;" /><glyph d="M357 496 507 250V247L358 0H224L375 246L221 496ZM154 496 310 248V245L160 0H26L177 244L18 496Z" glyph-name="guillemotright" horiz-adv-x="539" unicode="&#187;" /><glyph d="M178 0 29 246V249L177 496H311L161 250L314 0Z" glyph-name="guilsinglleft" horiz-adv-x="335" unicode="&#8249;" /><glyph d="M154 496 303 250V247L155 0H21L171 246L18 496Z" glyph-name="guilsinglright" horiz-adv-x="335" unicode="&#8250;" /><glyph d="M317 284Q317 338 302 359.5Q287 381 260 381Q227 381 207.5 347.5Q188 314 187 248V0H50V700H187V405Q207 458 241.5 484Q276 510 318 510Q388 510 421 457.5Q454 405 454 319V0H317Z" glyph-name="h" horiz-adv-x="499" unicode="h" /><glyph glyph-name="hairspace" horiz-adv-x="76" unicode="&#8202;" /><glyph d="M196 242V0H59V547H14V628H59V700H196V628H289V547H196V400Q216 454 250.5 480Q285 506 327 506Q397 506 429.5 451.5Q462 397 462 307V0H325V271Q325 329 310 352Q295 375 269 375Q236 375 216.5 342Q197 309 196 242Z" glyph-name="hbar" horiz-adv-x="507" unicode="&#295;" /><glyph d="M0 0ZM317 284Q317 338 302 359.5Q287 381 260 381Q227 381 207.5 347.5Q188 314 187 248V0H50V700H187V405Q207 458 241.5 484Q276 510 318 510Q388 510 421 457.5Q454 405 454 319V0H317ZM117 834 74 775H-29V779L65 907H176L271 779V775H163Z" glyph-name="hcircumflex" horiz-adv-x="499" unicode="&#293;" /><glyph d="M463 697 360 571H265V576L327 703H463ZM286 703V697L183 571H88V576L150 703Z" glyph-name="hungarumlaut" horiz-adv-x="459" unicode="&#733;" /><glyph d="M337 325V208H39V325Z" glyph-name="hyphen" horiz-adv-x="377" unicode="-" /><glyph d="M39 293ZM337 410V293H39V410Z" glyph-name="hyphen.cap" horiz-adv-x="377" /><glyph d="M40 648Q40 687 60.5 707Q81 727 118 727Q155 727 175.5 707Q196 687 196 648Q196 610 175.5 589Q155 568 118 568Q81 568 60.5 589Q40 610 40 648ZM50 496H187V0H50Z" glyph-name="i" horiz-adv-x="236" unicode="i" /><glyph d="M50 0ZM50 496H187V0H50ZM262 696 161 571H57V576L120 703H262Z" glyph-name="iacute" horiz-adv-x="236" unicode="&#237;" /><glyph d="M0 0ZM50 496H187V0H50ZM174 702H255Q255 663 245.5 636.5Q236 610 218.5 594Q201 578 175.5 571Q150 564 118 564Q85 564 60 571Q35 578 17.5 594Q0 610 -9 636.5Q-18 663 -18 702H63Q63 666 76 652.5Q89 639 118 639Q147 639 160.5 652.5Q174 666 174 702Z" glyph-name="ibreve" horiz-adv-x="236" unicode="&#301;" /><glyph d="M0 0ZM50 496H187V0H50ZM116 630 73 571H-30V575L64 703H175L270 575V571H162Z" glyph-name="icircumflex" horiz-adv-x="236" unicode="&#238;" /><glyph d="M0 0ZM50 496H187V0H50ZM144 646Q144 680 162 698Q180 716 213 716Q284 716 284 646Q284 572 213 572Q180 572 162 591Q144 610 144 646ZM-37 646Q-37 680 -18.5 698Q0 716 33 716Q103 716 103 646Q103 572 33 572Q0 572 -18.5 591Q-37 610 -37 646Z" glyph-name="idieresis" horiz-adv-x="236" unicode="&#239;" /><glyph d="M40 648Q40 687 60.5 707Q81 727 118 727Q155 727 175.5 707Q196 687 196 648Q196 610 175.5 589Q155 568 118 568Q81 568 60.5 589Q40 610 40 648ZM50 496H187V0H50Z" glyph-name="idotaccent" horiz-adv-x="236" /><glyph d="M0 0ZM50 496H187V0H50ZM76 572 -26 697V704H121L182 577V572Z" glyph-name="igrave" horiz-adv-x="236" unicode="&#236;" /><glyph d="M40 0ZM40 648Q40 687 60.5 707Q81 727 118 727Q155 727 175.5 707Q196 687 196 648Q196 610 175.5 589Q155 568 118 568Q81 568 60.5 589Q40 610 40 648ZM50 496H187V0H50ZM349 568Q312 568 291.5 589Q271 610 271 648Q271 687 291.5 707Q312 727 349 727Q386 727 406.5 707Q427 687 427 648Q427 610 406.5 589Q386 568 349 568ZM281 -27V496H418V-37Q418 -131 374.5 -175.5Q331 -220 263 -220Q230 -220 205.5 -213.5Q181 -207 159 -194L192 -90Q208 -102 231 -102Q255 -102 268 -85.5Q281 -69 281 -27Z" glyph-name="ij" horiz-adv-x="468" unicode="&#307;" /><glyph d="M5 0ZM50 496H187V0H50ZM233 675V590H5V675Z" glyph-name="imacron" horiz-adv-x="236" unicode="&#299;" /><glyph d="M40 648Q40 687 60.5 707Q81 727 118 727Q155 727 175.5 707Q196 687 196 648Q196 610 175.5 589Q155 568 118 568Q81 568 60.5 589Q40 610 40 648ZM184 -196Q164 -211 143 -219Q122 -227 96 -227Q74 -227 52.5 -221Q31 -215 13.5 -200.5Q-4 -186 -14.5 -161.5Q-25 -137 -25 -100Q-25 -52 -3 -18.5Q19 15 50 32V496H187V0H124Q86 -4 69.5 -29.5Q53 -55 53 -85Q53 -117 69.5 -129.5Q86 -142 106 -142Q131 -142 151 -125Z" glyph-name="iogonek" horiz-adv-x="236" unicode="&#303;" /><glyph d="M0 0ZM50 496H187V0H50ZM183 698H261Q263 664 256.5 641Q250 618 238 604Q226 590 211 584Q196 578 181 578Q163 578 148.5 583.5Q134 589 121 595.5Q108 602 96.5 607.5Q85 613 74 613Q61 613 57 602.5Q53 592 53 579H-25Q-27 613 -20.5 636.5Q-14 660 -2.5 673.5Q9 687 24 693Q39 699 54 699Q72 699 87 693.5Q102 688 115 681.5Q128 675 139.5 669.5Q151 664 162 664Q176 664 179.5 674Q183 684 183 698Z" glyph-name="itilde" horiz-adv-x="236" unicode="&#297;" /><glyph d="M118 568Q81 568 60.5 589Q40 610 40 648Q40 687 60.5 707Q81 727 118 727Q155 727 175.5 707Q196 687 196 648Q196 610 175.5 589Q155 568 118 568ZM50 -27V496H187V-37Q187 -131 143.5 -175.5Q100 -220 32 -220Q-1 -220 -25.5 -213.5Q-50 -207 -72 -194L-39 -90Q-23 -102 0 -102Q24 -102 37 -85.5Q50 -69 50 -27Z" glyph-name="j" horiz-adv-x="236" unicode="j" /><glyph d="M0 0ZM50 -27V496H187V-37Q187 -131 143.5 -175.5Q100 -220 32 -220Q-1 -220 -26 -213.5Q-51 -207 -72 -195L-39 -90Q-21 -102 0 -102Q24 -102 37 -85.5Q50 -69 50 -27ZM116 630 73 571H-30V575L64 703H175L270 575V571H162Z" glyph-name="jcircumflex" horiz-adv-x="236" unicode="&#309;" /><glyph d="M185 110V0H50V700H187L182 270L309 496H455L311 282L458 0H307L227 173Z" glyph-name="k" horiz-adv-x="463" unicode="k" /><glyph d="M306 0 185 217V0H49V700H186L185 263L308 496H448L312 254L458 0Z" glyph-name="k.alt" horiz-adv-x="462" /><glyph d="M50 0ZM185 110V0H50V700H187L182 270L309 496H455L311 282L458 0H307L227 173ZM317 -147Q317 -216 284 -264Q251 -312 200 -327L170 -275Q197 -263 217 -242.5Q237 -222 242 -195Q210 -196 192 -179Q174 -162 174 -128Q174 -56 245 -56Q279 -56 298 -79Q317 -102 317 -147Z" glyph-name="kcommaaccent" horiz-adv-x="463" unicode="&#311;" /><glyph d="M49 0ZM306 0 185 217V0H49V700H186L185 263L308 496H448L312 254L458 0ZM318 -147Q318 -216 285 -264Q252 -312 201 -327L171 -275Q198 -263 218 -242.5Q238 -222 243 -195Q211 -196 193 -179Q175 -162 175 -128Q175 -56 246 -56Q280 -56 299 -79Q318 -102 318 -147Z" glyph-name="kcommaaccent.alt" horiz-adv-x="462" /><glyph d="M185 110V0H50V496H185L182 269L309 496H455L312 280L458 0H307L226 173Z" glyph-name="kgreenlandic" horiz-adv-x="463" unicode="&#312;" /><glyph d="M174 0Q116 0 82 30Q48 60 48 134V700H185V145Q185 125 193.5 115Q202 105 214 105H243V0Z" glyph-name="l" horiz-adv-x="252" unicode="l" /><glyph d="M187 700V0H50V700Z" glyph-name="l.alt" horiz-adv-x="236" /><glyph d="M48 0ZM174 0Q116 0 82 30Q48 60 48 134V700H185V145Q185 125 193.5 115Q202 105 214 105H243V0ZM261 900 160 775H56V780L119 907H261Z" glyph-name="lacute" horiz-adv-x="236" unicode="&#314;" /><glyph d="M48 0ZM325 446H237L242 702H351ZM174 0Q116 0 82 30Q48 60 48 134V700H185V145Q185 125 193.5 115Q202 105 214 105H243V0Z" glyph-name="lcaron" horiz-adv-x="341" unicode="&#318;" /><glyph d="M48 0ZM174 0Q116 0 82 30Q48 60 48 134V700H185V145Q185 125 193.5 115Q202 105 214 105H243V0ZM208 -147Q208 -216 175 -264Q142 -312 91 -327L61 -275Q88 -263 108 -242.5Q128 -222 133 -195Q101 -196 83 -179Q65 -162 65 -128Q65 -56 136 -56Q170 -56 189 -79Q208 -102 208 -147Z" glyph-name="lcommaaccent" horiz-adv-x="252" unicode="&#316;" /><glyph d="M48 0ZM174 0Q116 0 82 30Q48 60 48 134V700H185V145Q185 125 193.5 115Q202 105 214 105H243V0ZM220 304Q220 376 293 376Q365 376 365 304Q365 231 293 231Q220 231 220 304Z" glyph-name="ldot" horiz-adv-x="357" unicode="&#320;" /><glyph d="M273 538 327 464 163 311 329 158 273 80 58 280V338Z" glyph-name="less" horiz-adv-x="386" unicode="&lt;" /><glyph d="M321 535 368 461 203 342 368 224 321 145 85 313V367ZM77 0V91H372V0Z" glyph-name="lessequal" horiz-adv-x="451" unicode="&#8804;" /><glyph d="M261 0H192Q134 0 100 30Q66 60 66 134V222L8 163V285L66 344V700H203V451L265 512V390L203 328V145Q203 125 211.5 115Q220 105 232 105H261Z" glyph-name="lslash" horiz-adv-x="274" unicode="&#322;" /><glyph d="M300 0V286Q300 337 287.5 358.5Q275 380 251 380Q222 380 205 350Q188 320 187 257V0H50V496H162L173 409Q195 462 228.5 486Q262 510 303 510Q351 510 378 479.5Q405 449 418 403Q438 458 472.5 484Q507 510 551 510Q623 510 655.5 458.5Q688 407 688 322V0H551V289Q551 339 538.5 359.5Q526 380 503 380Q474 380 456.5 352Q439 324 437 266V0Z" glyph-name="m" horiz-adv-x="733" unicode="m" /><glyph d="M338 675V590H110V675Z" glyph-name="macron" horiz-adv-x="459" unicode="&#175;" /><glyph d="M351 355V266H40V355Z" glyph-name="minus" horiz-adv-x="391" unicode="&#8722;" /><glyph d="M21 0ZM222 16V-54H21V16Z" glyph-name="minus.inf" horiz-adv-x="244" /><glyph d="M105 136 41 195 139 311 39 430 105 491 195 382 281 489 344 430 247 315 344 199 278 137 192 244Z" glyph-name="multiply" horiz-adv-x="387" unicode="&#215;" /><glyph d="M50 496H163L174 405Q196 459 231.5 484.5Q267 510 313 510Q350 510 376.5 496.5Q403 483 420.5 458Q438 433 446 397.5Q454 362 454 319V0H317V286Q317 339 302 360Q287 381 260 381Q228 381 207.5 347.5Q187 314 187 248V0H50Z" glyph-name="n" horiz-adv-x="499" unicode="n" /><glyph d="M50 0ZM50 496H163L174 405Q196 459 231.5 484.5Q267 510 313 510Q350 510 376.5 496.5Q403 483 420.5 458Q438 433 446 397.5Q454 362 454 319V0H317V286Q317 339 302 360Q287 381 260 381Q228 381 207.5 347.5Q187 314 187 248V0H50ZM411 696 310 571H206V576L269 703H411Z" glyph-name="nacute" horiz-adv-x="499" unicode="&#324;" /><glyph d="M50 0ZM50 496H163L174 405Q196 459 231.5 484.5Q267 510 313 510Q350 510 376.5 496.5Q403 483 420.5 458Q438 433 446 397.5Q454 362 454 319V0H317V286Q317 339 302 360Q287 381 260 381Q228 381 207.5 347.5Q187 314 187 248V0H50ZM271 644 317 703H420V700L324 571H213L120 700V703H228Z" glyph-name="ncaron" horiz-adv-x="499" unicode="&#328;" /><glyph d="M50 0ZM50 496H163L174 405Q196 459 231.5 484.5Q267 510 313 510Q350 510 376.5 496.5Q403 483 420.5 458Q438 433 446 397.5Q454 362 454 319V0H317V286Q317 339 302 360Q287 381 260 381Q228 381 207.5 347.5Q187 314 187 248V0H50ZM326 -147Q326 -216 293 -264Q260 -312 209 -327L179 -275Q206 -263 226 -242.5Q246 -222 251 -195Q219 -196 201 -179Q183 -162 183 -128Q183 -56 254 -56Q288 -56 307 -79Q326 -102 326 -147Z" glyph-name="ncommaaccent" horiz-adv-x="499" unicode="&#326;" /><glyph d="M43 0ZM259 599Q222 599 201.5 569Q181 539 181 480Q181 423 200 393Q219 363 257 363Q294 363 316.5 395.5Q339 428 339 482Q339 536 317.5 567.5Q296 599 259 599ZM255 714Q370 714 431.5 626.5Q493 539 493 351Q493 168 431.5 76.5Q370 -15 239 -15Q164 -15 116.5 17.5Q69 50 44 116L151 172Q165 137 186 119Q207 101 238 101Q266 101 288 113.5Q310 126 325 154.5Q340 183 347.5 230Q355 277 355 346V365Q339 314 303 284.5Q267 255 212 255Q175 255 144 269Q113 283 90.5 310.5Q68 338 55.5 379.5Q43 421 43 476Q43 528 56 572Q69 616 95.5 647.5Q122 679 161.5 696.5Q201 714 255 714Z" glyph-name="nine" horiz-adv-x="535" unicode="9" /><glyph d="M247 599Q210 599 189.5 569Q169 539 169 480Q169 423 188 393Q207 363 245 363Q282 363 304.5 395.5Q327 428 327 482Q327 536 305.5 567.5Q284 599 247 599ZM243 714Q358 714 419.5 626.5Q481 539 481 351Q481 168 419.5 76.5Q358 -15 227 -15Q152 -15 104.5 17.5Q57 50 32 116L139 172Q153 137 174 119Q195 101 226 101Q254 101 276 113.5Q298 126 313 154.5Q328 183 335.5 230Q343 277 343 346V365Q327 314 291 284.5Q255 255 200 255Q163 255 132 269Q101 283 78.5 310.5Q56 338 43.5 379.5Q31 421 31 476Q31 528 44 572Q57 616 83.5 647.5Q110 679 149.5 696.5Q189 714 243 714Z" glyph-name="nine.LP" horiz-adv-x="521" /><glyph d="M240 498Q204 498 183 469Q162 440 162 382Q162 326 181.5 296.5Q201 267 238 267Q276 267 298 298.5Q320 330 320 384Q320 437 299 467.5Q278 498 240 498ZM236 614Q351 614 411.5 526.5Q472 439 472 251Q472 69 411.5 -23Q351 -115 221 -115Q145 -115 97.5 -82.5Q50 -50 26 16L133 72Q147 37 167.5 18.5Q188 0 220 0Q248 0 269.5 12.5Q291 25 306 54.5Q321 84 328.5 131.5Q336 179 336 248V266Q320 217 284 188Q248 159 193 159Q157 159 126 173Q95 187 72.5 214.5Q50 242 37.5 283Q25 324 25 378Q25 430 38 473Q51 516 77 547.5Q103 579 143 596.5Q183 614 236 614Z" glyph-name="nine.OP" horiz-adv-x="503" /><glyph d="M259 498Q223 498 202 469Q181 440 181 382Q181 326 200.5 296.5Q220 267 257 267Q295 267 317 298.5Q339 330 339 384Q339 437 318 467.5Q297 498 259 498ZM255 614Q370 614 430.5 526.5Q491 439 491 251Q491 69 430.5 -23Q370 -115 240 -115Q164 -115 116.5 -82.5Q69 -50 45 16L152 72Q166 37 186.5 18.5Q207 0 239 0Q267 0 288.5 12.5Q310 25 325 54.5Q340 84 347.5 131.5Q355 179 355 248V266Q339 217 303 188Q267 159 212 159Q176 159 145 173Q114 187 91.5 214.5Q69 242 56.5 283Q44 324 44 378Q44 430 57 473Q70 516 96 547.5Q122 579 162 596.5Q202 614 255 614Z" glyph-name="nine.OT" horiz-adv-x="535" /><glyph d="M17 0ZM191 81Q191 108 180 124.5Q169 141 152 141Q113 141 113 82Q113 54 122.5 37.5Q132 21 152 21Q170 21 180.5 37.5Q191 54 191 81ZM147 221Q222 221 261 169.5Q300 118 300 7Q300 -98 262 -153.5Q224 -209 142 -209Q100 -209 66.5 -194.5Q33 -180 17 -145L81 -95Q91 -115 103 -123.5Q115 -132 135 -132Q171 -132 186.5 -102Q202 -72 202 0V9Q192 -20 172.5 -36.5Q153 -53 123 -53Q77 -53 48 -20Q19 13 19 79Q19 110 27 136Q35 162 50.5 181Q66 200 90 210.5Q114 221 147 221Z" glyph-name="nine.inf" horiz-adv-x="322" /><glyph d="M40 338V429H221L260 502H337L297 429H351V338H250L218 281H351V190H171L132 117H55L94 190H40V281H142L172 338Z" glyph-name="notequal" horiz-adv-x="391" unicode="&#8800;" /><glyph d="M50 0ZM50 496H163L174 405Q196 459 231.5 484.5Q267 510 313 510Q350 510 376.5 496.5Q403 483 420.5 458Q438 433 446 397.5Q454 362 454 319V0H317V286Q317 339 302 360Q287 381 260 381Q228 381 207.5 347.5Q187 314 187 248V0H50ZM332 698H410Q412 664 405.5 641Q399 618 387 604Q375 590 360 584Q345 578 330 578Q312 578 297.5 583.5Q283 589 270 595.5Q257 602 245.5 607.5Q234 613 223 613Q210 613 206 602.5Q202 592 202 579H124Q122 613 128.5 636.5Q135 660 146.5 673.5Q158 687 173 693Q188 699 203 699Q221 699 236 693.5Q251 688 264 681.5Q277 675 288.5 669.5Q300 664 311 664Q325 664 328.5 674Q332 684 332 698Z" glyph-name="ntilde" horiz-adv-x="499" unicode="&#241;" /><glyph d="M338 294 366 419H277L248 294ZM275 0 318 192H227L184 0H56L98 192H15L41 294H118L146 419H62L88 520H167L206 700L335 699L297 520H387L426 700H555L516 520H599L574 419H495L467 294H553L527 192H446L404 0Z" glyph-name="numbersign" horiz-adv-x="606" unicode="#" /><glyph d="M30 249Q30 383 85 446.5Q140 510 235 510Q338 510 389 447.5Q440 385 440 249Q440 117 387.5 51.5Q335 -14 235 -14Q132 -14 81 50.5Q30 115 30 249ZM309 248Q309 325 291.5 358Q274 391 234 391Q194 391 177 358Q160 325 160 248Q160 171 178 137.5Q196 104 234 104Q272 104 290.5 137.5Q309 171 309 248Z" glyph-name="o" horiz-adv-x="470" unicode="o" /><glyph d="M30 0ZM30 249Q30 383 85 446.5Q140 510 235 510Q338 510 389 447.5Q440 385 440 249Q440 117 387.5 51.5Q335 -14 235 -14Q132 -14 81 50.5Q30 115 30 249ZM309 248Q309 325 291.5 358Q274 391 234 391Q194 391 177 358Q160 325 160 248Q160 171 178 137.5Q196 104 234 104Q272 104 290.5 137.5Q309 171 309 248ZM378 696 277 571H173V576L236 703H378Z" glyph-name="oacute" horiz-adv-x="470" unicode="&#243;" /><glyph d="M30 0ZM30 249Q30 383 85 446.5Q140 510 235 510Q338 510 389 447.5Q440 385 440 249Q440 117 387.5 51.5Q335 -14 235 -14Q132 -14 81 50.5Q30 115 30 249ZM309 248Q309 325 291.5 358Q274 391 234 391Q194 391 177 358Q160 325 160 248Q160 171 178 137.5Q196 104 234 104Q272 104 290.5 137.5Q309 171 309 248ZM291 702H372Q372 663 362.5 636.5Q353 610 335.5 594Q318 578 292.5 571Q267 564 235 564Q202 564 177 571Q152 578 134.5 594Q117 610 108 636.5Q99 663 99 702H180Q180 666 193 652.5Q206 639 235 639Q264 639 277.5 652.5Q291 666 291 702Z" glyph-name="obreve" horiz-adv-x="470" unicode="&#335;" /><glyph d="M30 0ZM30 249Q30 383 85 446.5Q140 510 235 510Q338 510 389 447.5Q440 385 440 249Q440 117 387.5 51.5Q335 -14 235 -14Q132 -14 81 50.5Q30 115 30 249ZM309 248Q309 325 291.5 358Q274 391 234 391Q194 391 177 358Q160 325 160 248Q160 171 178 137.5Q196 104 234 104Q272 104 290.5 137.5Q309 171 309 248ZM232 630 189 571H86V575L180 703H291L386 575V571H278Z" glyph-name="ocircumflex" horiz-adv-x="470" unicode="&#244;" /><glyph d="M30 0ZM30 249Q30 383 85 446.5Q140 510 235 510Q338 510 389 447.5Q440 385 440 249Q440 117 387.5 51.5Q335 -14 235 -14Q132 -14 81 50.5Q30 115 30 249ZM309 248Q309 325 291.5 358Q274 391 234 391Q194 391 177 358Q160 325 160 248Q160 171 178 137.5Q196 104 234 104Q272 104 290.5 137.5Q309 171 309 248ZM261 646Q261 680 279 698Q297 716 330 716Q401 716 401 646Q401 572 330 572Q297 572 279 591Q261 610 261 646ZM80 646Q80 680 98.5 698Q117 716 150 716Q220 716 220 646Q220 572 150 572Q117 572 98.5 591Q80 610 80 646Z" glyph-name="odieresis" horiz-adv-x="470" unicode="&#246;" /><glyph d="M516 -14Q471 -14 435.5 4Q400 22 375 64Q327 -14 235 -14Q132 -14 80.5 50.5Q29 115 29 249Q29 383 84 446.5Q139 510 235 510Q331 510 377 431Q402 472 438 491Q474 510 519 510Q566 510 600 490.5Q634 471 655.5 437.5Q677 404 686.5 358Q696 312 696 260Q697 230 693 202H444Q449 147 470 124Q491 101 527 101Q582 101 597 159L696 113Q685 85 670 61.5Q655 38 633 21.5Q611 5 582.5 -4.5Q554 -14 516 -14ZM514 396Q484 396 464.5 372.5Q445 349 443 296H576Q576 346 559.5 371Q543 396 514 396ZM309 248Q309 325 291.5 358Q274 391 235 391Q194 391 177 358Q160 325 160 248Q160 170 177.5 135.5Q195 101 235 101Q273 101 291 135.5Q309 170 309 248Z" glyph-name="oe" horiz-adv-x="724" unicode="&#339;" /><glyph d="M250 -227Q228 -227 206.5 -221Q185 -215 168 -200.5Q151 -186 140.5 -161.5Q130 -137 130 -100Q130 -63 143 -34.5Q156 -6 176.5 13Q197 32 223.5 41Q250 50 277 48L278 0Q240 -4 223.5 -29.5Q207 -55 207 -85Q207 -117 223 -129.5Q239 -142 259 -142Q285 -142 305 -125L338 -196Q318 -211 297 -219Q276 -227 250 -227Z" glyph-name="ogonek" horiz-adv-x="459" unicode="&#731;" /><glyph d="M30 0ZM30 249Q30 383 85 446.5Q140 510 235 510Q338 510 389 447.5Q440 385 440 249Q440 117 387.5 51.5Q335 -14 235 -14Q132 -14 81 50.5Q30 115 30 249ZM309 248Q309 325 291.5 358Q274 391 234 391Q194 391 177 358Q160 325 160 248Q160 171 178 137.5Q196 104 234 104Q272 104 290.5 137.5Q309 171 309 248ZM192 572 90 697V704H237L298 577V572Z" glyph-name="ograve" horiz-adv-x="470" unicode="&#242;" /><glyph d="M30 0ZM30 249Q30 383 85 446.5Q140 510 235 510Q338 510 389 447.5Q440 385 440 249Q440 117 387.5 51.5Q335 -14 235 -14Q132 -14 81 50.5Q30 115 30 249ZM309 248Q309 325 291.5 358Q274 391 234 391Q194 391 177 358Q160 325 160 248Q160 171 178 137.5Q196 104 234 104Q272 104 290.5 137.5Q309 171 309 248ZM464 697 361 571H266V576L328 703H464ZM287 703V697L184 571H89V576L151 703Z" glyph-name="ohungarumlaut" horiz-adv-x="470" unicode="&#337;" /><glyph d="M30 0ZM30 249Q30 383 85 446.5Q140 510 235 510Q338 510 389 447.5Q440 385 440 249Q440 117 387.5 51.5Q335 -14 235 -14Q132 -14 81 50.5Q30 115 30 249ZM309 248Q309 325 291.5 358Q274 391 234 391Q194 391 177 358Q160 325 160 248Q160 171 178 137.5Q196 104 234 104Q272 104 290.5 137.5Q309 171 309 248ZM349 675V590H121V675Z" glyph-name="omacron" horiz-adv-x="470" unicode="&#333;" /><glyph d="M488 0H47V124H201V520L141 473L88 590L248 706H342V124H488Z" glyph-name="one" horiz-adv-x="535" unicode="1" /><glyph d="M260 0H119V520L59 473L6 590L166 706H260Z" glyph-name="one.LP" horiz-adv-x="323" /><glyph d="M251 0H113V420L55 373L4 490L160 606H251Z" glyph-name="one.OP" horiz-adv-x="299" /><glyph d="M478 0H57V121H202V420L144 373L93 490L249 606H340V121H478Z" glyph-name="one.OT" horiz-adv-x="535" /><glyph d="M5 0ZM175 -200H76V91L42 66L5 147L108 217H175Z" glyph-name="one.inf" horiz-adv-x="211" /><glyph d="M5 0ZM440 0V68L557 226Q589 270 589 296Q589 335 553 335Q535 335 522 324.5Q509 314 499 288L423 318Q440 373 476.5 397Q513 421 563 421Q620 421 653.5 392Q687 363 687 309Q687 273 670 240.5Q653 208 618 160L562 83L692 87V0ZM175 293H76V584L42 559L5 640L108 710H175ZM502 700 237 0H122L388 700Z" glyph-name="onehalf" horiz-adv-x="718" unicode="&#189;" /><glyph d="M5 0ZM175 293H76V584L42 559L5 640L108 710H175ZM502 700 237 0H122L388 700ZM395 85V157L485 412H581L492 171H570V290H662V171H699V85H662V0H570V85Z" glyph-name="onequarter" horiz-adv-x="712" unicode="&#188;" /><glyph d="M5 294ZM175 294H76V585L42 560L5 641L108 711H175Z" glyph-name="onesuperior" horiz-adv-x="211" unicode="&#185;" /><glyph d="M254 325V208H39V325Z" glyph-name="onethirdemdash" horiz-adv-x="292" /><glyph d="M145 411Q168 411 180.5 434Q193 457 193 497V505H161Q139 505 124.5 490.5Q110 476 110 453Q110 433 119 422Q128 411 145 411ZM200 403Q187 374 165.5 358Q144 342 112 342Q73 342 47 367.5Q21 393 21 443Q21 470 31 492.5Q41 515 58.5 530.5Q76 546 99.5 554.5Q123 563 150 563H193Q192 604 176 617.5Q160 631 137 631Q112 631 94 620Q76 609 63 589L18 648Q64 714 157 714Q185 714 209.5 706.5Q234 699 252 681Q270 663 280.5 634Q291 605 291 562V351H206Z" glyph-name="ordfeminine" horiz-adv-x="321" unicode="&#170;" /><glyph d="M218 527Q218 584 204 608Q190 632 169 632Q144 632 131 607Q118 582 118 527Q118 424 169 424Q191 424 204.5 449Q218 474 218 527ZM232 352 225 406Q211 374 188.5 357.5Q166 341 137 341Q85 341 53.5 387Q22 433 22 524Q22 621 55 667.5Q88 714 141 714Q203 714 228 652L235 703H315V352Z" glyph-name="ordfeminine.school" horiz-adv-x="353" /><glyph d="M22 528Q22 625 61 669.5Q100 714 169 714Q242 714 278.5 669.5Q315 625 315 528Q315 434 278 387.5Q241 341 169 341Q96 341 59 386.5Q22 432 22 528ZM221 528Q221 583 208.5 607Q196 631 169 631Q141 631 129 607Q117 583 117 528Q117 471 129.5 446.5Q142 422 169 422Q195 422 208 446.5Q221 471 221 528Z" glyph-name="ordmasculine" horiz-adv-x="338" unicode="&#186;" /><glyph d="M240 -14Q159 -14 111 25L92 0H14L70 75Q34 139 34 249Q34 383 89.5 446.5Q145 510 240 510Q280 510 312.5 500.5Q345 491 368 470L387 496H465L410 421Q444 359 444 249Q444 117 392 51.5Q340 -14 240 -14ZM240 402Q197 402 179.5 366Q162 330 162 248Q162 232 163 218.5Q164 205 166 194L292 374Q274 402 240 402ZM240 92Q280 92 298 128Q316 164 316 248Q316 262 315 275.5Q314 289 312 300L186 119Q204 92 240 92Z" glyph-name="oslash" horiz-adv-x="477" unicode="&#248;" /><glyph d="M30 0ZM30 249Q30 383 85 446.5Q140 510 235 510Q338 510 389 447.5Q440 385 440 249Q440 117 387.5 51.5Q335 -14 235 -14Q132 -14 81 50.5Q30 115 30 249ZM309 248Q309 325 291.5 358Q274 391 234 391Q194 391 177 358Q160 325 160 248Q160 171 178 137.5Q196 104 234 104Q272 104 290.5 137.5Q309 171 309 248ZM300 698H378Q380 664 373.5 641Q367 618 355 604Q343 590 328 584Q313 578 298 578Q280 578 265.5 583.5Q251 589 238 595.5Q225 602 213.5 607.5Q202 613 191 613Q178 613 174 602.5Q170 592 170 579H92Q90 613 96.5 636.5Q103 660 114.5 673.5Q126 687 141 693Q156 699 171 699Q189 699 204 693.5Q219 688 232 681.5Q245 675 256.5 669.5Q268 664 279 664Q293 664 296.5 674Q300 684 300 698Z" glyph-name="otilde" horiz-adv-x="470" unicode="&#245;" /><glyph d="M185 246Q185 168 205 133Q225 98 256 98Q292 98 310 134Q328 170 328 247Q328 326 310 361Q292 396 258 396Q226 396 205.5 361.5Q185 327 185 246ZM163 496 174 416Q197 464 231 487Q265 510 307 510Q380 510 420 445Q460 380 460 255Q460 193 449.5 143.5Q439 94 417.5 59Q396 24 363.5 5Q331 -14 287 -14Q225 -14 187 44V-187H50V496Z" glyph-name="p" horiz-adv-x="490" unicode="p" /><glyph d="M324 333H366V573H324ZM138 457Q138 399 159.5 366Q181 333 219 333H220V573H219Q177 573 157.5 540Q138 507 138 457ZM324 210V0H220V211Q178 215 142.5 233Q107 251 81.5 282Q56 313 42 356.5Q28 400 28 456Q28 571 82.5 635.5Q137 700 232 700H471V0H366V210Z" glyph-name="paragraph" horiz-adv-x="539" unicode="&#182;" /><glyph d="M270 -14 244 -134Q23 -95 23 297Q23 689 241 728L270 608Q238 599 214.5 579Q191 559 174.5 523Q158 487 150 431.5Q142 376 142 297Q142 217 150 162Q158 107 174.5 71Q191 35 214.5 15Q238 -5 270 -14Z" glyph-name="parenleft" horiz-adv-x="290" unicode="(" /><glyph d="M17 0ZM168 -208 155 -290Q17 -271 17 -33Q17 205 152 224L168 142Q149 138 135 127Q121 116 111.5 96Q102 76 97 44.5Q92 13 92 -33Q92 -79 97 -110.5Q102 -142 111.5 -162Q121 -182 135 -193Q149 -204 168 -208Z" glyph-name="parenleft.inf" horiz-adv-x="180" /><glyph d="M17 -14Q48 -5 72 15Q96 35 112.5 71Q129 107 137 162Q145 217 145 297Q145 376 137 431.5Q129 487 112.5 523Q96 559 72 579Q48 599 17 608L46 728Q264 689 264 297Q264 -95 43 -134Z" glyph-name="parenright" horiz-adv-x="290" unicode=")" /><glyph d="M12 0ZM25 -290 12 -208Q31 -204 45 -193Q59 -182 68.5 -162Q78 -142 83 -110.5Q88 -79 88 -33Q88 13 83 44.5Q78 76 68.5 96Q59 116 45 127Q31 138 12 142L28 224Q163 205 163 -33Q163 -271 25 -290Z" glyph-name="parenright.inf" horiz-adv-x="180" /><glyph d="M22 0ZM506 206Q506 316 541.5 368.5Q577 421 655 421Q733 421 768 368.5Q803 316 803 206Q803 96 768 43.5Q733 -9 655 -9Q577 -9 541.5 44Q506 97 506 206ZM705 206Q705 282 692 310.5Q679 339 655 339Q630 339 617 310Q604 281 604 206Q604 130 617 101Q630 72 656 72Q679 72 692 101Q705 130 705 206ZM22 499Q22 609 57.5 661.5Q93 714 171 714Q249 714 284 661.5Q319 609 319 499Q319 389 284 336.5Q249 284 171 284Q93 284 57.5 337Q22 390 22 499ZM221 499Q221 575 208 603.5Q195 632 171 632Q146 632 133 603Q120 574 120 499Q120 423 133 394Q146 365 172 365Q195 365 208 394Q221 423 221 499ZM602 700 337 0H222L488 700Z" glyph-name="percent" horiz-adv-x="829" unicode="%" /><glyph d="M103 -7Q67 -7 47.5 14Q28 35 28 72Q28 110 47.5 130.5Q67 151 103 151Q140 151 159.5 130.5Q179 110 179 72Q179 35 159.5 14Q140 -7 103 -7Z" glyph-name="period" horiz-adv-x="206" unicode="." /><glyph d="M28 259ZM103 259Q67 259 47.5 280Q28 301 28 338Q28 376 47.5 396.5Q67 417 103 417Q140 417 159.5 396.5Q179 376 179 338Q179 301 159.5 280Q140 259 103 259Z" glyph-name="periodcentered" horiz-adv-x="204" unicode="&#183;" /><glyph d="M22 0ZM506 206Q506 316 541.5 368.5Q577 421 655 421Q733 421 768 368.5Q803 316 803 206Q803 96 768 43.5Q733 -9 655 -9Q577 -9 541.5 44Q506 97 506 206ZM705 206Q705 282 692 310.5Q679 339 655 339Q630 339 617 310Q604 281 604 206Q604 130 617 101Q630 72 656 72Q679 72 692 101Q705 130 705 206ZM22 499Q22 609 57.5 661.5Q93 714 171 714Q249 714 284 661.5Q319 609 319 499Q319 389 284 336.5Q249 284 171 284Q93 284 57.5 337Q22 390 22 499ZM221 499Q221 575 208 603.5Q195 632 171 632Q146 632 133 603Q120 574 120 499Q120 423 133 394Q146 365 172 365Q195 365 208 394Q221 423 221 499ZM844 206Q844 316 879.5 368.5Q915 421 993 421Q1071 421 1106 368.5Q1141 316 1141 206Q1141 96 1106 43.5Q1071 -9 993 -9Q915 -9 879.5 44Q844 97 844 206ZM1043 206Q1043 282 1030 310.5Q1017 339 993 339Q968 339 955 310Q942 281 942 206Q942 130 955 101Q968 72 994 72Q1017 72 1030 101Q1043 130 1043 206ZM602 700 337 0H222L488 700Z" glyph-name="perthousand" horiz-adv-x="1167" unicode="&#8240;" /><glyph d="M241 124H150V266H40V355H150V498H241V355H351V266H241Z" glyph-name="plus" horiz-adv-x="391" unicode="+" /><glyph d="M21 0ZM158 -142H86V-53H21V15H86V105H158V15H222V-53H158Z" glyph-name="plus.inf" horiz-adv-x="244" /><glyph d="M241 155H150V284H40V372H150V503H241V372H351V284H241ZM351 88V0H40V88Z" glyph-name="plusminus" horiz-adv-x="391" unicode="&#177;" /><glyph glyph-name="punctuationspace" horiz-adv-x="201" unicode="&#8200;" /><glyph d="M199 510Q237 510 269.5 490Q302 470 321 430L330 496H441V-186H303V55Q283 20 253.5 3Q224 -14 190 -14Q117 -14 73.5 50Q30 114 30 243Q30 379 76 444.5Q122 510 199 510ZM305 247Q305 328 285 363Q265 398 234 398Q199 398 180.5 363Q162 328 162 247Q162 171 179.5 135Q197 99 231 99Q264 99 284.5 135Q305 171 305 247Z" glyph-name="q" horiz-adv-x="489" unicode="q" /><glyph d="M149 214 142 388H182Q225 388 251 416Q277 444 277 501Q277 552 254.5 578Q232 604 190 604Q114 604 92 515L-7 558Q3 603 22.5 634Q42 665 69.5 683.5Q97 702 130.5 710.5Q164 719 202 719Q301 719 350.5 664Q400 609 400 508Q400 462 389 426.5Q378 391 358.5 365Q339 339 313 322.5Q287 306 257 299L249 214ZM195 -7Q160 -7 140.5 14Q121 35 121 72Q121 110 140.5 130.5Q160 151 195 151Q233 151 252.5 130.5Q272 110 272 72Q272 35 252.5 14Q233 -7 195 -7Z" glyph-name="question" horiz-adv-x="414" unicode="?" /><glyph d="M248 292 255 118H215Q172 118 146 90Q120 62 120 5Q120 -46 142.5 -72Q165 -98 207 -98Q283 -98 305 -9L404 -52Q394 -97 374.5 -128Q355 -159 327.5 -177.5Q300 -196 266 -204.5Q232 -213 195 -213Q96 -213 46.5 -158Q-3 -103 -3 -2Q-3 44 8 79.5Q19 115 38.5 141Q58 167 84 183Q110 199 140 207L148 292ZM202 513Q237 513 256.5 492Q276 471 276 434Q276 396 256.5 375.5Q237 355 202 355Q164 355 144.5 375.5Q125 396 125 434Q125 471 144.5 492Q164 513 202 513Z" glyph-name="questiondown" horiz-adv-x="406" unicode="&#191;" /><glyph d="M250 490 257 316H217Q174 316 148 288Q122 260 122 203Q122 152 144.5 126Q167 100 209 100Q285 100 307 189L406 146Q396 101 376.5 70Q357 39 329.5 20.5Q302 2 268 -6.5Q234 -15 197 -15Q98 -15 48.5 40Q-1 95 -1 196Q-1 242 10 277.5Q21 313 40.5 339Q60 365 86 381Q112 397 142 405L150 490ZM204 711Q239 711 258.5 690Q278 669 278 632Q278 594 258.5 573.5Q239 553 204 553Q166 553 146.5 573.5Q127 594 127 632Q127 669 146.5 690Q166 711 204 711Z" glyph-name="questiondown.cap" horiz-adv-x="413" /><glyph d="M192 450 184 714H296L279 450ZM141 450H53L36 714H148Z" glyph-name="quotedbl" horiz-adv-x="332" unicode="&quot;" /><glyph d="M52 -139 22 -84Q48 -73 66.5 -53Q85 -33 90 -5Q61 -3 44 15.5Q27 34 27 69Q27 105 46 124.5Q65 144 99 144Q170 144 170 54Q170 -15 139.5 -67Q109 -119 52 -139ZM223 -139 193 -84Q219 -73 237.5 -53Q256 -33 261 -5Q232 -3 215 15.5Q198 34 198 69Q198 105 217 124.5Q236 144 270 144Q341 144 341 54Q341 -15 310.5 -67Q280 -119 223 -139Z" glyph-name="quotedblbase" horiz-adv-x="365" unicode="&#8222;" /><glyph d="M140 747 170 691Q144 680 125 659.5Q106 639 101 611Q130 609 147 590Q164 571 164 536Q164 499 145.5 479.5Q127 460 92 460Q57 460 38.5 483Q20 506 20 551Q20 622 51 674.5Q82 727 140 747ZM312 747 342 691Q316 680 297 659.5Q278 639 273 611Q302 609 319 590Q336 571 336 536Q336 499 317.5 479.5Q299 460 264 460Q229 460 210.5 483Q192 506 192 551Q192 622 223 674.5Q254 727 312 747Z" glyph-name="quotedblleft" horiz-adv-x="366" unicode="&#8220;" /><glyph d="M51 453 21 509Q47 521 65.5 541Q84 561 90 589Q61 591 44 609.5Q27 628 27 663Q27 701 45.5 720.5Q64 740 99 740Q170 740 170 649Q170 578 139.5 525.5Q109 473 51 453ZM224 453 194 509Q220 521 238.5 541Q257 561 263 589Q234 591 217 609.5Q200 628 200 663Q200 701 218.5 720.5Q237 740 272 740Q343 740 343 649Q343 578 312.5 525.5Q282 473 224 453Z" glyph-name="quotedblright" horiz-adv-x="366" unicode="&#8221;" /><glyph d="M140 747 170 691Q144 680 125 659.5Q106 639 101 611Q130 609 147 590Q164 571 164 536Q164 499 145.5 479.5Q127 460 92 460Q57 460 38.5 483Q20 506 20 551Q20 622 51 674.5Q82 727 140 747Z" glyph-name="quoteleft" horiz-adv-x="195" unicode="&#8216;" /><glyph d="M52 453 22 509Q48 521 66.5 541Q85 561 91 589Q62 591 45 609.5Q28 628 28 663Q28 701 46.5 720.5Q65 740 100 740Q171 740 171 649Q171 578 140.5 525.5Q110 473 52 453Z" glyph-name="quoteright" horiz-adv-x="195" unicode="&#8217;" /><glyph d="M52 -138 22 -83Q48 -72 66.5 -52Q85 -32 90 -4Q61 -2 44 16.5Q27 35 27 70Q27 106 46 125.5Q65 145 99 145Q170 145 170 55Q170 -14 139.5 -66Q109 -118 52 -138Z" glyph-name="quotesinglbase" horiz-adv-x="196" unicode="&#8218;" /><glyph d="M49 450 36 714H148L135 450Z" glyph-name="quotesingle" horiz-adv-x="184" unicode="'" /><glyph d="M50 0V496H162L174 397Q194 454 229 483.5Q264 513 310 511L311 368Q248 374 217.5 329Q187 284 187 202V0Z" glyph-name="r" horiz-adv-x="325" unicode="r" /><glyph d="M50 0ZM50 0V496H162L174 397Q194 454 229 483.5Q264 513 310 511L311 368Q248 374 217.5 329Q187 284 187 202V0ZM344 696 243 571H139V576L202 703H344Z" glyph-name="racute" horiz-adv-x="325" unicode="&#341;" /><glyph d="M50 0ZM50 0V496H162L174 397Q194 454 229 483.5Q264 513 310 511L311 368Q248 374 217.5 329Q187 284 187 202V0ZM204 644 250 703H353V700L257 571H146L53 700V703H161Z" glyph-name="rcaron" horiz-adv-x="325" unicode="&#345;" /><glyph d="M45 0ZM50 0V496H162L174 397Q194 454 229 483.5Q264 513 310 511L311 368Q248 374 217.5 329Q187 284 187 202V0ZM192 -147Q192 -216 159 -264Q126 -312 75 -327L45 -275Q72 -263 92 -242.5Q112 -222 117 -195Q85 -196 67 -179Q49 -162 49 -128Q49 -56 120 -56Q154 -56 173 -79Q192 -102 192 -147Z" glyph-name="rcommaaccent" horiz-adv-x="325" unicode="&#343;" /><glyph d="M181 333Q109 333 67.5 384.5Q26 436 26 524Q26 611 67.5 663Q109 715 181 715Q217 715 245.5 701.5Q274 688 294.5 663Q315 638 325.5 602.5Q336 567 336 524Q336 437 294.5 385Q253 333 181 333ZM181 361Q232 361 268.5 401.5Q305 442 305 524Q305 564 295 594.5Q285 625 268.5 645.5Q252 666 229 676.5Q206 687 181 687Q129 687 93 646Q57 605 57 524Q57 442 93 401.5Q129 361 181 361ZM180 581H161V529H180Q204 529 204 555Q204 581 180 581ZM118 432V622H188Q216 622 231.5 604Q247 586 247 554Q247 516 222 499L249 432H201L183 488H161V432Z" glyph-name="registered" horiz-adv-x="362" unicode="&#174;" /><glyph d="M139 453Q81 473 50.5 525.5Q20 578 20 649Q20 740 92 740Q126 740 145 720.5Q164 701 164 664Q164 629 146.5 610Q129 591 100 589Q106 561 124.5 540.5Q143 520 169 509ZM311 453Q253 473 222.5 525.5Q192 578 192 649Q192 740 264 740Q298 740 317 720.5Q336 701 336 664Q336 629 318.5 610Q301 591 272 589Q278 561 296.5 540.5Q315 520 341 509Z" glyph-name="reversequotedblleft" horiz-adv-x="365" /><glyph d="M140 453Q82 473 51.5 525.5Q21 578 21 649Q21 740 93 740Q127 740 146 720.5Q165 701 165 664Q165 629 147.5 610Q130 591 101 589Q107 561 125.5 540.5Q144 520 170 509Z" glyph-name="reversequoteleft" horiz-adv-x="194" /><glyph d="M133 653Q133 701 160.5 727Q188 753 231 753Q273 753 300 727Q327 701 327 653Q327 603 300 577Q273 551 231 551Q188 551 160.5 577Q133 603 133 653ZM192 653Q192 631 203 618.5Q214 606 231 606Q247 606 258.5 618.5Q270 631 270 653Q270 674 258.5 686Q247 698 231 698Q214 698 203 686Q192 674 192 653Z" glyph-name="ring" horiz-adv-x="459" unicode="&#730;" /><glyph d="M189 89Q215 89 229 99.5Q243 110 243 128Q243 147 229 158.5Q215 170 186 181L158 192Q96 216 60.5 255Q25 294 25 359Q25 425 70 468Q115 511 197 511Q266 511 308 480Q350 449 370 391L272 343Q264 372 243.5 387Q223 402 197 402Q176 402 161 393Q146 384 146 363Q146 348 157.5 336.5Q169 325 200 313L237 299Q301 275 335 237.5Q369 200 369 139Q369 108 358 80.5Q347 53 325 32Q303 11 269.5 -1Q236 -13 191 -13Q111 -13 66.5 18.5Q22 50 5 106L101 154Q121 89 189 89Z" glyph-name="s" horiz-adv-x="389" unicode="s" /><glyph d="M5 0ZM189 89Q215 89 229 99.5Q243 110 243 128Q243 147 229 158.5Q215 170 186 181L158 192Q96 216 60.5 255Q25 294 25 359Q25 425 70 468Q115 511 197 511Q266 511 308 480Q350 449 370 391L272 343Q264 372 243.5 387Q223 402 197 402Q176 402 161 393Q146 384 146 363Q146 348 157.5 336.5Q169 325 200 313L237 299Q301 275 335 237.5Q369 200 369 139Q369 108 358 80.5Q347 53 325 32Q303 11 269.5 -1Q236 -13 191 -13Q111 -13 66.5 18.5Q22 50 5 106L101 154Q121 89 189 89ZM332 696 231 571H127V576L190 703H332Z" glyph-name="sacute" horiz-adv-x="389" unicode="&#347;" /><glyph d="M5 0ZM189 89Q215 89 229 99.5Q243 110 243 128Q243 147 229 158.5Q215 170 186 181L158 192Q96 216 60.5 255Q25 294 25 359Q25 425 70 468Q115 511 197 511Q266 511 308 480Q350 449 370 391L272 343Q264 372 243.5 387Q223 402 197 402Q176 402 161 393Q146 384 146 363Q146 348 157.5 336.5Q169 325 200 313L237 299Q301 275 335 237.5Q369 200 369 139Q369 108 358 80.5Q347 53 325 32Q303 11 269.5 -1Q236 -13 191 -13Q111 -13 66.5 18.5Q22 50 5 106L101 154Q121 89 189 89ZM192 644 238 703H341V700L245 571H134L41 700V703H149Z" glyph-name="scaron" horiz-adv-x="389" unicode="&#353;" /><glyph d="M181 -249Q143 -249 108.5 -232Q74 -215 57 -173L117 -134Q137 -176 175 -176Q192 -176 203.5 -166.5Q215 -157 215 -139Q215 -122 204.5 -112Q194 -102 176 -102Q169 -102 159 -104L139 -90L158 -11Q94 -5 57.5 25.5Q21 56 5 106L101 154Q121 89 189 89Q215 89 228.5 99.5Q242 110 242 128Q242 147 228.5 158.5Q215 170 186 181L158 192Q96 216 60.5 255Q25 294 25 359Q25 425 70 468Q115 511 197 511Q266 511 308 480Q350 449 370 391L272 343Q264 372 243.5 387Q223 402 197 402Q177 402 162 393Q147 384 147 364Q147 349 158.5 337.5Q170 326 201 314L238 300Q301 276 335 238.5Q369 201 369 139Q369 111 360.5 85.5Q352 60 334 40Q316 20 288.5 6.5Q261 -7 224 -11L213 -51H214Q246 -53 270.5 -75.5Q295 -98 295 -141Q295 -169 286 -189Q277 -209 261.5 -222.5Q246 -236 225 -242.5Q204 -249 181 -249Z" glyph-name="scedilla" horiz-adv-x="389" unicode="&#351;" /><glyph d="M5 0ZM189 89Q215 89 229 99.5Q243 110 243 128Q243 147 229 158.5Q215 170 186 181L158 192Q96 216 60.5 255Q25 294 25 359Q25 425 70 468Q115 511 197 511Q266 511 308 480Q350 449 370 391L272 343Q264 372 243.5 387Q223 402 197 402Q176 402 161 393Q146 384 146 363Q146 348 157.5 336.5Q169 325 200 313L237 299Q301 275 335 237.5Q369 200 369 139Q369 108 358 80.5Q347 53 325 32Q303 11 269.5 -1Q236 -13 191 -13Q111 -13 66.5 18.5Q22 50 5 106L101 154Q121 89 189 89ZM186 630 143 571H40V575L134 703H245L340 575V571H232Z" glyph-name="scircumflex" horiz-adv-x="389" unicode="&#349;" /><glyph d="M5 0ZM189 89Q215 89 229 99.5Q243 110 243 128Q243 147 229 158.5Q215 170 186 181L158 192Q96 216 60.5 255Q25 294 25 359Q25 425 70 468Q115 511 197 511Q266 511 308 480Q350 449 370 391L272 343Q264 372 243.5 387Q223 402 197 402Q176 402 161 393Q146 384 146 363Q146 348 157.5 336.5Q169 325 200 313L237 299Q301 275 335 237.5Q369 200 369 139Q369 108 358 80.5Q347 53 325 32Q303 11 269.5 -1Q236 -13 191 -13Q111 -13 66.5 18.5Q22 50 5 106L101 154Q121 89 189 89ZM261 -147Q261 -216 228 -264Q195 -312 144 -327L114 -275Q141 -263 161 -242.5Q181 -222 186 -195Q154 -196 136 -179Q118 -162 118 -128Q118 -56 189 -56Q223 -56 242 -79Q261 -102 261 -147Z" glyph-name="scommaaccent" horiz-adv-x="389" unicode="&#537;" /><glyph d="M137 348Q137 325 147.5 310.5Q158 296 182 286L196 280Q208 275 219 276.5Q230 278 239 285Q248 292 253 304Q258 316 258 331Q258 355 248.5 369Q239 383 215 393L200 399Q175 409 156 394.5Q137 380 137 348ZM191 -31Q117 -31 76 0.5Q35 32 15 83L103 129Q127 61 185 61Q215 61 228.5 74Q242 87 242 110Q242 134 230 147.5Q218 161 188 170L160 180Q105 198 70 235Q35 272 35 335Q35 371 50 401Q65 431 91 449Q69 471 57 499Q45 527 45 562Q45 593 55 621Q65 649 85 669Q105 689 134 701Q163 713 201 713Q264 713 305 687Q346 661 369 604L277 557Q269 585 250 600.5Q231 616 204 616Q179 616 165 603.5Q151 591 151 568Q151 548 162 533Q173 518 206 507L245 494Q308 474 336 439Q364 404 364 347Q364 313 349 282Q334 251 303 232Q331 211 343 183.5Q355 156 355 119Q355 90 346 63Q337 36 317 15Q297 -6 266 -18.5Q235 -31 191 -31Z" glyph-name="section" horiz-adv-x="397" unicode="&#167;" /><glyph d="M22 0ZM54 -146 22 -88Q50 -76 69.5 -55Q89 -34 95 -5Q64 -3 46 16.5Q28 36 28 72Q28 110 48 130.5Q68 151 104 151Q180 151 180 57Q180 -16 147.5 -70.5Q115 -125 54 -146ZM104 337Q68 337 48.5 358Q29 379 29 416Q29 454 48.5 474.5Q68 495 104 495Q141 495 160.5 474.5Q180 454 180 416Q180 379 160.5 358Q141 337 104 337Z" glyph-name="semicolon" horiz-adv-x="207" unicode=";" /><glyph d="M65 0ZM155 0Q155 96 168.5 182Q182 268 205 341Q228 414 260 473Q292 532 330 574L65 571V700H471V592Q390 489 347.5 341Q305 193 310 0Z" glyph-name="seven" horiz-adv-x="535" unicode="7" /><glyph d="M106 0Q106 96 119.5 182Q133 268 156 341Q179 414 211 473Q243 532 281 574L16 571V700H422V592Q341 489 298.5 341Q256 193 261 0Z" glyph-name="seven.LP" horiz-adv-x="431" /><glyph d="M106 -100Q106 -4 119 81.5Q132 167 155.5 240Q179 313 211 372.5Q243 432 281 474L16 471V600H421V492Q340 390 298 242Q256 94 261 -100Z" glyph-name="seven.OP" horiz-adv-x="430" /><glyph d="M155 -100Q155 -4 168 81.5Q181 167 204.5 240Q228 313 260 372.5Q292 432 330 474L65 471V600H470V492Q389 390 347 242Q305 94 310 -100Z" glyph-name="seven.OT" horiz-adv-x="535" /><glyph d="M12 0ZM176 -200H65Q65 -85 96 -3Q127 79 171 126L12 123V212H267V141Q243 108 226 74.5Q209 41 198 1Q187 -39 181.5 -88Q176 -137 176 -200Z" glyph-name="seven.inf" horiz-adv-x="273" /><glyph d="M43 0ZM281 -15Q165 -15 104 72.5Q43 160 43 348Q43 531 104 622.5Q165 714 296 714Q372 714 419.5 681.5Q467 649 492 583L384 527Q370 562 349.5 580.5Q329 599 297 599Q269 599 247.5 586.5Q226 574 211 544.5Q196 515 188.5 467.5Q181 420 181 351V332Q197 382 233 411Q269 440 324 440Q360 440 391 426Q422 412 444.5 384.5Q467 357 479.5 316Q492 275 492 221Q492 169 479 126Q466 83 439.5 51.5Q413 20 373.5 2.5Q334 -15 281 -15ZM277 101Q313 101 334 130Q355 159 355 217Q355 273 336 302.5Q317 332 279 332Q241 332 219 300.5Q197 269 197 215Q197 162 218 131.5Q239 101 277 101Z" glyph-name="six" horiz-adv-x="535" unicode="6" /><glyph d="M279 -15Q163 -15 102 72.5Q41 160 41 348Q41 531 102 622.5Q163 714 294 714Q370 714 417.5 681.5Q465 649 490 583L382 527Q368 562 347.5 580.5Q327 599 295 599Q267 599 245.5 586.5Q224 574 209 544.5Q194 515 186.5 467.5Q179 420 179 351V332Q195 382 231 411Q267 440 322 440Q358 440 389 426Q420 412 442.5 384.5Q465 357 477.5 316Q490 275 490 221Q490 169 477 126Q464 83 437.5 51.5Q411 20 371.5 2.5Q332 -15 279 -15ZM275 101Q311 101 332 130Q353 159 353 217Q353 273 334 302.5Q315 332 277 332Q239 332 217 300.5Q195 269 195 215Q195 162 216 131.5Q237 101 275 101Z" glyph-name="six.LP" horiz-adv-x="525" /><glyph d="M266 -15Q151 -15 90.5 72.5Q30 160 30 348Q30 530 91 622Q152 714 282 714Q358 714 405 681.5Q452 649 477 583L370 527Q355 562 334.5 580.5Q314 599 283 599Q255 599 233 586.5Q211 574 196 544.5Q181 515 173.5 467.5Q166 420 166 351V333Q182 382 218.5 411Q255 440 309 440Q346 440 376.5 426Q407 412 429.5 384.5Q452 357 464.5 316Q477 275 477 221Q477 169 464 126Q451 83 425 51.5Q399 20 359.5 2.5Q320 -15 266 -15ZM262 101Q299 101 319.5 130Q340 159 340 217Q340 273 321 302.5Q302 332 264 332Q227 332 204.5 300.5Q182 269 182 215Q182 162 203.5 131.5Q225 101 262 101Z" glyph-name="six.OP" horiz-adv-x="503" /><glyph d="M280 -15Q165 -15 104.5 72.5Q44 160 44 348Q44 530 105 622Q166 714 296 714Q372 714 419 681.5Q466 649 491 583L384 527Q369 562 348.5 580.5Q328 599 297 599Q269 599 247 586.5Q225 574 210 544.5Q195 515 187.5 467.5Q180 420 180 351V333Q196 382 232.5 411Q269 440 323 440Q360 440 390.5 426Q421 412 443.5 384.5Q466 357 478.5 316Q491 275 491 221Q491 169 478 126Q465 83 439 51.5Q413 20 373.5 2.5Q334 -15 280 -15ZM276 101Q313 101 333.5 130Q354 159 354 217Q354 273 335 302.5Q316 332 278 332Q241 332 218.5 300.5Q196 269 196 215Q196 162 217.5 131.5Q239 101 276 101Z" glyph-name="six.OT" horiz-adv-x="535" /><glyph d="M22 0ZM176 -209Q101 -209 61.5 -157.5Q22 -106 22 4Q22 110 59 165.5Q96 221 177 221Q272 221 302 142L231 104Q223 123 213.5 132.5Q204 142 184 142Q151 142 135.5 112Q120 82 120 8V-1Q129 26 149 42.5Q169 59 200 59Q245 59 274.5 26.5Q304 -6 304 -70Q304 -131 273 -170Q242 -209 176 -209ZM129 -72Q129 -100 139.5 -115.5Q150 -131 170 -131Q208 -131 208 -72Q208 -44 198.5 -28.5Q189 -13 170 -13Q151 -13 140 -29.5Q129 -46 129 -72Z" glyph-name="six.inf" horiz-adv-x="324" /><glyph glyph-name="sixperemspace" horiz-adv-x="127" unicode="&#8198;" /><glyph d="M436 700 152 0H3L288 700Z" glyph-name="slash" horiz-adv-x="439" unicode="/" /><glyph glyph-name="space" horiz-adv-x="178" unicode=" " /><glyph d="M480 87Q452 39 410 19.5Q368 0 308 0H24V117H47Q67 117 74 142.5Q81 168 79 211L78 289H24V387H75L72 486Q70 552 87 596Q104 640 132 666.5Q160 693 196.5 703.5Q233 714 271 714Q350 714 397 678Q444 642 469 567L363 514Q349 552 329 571.5Q309 591 278 591Q203 591 208 474L210 387H324V289H214L216 215Q216 186 213 160Q210 134 201 117H310Q337 117 361.5 130.5Q386 144 404 174Z" glyph-name="sterling" horiz-adv-x="480" unicode="&#163;" /><glyph d="M315 15Q298 2 272 -6Q246 -14 216 -14Q150 -14 108.5 23Q67 60 67 141V385H11V496H67V638H203V496H301V385H203V161Q203 127 216 113Q229 99 249 99Q260 99 271.5 102Q283 105 292 113Z" glyph-name="t" horiz-adv-x="327" unicode="t" /><glyph d="M318 16Q304 2 276 -6Q248 -14 219 -14Q188 -14 160.5 -6Q133 2 112 21.5Q91 41 79 73Q67 105 67 153V238H13V318H67V385H13V496H67V638H202V496H301V385H202V318H301V238H202V166Q202 129 216 114Q230 99 250 99Q275 99 295 114Z" glyph-name="tbar" horiz-adv-x="324" unicode="&#359;" /><glyph d="M318 553H238L243 750H342ZM315 15Q298 2 272 -6Q246 -14 216 -14Q150 -14 108.5 23Q67 60 67 141V385H11V496H67V638H203V496H301V385H203V161Q203 127 216 113Q229 99 249 99Q260 99 271.5 102Q283 105 292 113Z" glyph-name="tcaron" horiz-adv-x="337" unicode="&#357;" /><glyph d="M11 0ZM315 15Q298 2 272 -6Q246 -14 216 -14Q150 -14 108.5 23Q67 60 67 141V385H11V496H67V638H203V496H301V385H203V161Q203 127 216 113Q229 99 249 99Q260 99 271.5 102Q283 105 292 113ZM269 -147Q269 -216 236 -264Q203 -312 152 -327L122 -275Q149 -263 169 -242.5Q189 -222 194 -195Q162 -196 144 -179Q126 -162 126 -128Q126 -56 197 -56Q231 -56 250 -79Q269 -102 269 -147Z" glyph-name="tcommaaccent" horiz-adv-x="324" unicode="&#355;" /><glyph glyph-name="thinspace" horiz-adv-x="152" unicode="&#8201;" /><glyph d="M185 246Q185 168 205 133Q225 98 256 98Q292 98 310 134Q328 170 328 247Q328 326 310 361Q292 396 258 396Q226 396 205.5 361.5Q185 327 185 246ZM50 -187V700H187V434Q206 471 238.5 490.5Q271 510 307 510Q380 510 420 445Q460 380 460 255Q460 193 449.5 143.5Q439 94 417.5 59Q396 24 363.5 5Q331 -14 287 -14Q256 -14 231 0.5Q206 15 187 41V-187Z" glyph-name="thorn" horiz-adv-x="490" unicode="&#254;" /><glyph d="M46 0ZM257 103Q295 103 318.5 128.5Q342 154 342 203Q342 250 318 273.5Q294 297 253 297H203V415H252Q284 415 307.5 439Q331 463 331 506Q331 547 309 570Q287 593 250 593Q213 593 192 570.5Q171 548 159 510L51 553Q75 639 130.5 676.5Q186 714 267 714Q368 714 419 663.5Q470 613 470 531Q470 475 448 434Q426 393 384 362Q429 342 454 299.5Q479 257 479 194Q479 148 465 109.5Q451 71 423.5 43.5Q396 16 355.5 0.5Q315 -15 263 -15Q187 -15 129.5 20.5Q72 56 46 137L153 191Q170 141 196 122Q222 103 257 103Z" glyph-name="three" horiz-adv-x="535" unicode="3" /><glyph d="M224 103Q262 103 285.5 128.5Q309 154 309 203Q309 250 285 273.5Q261 297 220 297H170V415H219Q251 415 274.5 439Q298 463 298 506Q298 547 276 570Q254 593 217 593Q180 593 159 570.5Q138 548 126 510L18 553Q42 639 97.5 676.5Q153 714 234 714Q335 714 386 663.5Q437 613 437 531Q437 475 415 434Q393 393 351 362Q396 342 421 299.5Q446 257 446 194Q446 148 432 109.5Q418 71 390.5 43.5Q363 16 322.5 0.5Q282 -15 230 -15Q154 -15 96.5 20.5Q39 56 13 137L120 191Q137 141 163 122Q189 103 224 103Z" glyph-name="three.LP" horiz-adv-x="482" /><glyph d="M214 1Q252 1 275.5 27Q299 53 299 103Q299 150 275 173.5Q251 197 210 197H160V315H209Q241 315 264.5 339Q288 363 288 406Q288 448 266 471.5Q244 495 207 495Q170 495 149 472.5Q128 450 116 410L9 453Q33 539 88 576.5Q143 614 224 614Q325 614 376 563.5Q427 513 427 431Q427 375 405 334Q383 293 341 262Q386 242 411 199.5Q436 157 436 94Q436 48 422 9.5Q408 -29 380.5 -56.5Q353 -84 312.5 -99.5Q272 -115 220 -115Q144 -115 87 -79.5Q30 -44 4 37L110 91Q127 40 153 20.5Q179 1 214 1Z" glyph-name="three.OP" horiz-adv-x="467" /><glyph d="M252 1Q290 1 313.5 27Q337 53 337 103Q337 150 313 173.5Q289 197 248 197H198V315H247Q279 315 302.5 339Q326 363 326 406Q326 448 304 471.5Q282 495 245 495Q208 495 187 472.5Q166 450 154 410L47 453Q71 539 126 576.5Q181 614 262 614Q363 614 414 563.5Q465 513 465 431Q465 375 443 334Q421 293 379 262Q424 242 449 199.5Q474 157 474 94Q474 48 460 9.5Q446 -29 418.5 -56.5Q391 -84 350.5 -99.5Q310 -115 258 -115Q182 -115 125 -79.5Q68 -44 42 37L148 91Q165 40 191 20.5Q217 1 252 1Z" glyph-name="three.OT" horiz-adv-x="535" /><glyph d="M7 0ZM144 -209Q96 -209 60.5 -188Q25 -167 7 -117L79 -80Q90 -109 104.5 -119Q119 -129 138 -129Q181 -129 181 -80Q181 -56 168 -43Q155 -30 133 -30H104V45H133Q151 45 163 57.5Q175 70 175 92Q175 114 164 125.5Q153 137 133 137Q96 137 84 94L11 124Q25 175 59.5 198Q94 221 146 221Q209 221 241.5 190Q274 159 274 111Q274 78 260.5 54.5Q247 31 221 11Q247 -2 262.5 -26.5Q278 -51 278 -86Q278 -142 242.5 -175.5Q207 -209 144 -209Z" glyph-name="three.inf" horiz-adv-x="297" /><glyph glyph-name="threeperemspace" horiz-adv-x="253" unicode="&#8196;" /><glyph d="M492 325V208H39V325Z" glyph-name="threequarteremdash" horiz-adv-x="530" /><glyph d="M7 0ZM144 284Q96 284 60.5 305Q25 326 7 376L79 413Q90 384 104.5 374Q119 364 138 364Q181 364 181 413Q181 437 168 450Q155 463 133 463H104V538H133Q151 538 163 550.5Q175 563 175 585Q175 607 164 618.5Q153 630 133 630Q96 630 84 587L11 617Q25 668 59.5 691Q94 714 146 714Q209 714 241.5 683Q274 652 274 604Q274 571 260.5 547.5Q247 524 221 504Q247 491 262.5 466.5Q278 442 278 407Q278 351 242.5 317.5Q207 284 144 284ZM572 700 307 0H192L458 700ZM458 85V157L548 412H644L555 171H633V290H725V171H762V85H725V0H633V85Z" glyph-name="threequarters" horiz-adv-x="775" unicode="&#190;" /><glyph d="M7 285ZM144 285Q96 285 60.5 306Q25 327 7 377L79 414Q90 385 104.5 375Q119 365 138 365Q181 365 181 414Q181 438 168 451Q155 464 133 464H104V539H133Q151 539 163 551.5Q175 564 175 586Q175 608 164 619.5Q153 631 133 631Q96 631 84 588L11 618Q25 669 59.5 692Q94 715 146 715Q209 715 241.5 684Q274 653 274 605Q274 572 260.5 548.5Q247 525 221 505Q247 492 262.5 467.5Q278 443 278 408Q278 352 242.5 318.5Q207 285 144 285Z" glyph-name="threesuperior" horiz-adv-x="297" unicode="&#179;" /><glyph d="M299 698H377Q379 664 372.5 641Q366 618 354 604Q342 590 327 584Q312 578 297 578Q279 578 264.5 583.5Q250 589 237 595.5Q224 602 212.5 607.5Q201 613 190 613Q177 613 173 602.5Q169 592 169 579H91Q89 613 95.5 636.5Q102 660 113.5 673.5Q125 687 140 693Q155 699 170 699Q188 699 203 693.5Q218 688 231 681.5Q244 675 255.5 669.5Q267 664 278 664Q292 664 295.5 674Q299 684 299 698Z" glyph-name="tilde" horiz-adv-x="459" unicode="&#732;" /><glyph d="M12 700H229V628H159V406H85V628H12ZM253 406V700H337L399 496L465 700H543V406H475L477 561L429 406H367L320 560L321 406Z" glyph-name="trademark" horiz-adv-x="570" unicode="&#8482;" /><glyph d="M51 0ZM77 0V103L273 376Q304 420 318 453Q332 486 332 513Q332 551 313 570Q294 589 262 589Q227 589 202 569Q177 549 160 500L51 545Q80 637 138.5 675.5Q197 714 275 714Q366 714 418.5 666.5Q471 619 471 531Q471 502 464.5 475Q458 448 445 419Q432 390 411.5 357.5Q391 325 363 286L244 121L484 127V0Z" glyph-name="two" horiz-adv-x="535" unicode="2" /><glyph d="M30 0V103L226 376Q257 420 271 453Q285 486 285 513Q285 551 266 570Q247 589 215 589Q180 589 155 569Q130 549 113 500L4 545Q33 637 91.5 675.5Q150 714 228 714Q319 714 371.5 666.5Q424 619 424 531Q424 502 417.5 475Q411 448 398 419Q385 390 364.5 357.5Q344 325 316 286L197 121L437 127V0Z" glyph-name="two.LP" horiz-adv-x="461" /><glyph d="M26 0V89L189 294Q230 345 248.5 377Q267 409 267 435Q267 465 250.5 479.5Q234 494 208 494Q152 494 128 420L23 466Q52 547 104 580.5Q156 614 225 614Q306 614 355.5 573.5Q405 533 405 455Q405 431 399 407Q393 383 379.5 356.5Q366 330 345 300Q324 270 294 234L194 109L415 115V0Z" glyph-name="two.OP" horiz-adv-x="441" /><glyph d="M70 0V89L238 294Q280 346 300.5 377.5Q321 409 321 435Q321 465 303.5 479.5Q286 494 257 494Q196 494 172 420L67 466Q96 547 149.5 580.5Q203 614 274 614Q358 614 408.5 573.5Q459 533 459 455Q459 431 452.5 407Q446 383 431.5 357Q417 331 395 301Q373 271 343 234L243 109L469 115V0Z" glyph-name="two.OT" horiz-adv-x="535" /><glyph d="M3 0ZM20 -200V-132L137 26Q169 70 169 96Q169 135 133 135Q115 135 102 124.5Q89 114 79 88L3 118Q20 173 56.5 197Q93 221 143 221Q200 221 233.5 192Q267 163 267 109Q267 73 250 40.5Q233 8 198 -40L142 -117L272 -113V-200Z" glyph-name="two.inf" horiz-adv-x="287" /><glyph d="M3 294ZM20 294V362L137 520Q169 564 169 590Q169 629 133 629Q115 629 102 618.5Q89 608 79 582L3 612Q20 667 56.5 691Q93 715 143 715Q200 715 233.5 686Q267 657 267 603Q267 567 250 534.5Q233 502 198 454L142 377L272 381V294Z" glyph-name="twosuperior" horiz-adv-x="287" unicode="&#178;" /><glyph d="M447 0H334L324 84Q303 34 268 10Q233 -14 191 -14Q152 -14 124.5 0Q97 14 79.5 39Q62 64 54 98.5Q46 133 46 174V496H184V203Q184 153 198 131Q212 109 241 109Q270 109 289 140Q308 171 309 237V496H447Z" glyph-name="u" horiz-adv-x="496" unicode="u" /><glyph d="M46 0ZM447 0H334L324 84Q303 34 268 10Q233 -14 191 -14Q152 -14 124.5 0Q97 14 79.5 39Q62 64 54 98.5Q46 133 46 174V496H184V203Q184 153 198 131Q212 109 241 109Q270 109 289 140Q308 171 309 237V496H447ZM389 696 288 571H184V576L247 703H389Z" glyph-name="uacute" horiz-adv-x="496" unicode="&#250;" /><glyph d="M46 0ZM447 0H334L324 84Q303 34 268 10Q233 -14 191 -14Q152 -14 124.5 0Q97 14 79.5 39Q62 64 54 98.5Q46 133 46 174V496H184V203Q184 153 198 131Q212 109 241 109Q270 109 289 140Q308 171 309 237V496H447ZM302 702H383Q383 663 373.5 636.5Q364 610 346.5 594Q329 578 303.5 571Q278 564 246 564Q213 564 188 571Q163 578 145.5 594Q128 610 119 636.5Q110 663 110 702H191Q191 666 204 652.5Q217 639 246 639Q275 639 288.5 652.5Q302 666 302 702Z" glyph-name="ubreve" horiz-adv-x="496" unicode="&#365;" /><glyph d="M46 0ZM447 0H334L324 84Q303 34 268 10Q233 -14 191 -14Q152 -14 124.5 0Q97 14 79.5 39Q62 64 54 98.5Q46 133 46 174V496H184V203Q184 153 198 131Q212 109 241 109Q270 109 289 140Q308 171 309 237V496H447ZM243 630 200 571H97V575L191 703H302L397 575V571H289Z" glyph-name="ucircumflex" horiz-adv-x="496" unicode="&#251;" /><glyph d="M46 0ZM447 0H334L324 84Q303 34 268 10Q233 -14 191 -14Q152 -14 124.5 0Q97 14 79.5 39Q62 64 54 98.5Q46 133 46 174V496H184V203Q184 153 198 131Q212 109 241 109Q270 109 289 140Q308 171 309 237V496H447ZM272 646Q272 680 290 698Q308 716 341 716Q412 716 412 646Q412 572 341 572Q308 572 290 591Q272 610 272 646ZM91 646Q91 680 109.5 698Q128 716 161 716Q231 716 231 646Q231 572 161 572Q128 572 109.5 591Q91 610 91 646Z" glyph-name="udieresis" horiz-adv-x="496" unicode="&#252;" /><glyph d="M46 0ZM447 0H334L324 84Q303 34 268 10Q233 -14 191 -14Q152 -14 124.5 0Q97 14 79.5 39Q62 64 54 98.5Q46 133 46 174V496H184V203Q184 153 198 131Q212 109 241 109Q270 109 289 140Q308 171 309 237V496H447ZM203 572 101 697V704H248L309 577V572Z" glyph-name="ugrave" horiz-adv-x="496" unicode="&#249;" /><glyph d="M46 0ZM447 0H334L324 84Q303 34 268 10Q233 -14 191 -14Q152 -14 124.5 0Q97 14 79.5 39Q62 64 54 98.5Q46 133 46 174V496H184V203Q184 153 198 131Q212 109 241 109Q270 109 289 140Q308 171 309 237V496H447ZM475 697 372 571H277V576L339 703H475ZM298 703V697L195 571H100V576L162 703Z" glyph-name="uhungarumlaut" horiz-adv-x="496" unicode="&#369;" /><glyph d="M46 0ZM447 0H334L324 84Q303 34 268 10Q233 -14 191 -14Q152 -14 124.5 0Q97 14 79.5 39Q62 64 54 98.5Q46 133 46 174V496H184V203Q184 153 198 131Q212 109 241 109Q270 109 289 140Q308 171 309 237V496H447ZM360 675V590H132V675Z" glyph-name="umacron" horiz-adv-x="496" unicode="&#363;" /><glyph d="M369 0V-112H-3V0Z" glyph-name="underscore" horiz-adv-x="366" unicode="_" /><glyph glyph-name="uni00A0" horiz-adv-x="134" unicode="&#160;" /><glyph d="M277 325V208H39V325Z" glyph-name="uni00AD" horiz-adv-x="316" unicode="&#173;" /><glyph d="M788 325V208H39V325Z" glyph-name="uni2015" horiz-adv-x="827" unicode="&#8213;" /><glyph d="M22 285ZM22 500Q22 610 57.5 662.5Q93 715 171 715Q249 715 284 662.5Q319 610 319 500Q319 390 284 337.5Q249 285 171 285Q93 285 57.5 338Q22 391 22 500ZM221 500Q221 576 208 604.5Q195 633 171 633Q146 633 133 604Q120 575 120 500Q120 424 133 395Q146 366 172 366Q195 366 208 395Q221 424 221 500Z" glyph-name="uni2070" horiz-adv-x="342" unicode="&#8304;" /><glyph d="M16 294ZM16 379V451L106 706H202L113 465H191V584H283V465H320V379H283V294H191V379Z" glyph-name="uni2074" horiz-adv-x="331" unicode="&#8308;" /><glyph d="M4 285ZM118 624 113 547Q135 561 169 561Q218 561 250 529.5Q282 498 282 429Q282 361 243 323Q204 285 138 285Q92 285 58 304Q24 323 4 371L76 412Q87 385 101 375.5Q115 366 135 366Q160 366 172 383Q184 400 184 429Q184 459 171.5 473.5Q159 488 139 488Q109 488 92 462L24 493L38 706H269V624Z" glyph-name="uni2075" horiz-adv-x="299" unicode="&#8309;" /><glyph d="M22 285ZM176 285Q101 285 61.5 336.5Q22 388 22 498Q22 604 59 659.5Q96 715 177 715Q272 715 302 636L231 598Q223 617 213.5 626.5Q204 636 184 636Q151 636 135.5 606Q120 576 120 502V493Q129 520 149 536.5Q169 553 200 553Q245 553 274.5 520.5Q304 488 304 424Q304 363 273 324Q242 285 176 285ZM129 422Q129 394 139.5 378.5Q150 363 170 363Q208 363 208 422Q208 450 198.5 465.5Q189 481 170 481Q151 481 140 464.5Q129 448 129 422Z" glyph-name="uni2076" horiz-adv-x="324" unicode="&#8310;" /><glyph d="M12 294ZM176 294H65Q65 409 96 491Q127 573 171 620L12 617V706H267V635Q243 602 226 568.5Q209 535 198 495Q187 455 181.5 406Q176 357 176 294Z" glyph-name="uni2077" horiz-adv-x="273" unicode="&#8311;" /><glyph d="M22 285ZM158 285Q92 285 57 318Q22 351 22 409Q22 446 37 471.5Q52 497 79 510Q59 524 46.5 546.5Q34 569 34 598Q34 655 66 685Q98 715 158 715Q218 715 250 685Q282 655 282 598Q282 569 269.5 546.5Q257 524 237 510Q263 496 278.5 471Q294 446 294 409Q294 351 259.5 318Q225 285 158 285ZM196 592Q196 610 186.5 624Q177 638 159 638Q139 638 129.5 624Q120 610 120 592Q120 573 130 559.5Q140 546 158 546Q177 546 186.5 559Q196 572 196 592ZM200 411Q200 432 189.5 447.5Q179 463 159 463Q137 463 126.5 447.5Q116 432 116 411Q116 388 127 373Q138 358 158 358Q178 358 189 373Q200 388 200 411Z" glyph-name="uni2078" horiz-adv-x="317" unicode="&#8312;" /><glyph d="M17 285ZM191 575Q191 602 180 618.5Q169 635 152 635Q113 635 113 576Q113 548 122.5 531.5Q132 515 152 515Q170 515 180.5 531.5Q191 548 191 575ZM147 715Q222 715 261 663.5Q300 612 300 501Q300 396 262 340.5Q224 285 142 285Q100 285 66.5 299.5Q33 314 17 349L81 399Q91 379 103 370.5Q115 362 135 362Q171 362 186.5 392Q202 422 202 494V503Q192 474 172.5 457.5Q153 441 123 441Q77 441 48 474Q19 507 19 573Q19 604 27 630Q35 656 50.5 675Q66 694 90 704.5Q114 715 147 715Z" glyph-name="uni2079" horiz-adv-x="322" unicode="&#8313;" /><glyph d="M21 356ZM158 356H86V445H21V513H86V603H158V513H222V445H158Z" glyph-name="uni207A" horiz-adv-x="243" unicode="&#8314;" /><glyph d="M21 444ZM222 514V444H21V514Z" glyph-name="uni207B" horiz-adv-x="243" unicode="&#8315;" /><glyph d="M21 394ZM222 562V491H21V562ZM222 464V394H21V464Z" glyph-name="uni207C" horiz-adv-x="243" unicode="&#8316;" /><glyph d="M17 208ZM168 290 155 208Q17 227 17 465Q17 703 152 722L168 640Q149 636 135 625Q121 614 111.5 594Q102 574 97 542.5Q92 511 92 465Q92 419 97 387.5Q102 356 111.5 336Q121 316 135 305Q149 294 168 290Z" glyph-name="uni207D" horiz-adv-x="180" unicode="&#8317;" /><glyph d="M12 208ZM25 208 12 290Q31 294 45 305Q59 316 68.5 336Q78 356 83 387.5Q88 419 88 465Q88 511 83 542.5Q78 574 68.5 594Q59 614 45 625Q31 636 12 640L28 722Q163 703 163 465Q163 227 25 208Z" glyph-name="uni207E" horiz-adv-x="180" unicode="&#8318;" /><glyph d="M22 206Q22 316 57.5 368.5Q93 421 171 421Q249 421 284 368.5Q319 316 319 206Q319 96 284 43.5Q249 -9 171 -9Q93 -9 57.5 44Q22 97 22 206ZM221 206Q221 282 208 310.5Q195 339 171 339Q146 339 133 310Q120 281 120 206Q120 130 133 101Q146 72 172 72Q195 72 208 101Q221 130 221 206Z" glyph-name="uni2080" horiz-adv-x="342" unicode="&#8320;" /><glyph d="M175 0H76V291L42 266L5 347L108 417H175Z" glyph-name="uni2081" horiz-adv-x="211" unicode="&#8321;" /><glyph d="M20 0V68L137 226Q169 270 169 296Q169 335 133 335Q115 335 102 324.5Q89 314 79 288L3 318Q20 373 56.5 397Q93 421 143 421Q200 421 233.5 392Q267 363 267 309Q267 273 250 240.5Q233 208 198 160L142 83L272 87V0Z" glyph-name="uni2082" horiz-adv-x="287" unicode="&#8322;" /><glyph d="M144 -9Q96 -9 60.5 12Q25 33 7 83L79 120Q90 91 104.5 81Q119 71 138 71Q181 71 181 120Q181 144 168 157Q155 170 133 170H104V245H133Q151 245 163 257.5Q175 270 175 292Q175 314 164 325.5Q153 337 133 337Q96 337 84 294L11 324Q25 375 59.5 398Q94 421 146 421Q209 421 241.5 390Q274 359 274 311Q274 278 260.5 254.5Q247 231 221 211Q247 198 262.5 173.5Q278 149 278 114Q278 58 242.5 24.5Q207 -9 144 -9Z" glyph-name="uni2083" horiz-adv-x="297" unicode="&#8323;" /><glyph d="M16 85V157L106 412H202L113 171H191V290H283V171H320V85H283V0H191V85Z" glyph-name="uni2084" horiz-adv-x="331" unicode="&#8324;" /><glyph d="M118 330 113 253Q135 267 169 267Q218 267 250 235.5Q282 204 282 135Q282 67 243 29Q204 -9 138 -9Q92 -9 58 10Q24 29 4 77L76 118Q87 91 101 81.5Q115 72 135 72Q160 72 172 89Q184 106 184 135Q184 165 171.5 179.5Q159 194 139 194Q109 194 92 168L24 199L38 412H269V330Z" glyph-name="uni2085" horiz-adv-x="299" unicode="&#8325;" /><glyph d="M176 -9Q101 -9 61.5 42.5Q22 94 22 204Q22 310 59 365.5Q96 421 177 421Q272 421 302 342L231 304Q223 323 213.5 332.5Q204 342 184 342Q151 342 135.5 312Q120 282 120 208V199Q129 226 149 242.5Q169 259 200 259Q245 259 274.5 226.5Q304 194 304 130Q304 69 273 30Q242 -9 176 -9ZM129 128Q129 100 139.5 84.5Q150 69 170 69Q208 69 208 128Q208 156 198.5 171.5Q189 187 170 187Q151 187 140 170.5Q129 154 129 128Z" glyph-name="uni2086" horiz-adv-x="324" unicode="&#8326;" /><glyph d="M176 0H65Q65 115 96 197Q127 279 171 326L12 323V412H267V341Q243 308 226 274.5Q209 241 198 201Q187 161 181.5 112Q176 63 176 0Z" glyph-name="uni2087" horiz-adv-x="273" unicode="&#8327;" /><glyph d="M158 -9Q92 -9 57 24Q22 57 22 115Q22 152 37 177.5Q52 203 79 216Q59 230 46.5 252.5Q34 275 34 304Q34 361 66 391Q98 421 158 421Q218 421 250 391Q282 361 282 304Q282 275 269.5 252.5Q257 230 237 216Q263 202 278.5 177Q294 152 294 115Q294 57 259.5 24Q225 -9 158 -9ZM196 298Q196 316 186.5 330Q177 344 159 344Q139 344 129.5 330Q120 316 120 298Q120 279 130 265.5Q140 252 158 252Q177 252 186.5 265Q196 278 196 298ZM200 117Q200 138 189.5 153.5Q179 169 159 169Q137 169 126.5 153.5Q116 138 116 117Q116 94 127 79Q138 64 158 64Q178 64 189 79Q200 94 200 117Z" glyph-name="uni2088" horiz-adv-x="317" unicode="&#8328;" /><glyph d="M191 281Q191 308 180 324.5Q169 341 152 341Q113 341 113 282Q113 254 122.5 237.5Q132 221 152 221Q170 221 180.5 237.5Q191 254 191 281ZM147 421Q222 421 261 369.5Q300 318 300 207Q300 102 262 46.5Q224 -9 142 -9Q100 -9 66.5 5.5Q33 20 17 55L81 105Q91 85 103 76.5Q115 68 135 68Q171 68 186.5 98Q202 128 202 200V209Q192 180 172.5 163.5Q153 147 123 147Q77 147 48 180Q19 213 19 279Q19 310 27 336Q35 362 50.5 381Q66 400 90 410.5Q114 421 147 421Z" glyph-name="uni2089" horiz-adv-x="322" unicode="&#8329;" /><glyph d="M158 58H86V147H21V215H86V305H158V215H222V147H158Z" glyph-name="uni208A" horiz-adv-x="244" unicode="&#8330;" /><glyph d="M222 216V146H21V216Z" glyph-name="uni208B" horiz-adv-x="244" unicode="&#8331;" /><glyph d="M222 264V193H21V264ZM222 166V96H21V166Z" glyph-name="uni208C" horiz-adv-x="244" unicode="&#8332;" /><glyph d="M168 -8 155 -90Q17 -71 17 167Q17 405 152 424L168 342Q149 338 135 327Q121 316 111.5 296Q102 276 97 244.5Q92 213 92 167Q92 121 97 89.5Q102 58 111.5 38Q121 18 135 7Q149 -4 168 -8Z" glyph-name="uni208D" horiz-adv-x="180" unicode="&#8333;" /><glyph d="M25 -90 12 -8Q31 -4 45 7Q59 18 68.5 38Q78 58 83 89.5Q88 121 88 167Q88 213 83 244.5Q78 276 68.5 296Q59 316 45 327Q31 338 12 342L28 424Q163 405 163 167Q163 -71 25 -90Z" glyph-name="uni208E" horiz-adv-x="180" unicode="&#8334;" /><glyph d="M5 0ZM550 -9Q502 -9 466.5 12Q431 33 413 83L485 120Q496 91 510.5 81Q525 71 544 71Q587 71 587 120Q587 144 574 157Q561 170 539 170H510V245H539Q557 245 569 257.5Q581 270 581 292Q581 314 570 325.5Q559 337 539 337Q502 337 490 294L417 324Q431 375 465.5 398Q500 421 552 421Q615 421 647.5 390Q680 359 680 311Q680 278 666.5 254.5Q653 231 627 211Q653 198 668.5 173.5Q684 149 684 114Q684 58 648.5 24.5Q613 -9 550 -9ZM175 293H76V584L42 559L5 640L108 710H175ZM502 700 237 0H122L388 700Z" glyph-name="uni2153" horiz-adv-x="707" unicode="&#8531;" /><glyph d="M3 0ZM641 -9Q593 -9 557.5 12Q522 33 504 83L576 120Q587 91 601.5 81Q616 71 635 71Q678 71 678 120Q678 144 665 157Q652 170 630 170H601V245H630Q648 245 660 257.5Q672 270 672 292Q672 314 661 325.5Q650 337 630 337Q593 337 581 294L508 324Q522 375 556.5 398Q591 421 643 421Q706 421 738.5 390Q771 359 771 311Q771 278 757.5 254.5Q744 231 718 211Q744 198 759.5 173.5Q775 149 775 114Q775 58 739.5 24.5Q704 -9 641 -9ZM20 293V361L137 519Q169 563 169 589Q169 628 133 628Q115 628 102 617.5Q89 607 79 581L3 611Q20 666 56.5 690Q93 714 143 714Q200 714 233.5 685Q267 656 267 602Q267 566 250 533.5Q233 501 198 453L142 376L272 380V293ZM592 700 327 0H212L478 700Z" glyph-name="uni2154" horiz-adv-x="799" unicode="&#8532;" /><glyph d="M5 0ZM175 293H76V584L42 559L5 640L108 710H175ZM534 330 529 253Q551 267 585 267Q634 267 666 235.5Q698 204 698 135Q698 67 659 29Q620 -9 554 -9Q508 -9 474 10Q440 29 420 77L492 118Q503 91 517 81.5Q531 72 551 72Q576 72 588 89Q600 106 600 135Q600 165 587.5 179.5Q575 194 555 194Q525 194 508 168L440 199L454 412H685V330ZM502 700 237 0H122L388 700Z" glyph-name="uni2155" horiz-adv-x="712" unicode="&#8533;" /><glyph d="M3 0ZM20 293V361L137 519Q169 563 169 589Q169 628 133 628Q115 628 102 617.5Q89 607 79 581L3 611Q20 666 56.5 690Q93 714 143 714Q200 714 233.5 685Q267 656 267 602Q267 566 250 533.5Q233 501 198 453L142 376L272 380V293ZM624 330 619 253Q641 267 675 267Q724 267 756 235.5Q788 204 788 135Q788 67 749 29Q710 -9 644 -9Q598 -9 564 10Q530 29 510 77L582 118Q593 91 607 81.5Q621 72 641 72Q666 72 678 89Q690 106 690 135Q690 165 677.5 179.5Q665 194 645 194Q615 194 598 168L530 199L544 412H775V330ZM592 700 327 0H212L478 700Z" glyph-name="uni2156" horiz-adv-x="803" unicode="&#8534;" /><glyph d="M7 0ZM144 284Q96 284 60.5 305Q25 326 7 376L79 413Q90 384 104.5 374Q119 364 138 364Q181 364 181 413Q181 437 168 450Q155 463 133 463H104V538H133Q151 538 163 550.5Q175 563 175 585Q175 607 164 618.5Q153 630 133 630Q96 630 84 587L11 617Q25 668 59.5 691Q94 714 146 714Q209 714 241.5 683Q274 652 274 604Q274 571 260.5 547.5Q247 524 221 504Q247 491 262.5 466.5Q278 442 278 407Q278 351 242.5 317.5Q207 284 144 284ZM605 330 600 253Q622 267 656 267Q705 267 737 235.5Q769 204 769 135Q769 67 730 29Q691 -9 625 -9Q579 -9 545 10Q511 29 491 77L563 118Q574 91 588 81.5Q602 72 622 72Q647 72 659 89Q671 106 671 135Q671 165 658.5 179.5Q646 194 626 194Q596 194 579 168L511 199L525 412H756V330ZM572 700 307 0H192L458 700Z" glyph-name="uni2157" horiz-adv-x="784" unicode="&#8535;" /><glyph d="M16 0ZM642 330 637 253Q659 267 693 267Q742 267 774 235.5Q806 204 806 135Q806 67 767 29Q728 -9 662 -9Q616 -9 582 10Q548 29 528 77L600 118Q611 91 625 81.5Q639 72 659 72Q684 72 696 89Q708 106 708 135Q708 165 695.5 179.5Q683 194 663 194Q633 194 616 168L548 199L562 412H793V330ZM610 700 345 0H230L496 700ZM16 378V450L106 705H202L113 464H191V583H283V464H320V378H283V293H191V378Z" glyph-name="uni2158" horiz-adv-x="821" unicode="&#8536;" /><glyph d="M5 0ZM175 293H76V584L42 559L5 640L108 710H175ZM569 -9Q494 -9 454.5 42.5Q415 94 415 204Q415 310 452 365.5Q489 421 570 421Q665 421 695 342L624 304Q616 323 606.5 332.5Q597 342 577 342Q544 342 528.5 312Q513 282 513 208V199Q522 226 542 242.5Q562 259 593 259Q638 259 667.5 226.5Q697 194 697 130Q697 69 666 30Q635 -9 569 -9ZM522 128Q522 100 532.5 84.5Q543 69 563 69Q601 69 601 128Q601 156 591.5 171.5Q582 187 563 187Q544 187 533 170.5Q522 154 522 128ZM502 700 237 0H122L388 700Z" glyph-name="uni2159" horiz-adv-x="720" unicode="&#8537;" /><glyph d="M4 0ZM118 623 113 546Q135 560 169 560Q218 560 250 528.5Q282 497 282 428Q282 360 243 322Q204 284 138 284Q92 284 58 303Q24 322 4 370L76 411Q87 384 101 374.5Q115 365 135 365Q160 365 172 382Q184 399 184 428Q184 458 171.5 472.5Q159 487 139 487Q109 487 92 461L24 492L38 705H269V623ZM641 -9Q566 -9 526.5 42.5Q487 94 487 204Q487 310 524 365.5Q561 421 642 421Q737 421 767 342L696 304Q688 323 678.5 332.5Q669 342 649 342Q616 342 600.5 312Q585 282 585 208V199Q594 226 614 242.5Q634 259 665 259Q710 259 739.5 226.5Q769 194 769 130Q769 69 738 30Q707 -9 641 -9ZM594 128Q594 100 604.5 84.5Q615 69 635 69Q673 69 673 128Q673 156 663.5 171.5Q654 187 635 187Q616 187 605 170.5Q594 154 594 128ZM573 700 308 0H193L459 700Z" glyph-name="uni215A" horiz-adv-x="792" unicode="&#8538;" /><glyph d="M5 0ZM175 293H76V584L42 559L5 640L108 710H175ZM558 -9Q492 -9 457 24Q422 57 422 115Q422 152 437 177.5Q452 203 479 216Q459 230 446.5 252.5Q434 275 434 304Q434 361 466 391Q498 421 558 421Q618 421 650 391Q682 361 682 304Q682 275 669.5 252.5Q657 230 637 216Q663 202 678.5 177Q694 152 694 115Q694 57 659.5 24Q625 -9 558 -9ZM596 298Q596 316 586.5 330Q577 344 559 344Q539 344 529.5 330Q520 316 520 298Q520 279 530 265.5Q540 252 558 252Q577 252 586.5 265Q596 278 596 298ZM600 117Q600 138 589.5 153.5Q579 169 559 169Q537 169 526.5 153.5Q516 138 516 117Q516 94 527 79Q538 64 558 64Q578 64 589 79Q600 94 600 117ZM502 700 237 0H122L388 700Z" glyph-name="uni215B" horiz-adv-x="716" unicode="&#8539;" /><glyph d="M7 0ZM144 284Q96 284 60.5 305Q25 326 7 376L79 413Q90 384 104.5 374Q119 364 138 364Q181 364 181 413Q181 437 168 450Q155 463 133 463H104V538H133Q151 538 163 550.5Q175 563 175 585Q175 607 164 618.5Q153 630 133 630Q96 630 84 587L11 617Q25 668 59.5 691Q94 714 146 714Q209 714 241.5 683Q274 652 274 604Q274 571 260.5 547.5Q247 524 221 504Q247 491 262.5 466.5Q278 442 278 407Q278 351 242.5 317.5Q207 284 144 284ZM628 -9Q562 -9 527 24Q492 57 492 115Q492 152 507 177.5Q522 203 549 216Q529 230 516.5 252.5Q504 275 504 304Q504 361 536 391Q568 421 628 421Q688 421 720 391Q752 361 752 304Q752 275 739.5 252.5Q727 230 707 216Q733 202 748.5 177Q764 152 764 115Q764 57 729.5 24Q695 -9 628 -9ZM666 298Q666 316 656.5 330Q647 344 629 344Q609 344 599.5 330Q590 316 590 298Q590 279 600 265.5Q610 252 628 252Q647 252 656.5 265Q666 278 666 298ZM670 117Q670 138 659.5 153.5Q649 169 629 169Q607 169 596.5 153.5Q586 138 586 117Q586 94 597 79Q608 64 628 64Q648 64 659 79Q670 94 670 117ZM572 700 307 0H192L458 700Z" glyph-name="uni215C" horiz-adv-x="787" unicode="&#8540;" /><glyph d="M4 0ZM628 -9Q562 -9 527 24Q492 57 492 115Q492 152 507 177.5Q522 203 549 216Q529 230 516.5 252.5Q504 275 504 304Q504 361 536 391Q568 421 628 421Q688 421 720 391Q752 361 752 304Q752 275 739.5 252.5Q727 230 707 216Q733 202 748.5 177Q764 152 764 115Q764 57 729.5 24Q695 -9 628 -9ZM666 298Q666 316 656.5 330Q647 344 629 344Q609 344 599.5 330Q590 316 590 298Q590 279 600 265.5Q610 252 628 252Q647 252 656.5 265Q666 278 666 298ZM670 117Q670 138 659.5 153.5Q649 169 629 169Q607 169 596.5 153.5Q586 138 586 117Q586 94 597 79Q608 64 628 64Q648 64 659 79Q670 94 670 117ZM118 623 113 546Q135 560 169 560Q218 560 250 528.5Q282 497 282 428Q282 360 243 322Q204 284 138 284Q92 284 58 303Q24 322 4 370L76 411Q87 384 101 374.5Q115 365 135 365Q160 365 172 382Q184 399 184 428Q184 458 171.5 472.5Q159 487 139 487Q109 487 92 461L24 492L38 705H269V623ZM572 700 307 0H192L458 700Z" glyph-name="uni215D" horiz-adv-x="787" unicode="&#8541;" /><glyph d="M12 0ZM573 -9Q507 -9 472 24Q437 57 437 115Q437 152 452 177.5Q467 203 494 216Q474 230 461.5 252.5Q449 275 449 304Q449 361 481 391Q513 421 573 421Q633 421 665 391Q697 361 697 304Q697 275 684.5 252.5Q672 230 652 216Q678 202 693.5 177Q709 152 709 115Q709 57 674.5 24Q640 -9 573 -9ZM611 298Q611 316 601.5 330Q592 344 574 344Q554 344 544.5 330Q535 316 535 298Q535 279 545 265.5Q555 252 573 252Q592 252 601.5 265Q611 278 611 298ZM615 117Q615 138 604.5 153.5Q594 169 574 169Q552 169 541.5 153.5Q531 138 531 117Q531 94 542 79Q553 64 573 64Q593 64 604 79Q615 94 615 117ZM176 293H65Q65 408 96 490Q127 572 171 619L12 616V705H267V634Q243 601 226 567.5Q209 534 198 494Q187 454 181.5 405Q176 356 176 293ZM518 700 253 0H138L404 700Z" glyph-name="uni215E" horiz-adv-x="732" unicode="&#8542;" /><glyph d="M5 0ZM175 293H76V584L42 559L5 640L108 710H175ZM502 700 237 0H122L388 700Z" glyph-name="uni215F" horiz-adv-x="634" unicode="&#8543;" /><glyph d="M482 -196Q462 -211 440.5 -219Q419 -227 393 -227Q371 -227 349.5 -221Q328 -215 311 -200.5Q294 -186 283.5 -161.5Q273 -137 273 -100Q273 -58 289.5 -27.5Q306 3 331 22L324 84Q303 34 268 10Q233 -14 191 -14Q152 -14 124.5 0Q97 14 79.5 39Q62 64 54 98.5Q46 133 46 174V496H184V203Q184 153 198 131Q212 109 241 109Q270 109 289 140Q308 171 309 237V496H447V0H421Q383 -4 366.5 -29.5Q350 -55 350 -85Q350 -117 366.5 -129.5Q383 -142 403 -142Q428 -142 448 -125Z" glyph-name="uogonek" horiz-adv-x="496" unicode="&#371;" /><glyph d="M46 0ZM447 0H334L324 84Q303 34 268 10Q233 -14 191 -14Q152 -14 124.5 0Q97 14 79.5 39Q62 64 54 98.5Q46 133 46 174V496H184V203Q184 153 198 131Q212 109 241 109Q270 109 289 140Q308 171 309 237V496H447ZM148 653Q148 701 175.5 727Q203 753 246 753Q288 753 315 727Q342 701 342 653Q342 603 315 577Q288 551 246 551Q203 551 175.5 577Q148 603 148 653ZM207 653Q207 631 218 618.5Q229 606 246 606Q262 606 273.5 618.5Q285 631 285 653Q285 674 273.5 686Q262 698 246 698Q229 698 218 686Q207 674 207 653Z" glyph-name="uring" horiz-adv-x="496" unicode="&#367;" /><glyph d="M46 0ZM447 0H334L324 84Q303 34 268 10Q233 -14 191 -14Q152 -14 124.5 0Q97 14 79.5 39Q62 64 54 98.5Q46 133 46 174V496H184V203Q184 153 198 131Q212 109 241 109Q270 109 289 140Q308 171 309 237V496H447ZM311 698H389Q391 664 384.5 641Q378 618 366 604Q354 590 339 584Q324 578 309 578Q291 578 276.5 583.5Q262 589 249 595.5Q236 602 224.5 607.5Q213 613 202 613Q189 613 185 602.5Q181 592 181 579H103Q101 613 107.5 636.5Q114 660 125.5 673.5Q137 687 152 693Q167 699 182 699Q200 699 215 693.5Q230 688 243 681.5Q256 675 267.5 669.5Q279 664 290 664Q304 664 307.5 674Q311 684 311 698Z" glyph-name="utilde" horiz-adv-x="496" unicode="&#361;" /><glyph d="M7 496H151L226 160L302 496H441L294 0H154Z" glyph-name="v" horiz-adv-x="448" unicode="v" /><glyph d="M253 494H375L435 182L488 496H612L496 0H367L311 312L256 0H127L10 496H139L194 184Z" glyph-name="w" horiz-adv-x="622" unicode="w" /><glyph d="M10 0ZM253 494H375L435 182L488 496H612L496 0H367L311 312L256 0H127L10 496H139L194 184ZM451 696 350 571H246V576L309 703H451Z" glyph-name="wacute" horiz-adv-x="622" unicode="&#7811;" /><glyph d="M10 0ZM253 494H375L435 182L488 496H612L496 0H367L311 312L256 0H127L10 496H139L194 184ZM305 630 262 571H159V575L253 703H364L459 575V571H351Z" glyph-name="wcircumflex" horiz-adv-x="622" unicode="&#373;" /><glyph d="M10 0ZM253 494H375L435 182L488 496H612L496 0H367L311 312L256 0H127L10 496H139L194 184ZM334 646Q334 680 352 698Q370 716 403 716Q474 716 474 646Q474 572 403 572Q370 572 352 591Q334 610 334 646ZM153 646Q153 680 171.5 698Q190 716 223 716Q293 716 293 646Q293 572 223 572Q190 572 171.5 591Q153 610 153 646Z" glyph-name="wdieresis" horiz-adv-x="622" unicode="&#7813;" /><glyph d="M10 0ZM253 494H375L435 182L488 496H612L496 0H367L311 312L256 0H127L10 496H139L194 184ZM265 572 163 697V704H310L371 577V572Z" glyph-name="wgrave" horiz-adv-x="622" unicode="&#7809;" /><glyph d="M286 0 218 151 149 0H3L143 252L11 496H170L229 348L289 496H435L302 250L445 0Z" glyph-name="x" horiz-adv-x="448" unicode="x" /><glyph d="M147 -44 156 -4 7 496H151L227 163L303 496H443L267 -92Q256 -129 240 -153.5Q224 -178 203.5 -193Q183 -208 158 -214Q133 -220 105 -220Q74 -220 52 -215Q30 -210 8 -199L31 -92Q48 -100 63 -103.5Q78 -107 87 -107Q113 -107 126 -93Q139 -79 147 -44Z" glyph-name="y" horiz-adv-x="450" unicode="y" /><glyph d="M216 -220Q138 -220 90.5 -188Q43 -156 19 -95L125 -37Q138 -72 158 -90Q178 -108 209 -108Q299 -108 299 19V74Q279 37 249 21Q219 5 184 5Q147 5 120.5 18.5Q94 32 77.5 56.5Q61 81 53 115Q45 149 45 190V496H181V221Q181 170 193.5 148Q206 126 232 126Q262 126 280.5 158.5Q299 191 299 258V496H437V26Q437 -35 421 -81Q405 -127 376 -158Q347 -189 306.5 -204.5Q266 -220 216 -220Z" glyph-name="y.school" horiz-adv-x="485" /><glyph d="M7 0ZM147 -44 156 -4 7 496H151L227 163L303 496H443L267 -92Q256 -129 240 -153.5Q224 -178 203.5 -193Q183 -208 158 -214Q133 -220 105 -220Q74 -220 52 -215Q30 -210 8 -199L31 -92Q48 -100 63 -103.5Q78 -107 87 -107Q113 -107 126 -93Q139 -79 147 -44ZM368 696 267 571H163V576L226 703H368Z" glyph-name="yacute" horiz-adv-x="450" unicode="&#253;" /><glyph d="M19 0ZM216 -220Q138 -220 90.5 -188Q43 -156 19 -95L125 -37Q138 -72 158 -90Q178 -108 209 -108Q299 -108 299 19V74Q279 37 249 21Q219 5 184 5Q147 5 120.5 18.5Q94 32 77.5 56.5Q61 81 53 115Q45 149 45 190V496H181V221Q181 170 193.5 148Q206 126 232 126Q262 126 280.5 158.5Q299 191 299 258V496H437V26Q437 -35 421 -81Q405 -127 376 -158Q347 -189 306.5 -204.5Q266 -220 216 -220ZM373 696 272 571H168V576L231 703H373Z" glyph-name="yacute.school" horiz-adv-x="486" /><glyph d="M7 0ZM147 -44 156 -4 7 496H151L227 163L303 496H443L267 -92Q256 -129 240 -153.5Q224 -178 203.5 -193Q183 -208 158 -214Q133 -220 105 -220Q74 -220 52 -215Q30 -210 8 -199L31 -92Q48 -100 63 -103.5Q78 -107 87 -107Q113 -107 126 -93Q139 -79 147 -44ZM222 630 179 571H76V575L170 703H281L376 575V571H268Z" glyph-name="ycircumflex" horiz-adv-x="450" unicode="&#375;" /><glyph d="M19 0ZM238 630 195 571H92V575L186 703H297L392 575V571H284ZM216 -220Q138 -220 90.5 -188Q43 -156 19 -95L125 -37Q138 -72 158 -90Q178 -108 209 -108Q299 -108 299 19V74Q279 37 249 21Q219 5 184 5Q147 5 120.5 18.5Q94 32 77.5 56.5Q61 81 53 115Q45 149 45 190V496H181V221Q181 170 193.5 148Q206 126 232 126Q262 126 280.5 158.5Q299 191 299 258V496H437V26Q437 -35 421 -81Q405 -127 376 -158Q347 -189 306.5 -204.5Q266 -220 216 -220Z" glyph-name="ycircumflex.school" horiz-adv-x="486" /><glyph d="M7 0ZM147 -44 156 -4 7 496H151L227 163L303 496H443L267 -92Q256 -129 240 -153.5Q224 -178 203.5 -193Q183 -208 158 -214Q133 -220 105 -220Q74 -220 52 -215Q30 -210 8 -199L31 -92Q48 -100 63 -103.5Q78 -107 87 -107Q113 -107 126 -93Q139 -79 147 -44ZM250 646Q250 680 268 698Q286 716 319 716Q390 716 390 646Q390 572 319 572Q286 572 268 591Q250 610 250 646ZM69 646Q69 680 87.5 698Q106 716 139 716Q209 716 209 646Q209 572 139 572Q106 572 87.5 591Q69 610 69 646Z" glyph-name="ydieresis" horiz-adv-x="450" unicode="&#255;" /><glyph d="M19 0ZM262 646Q262 680 280 698Q298 716 331 716Q402 716 402 646Q402 572 331 572Q298 572 280 591Q262 610 262 646ZM81 646Q81 680 99.5 698Q118 716 151 716Q221 716 221 646Q221 572 151 572Q118 572 99.5 591Q81 610 81 646ZM216 -220Q138 -220 90.5 -188Q43 -156 19 -95L125 -37Q138 -72 158 -90Q178 -108 209 -108Q299 -108 299 19V74Q279 37 249 21Q219 5 184 5Q147 5 120.5 18.5Q94 32 77.5 56.5Q61 81 53 115Q45 149 45 190V496H181V221Q181 170 193.5 148Q206 126 232 126Q262 126 280.5 158.5Q299 191 299 258V496H437V26Q437 -35 421 -81Q405 -127 376 -158Q347 -189 306.5 -204.5Q266 -220 216 -220Z" glyph-name="ydieresis.school" horiz-adv-x="486" /><glyph d="M478 209H342V0H198V209H64V290H185L165 336H64V417H130L7 700H167L276 401L382 700H534L410 417H478V336H375L356 290H478Z" glyph-name="yen" horiz-adv-x="541" unicode="&#165;" /><glyph d="M22 0V89L213 385H25V496H362V403L174 111H370V0Z" glyph-name="z" horiz-adv-x="392" unicode="z" /><glyph d="M22 0ZM22 0V89L213 385H25V496H362V403L174 111H370V0ZM340 696 239 571H135V576L198 703H340Z" glyph-name="zacute" horiz-adv-x="392" unicode="&#378;" /><glyph d="M22 0ZM22 0V89L213 385H25V496H362V403L174 111H370V0ZM200 644 246 703H349V700L253 571H142L49 700V703H157Z" glyph-name="zcaron" horiz-adv-x="392" unicode="&#382;" /><glyph d="M22 0ZM22 0V89L213 385H25V496H362V403L174 111H370V0ZM122 644Q122 716 195 716Q267 716 267 644Q267 571 195 571Q122 571 122 644Z" glyph-name="zdotaccent" horiz-adv-x="392" unicode="&#380;" /><glyph d="M31 0ZM31 350Q31 537 87 625.5Q143 714 268 714Q391 714 448 625.5Q505 537 505 350Q505 162 448 74Q391 -14 268 -14Q143 -14 87 75.5Q31 165 31 350ZM365 349Q365 418 358.5 465Q352 512 340 540.5Q328 569 310 581.5Q292 594 268 594Q244 594 226 581.5Q208 569 196 540.5Q184 512 177.5 465.5Q171 419 171 351Q171 281 177.5 234Q184 187 196 158.5Q208 130 226 117.5Q244 105 268 105Q292 105 310 117Q328 129 340 157.5Q352 186 358.5 233Q365 280 365 349Z" glyph-name="zero" horiz-adv-x="535" unicode="0" /><glyph d="M41 350Q41 537 97 625.5Q153 714 278 714Q401 714 458 625.5Q515 537 515 350Q515 162 458 74Q401 -14 278 -14Q153 -14 97 75.5Q41 165 41 350ZM375 349Q375 418 368.5 465Q362 512 350 540.5Q338 569 320 581.5Q302 594 278 594Q254 594 236 581.5Q218 569 206 540.5Q194 512 187.5 465.5Q181 419 181 351Q181 281 187.5 234Q194 187 206 158.5Q218 130 236 117.5Q254 105 278 105Q302 105 320 117Q338 129 350 157.5Q362 186 368.5 233Q375 280 375 349Z" glyph-name="zero.LP" horiz-adv-x="555" /><glyph d="M249 614Q355 614 412.5 537.5Q470 461 470 299Q470 139 412.5 62.5Q355 -14 249 -14Q146 -14 87.5 62Q29 138 29 300Q29 462 86.5 538Q144 614 249 614ZM249 495Q229 495 213.5 485.5Q198 476 187.5 453.5Q177 431 171.5 393.5Q166 356 166 300Q166 245 171.5 207.5Q177 170 187.5 147Q198 124 213.5 114Q229 104 249 104Q270 104 285.5 114Q301 124 312 147Q323 170 328.5 207.5Q334 245 334 300Q334 355 328.5 392Q323 429 312 452Q301 475 285.5 485Q270 495 249 495Z" glyph-name="zero.OP" horiz-adv-x="501" /><glyph d="M267 614Q373 614 430.5 537.5Q488 461 488 299Q488 139 430.5 62.5Q373 -14 267 -14Q164 -14 105.5 62Q47 138 47 300Q47 462 104.5 538Q162 614 267 614ZM267 495Q247 495 231.5 485.5Q216 476 205.5 453.5Q195 431 189.5 393.5Q184 356 184 300Q184 245 189.5 207.5Q195 170 205.5 147Q216 124 231.5 114Q247 104 267 104Q288 104 303.5 114Q319 124 330 147Q341 170 346.5 207.5Q352 245 352 300Q352 355 346.5 392Q341 429 330 452Q319 475 303.5 485Q288 495 267 495Z" glyph-name="zero.OT" horiz-adv-x="535" /><glyph d="M22 0ZM22 6Q22 116 57.5 168.5Q93 221 171 221Q249 221 284 168.5Q319 116 319 6Q319 -104 284 -156.5Q249 -209 171 -209Q93 -209 57.5 -156Q22 -103 22 6ZM221 6Q221 82 208 110.5Q195 139 171 139Q146 139 133 110Q120 81 120 6Q120 -70 133 -99Q146 -128 172 -128Q195 -128 208 -99Q221 -70 221 6Z" glyph-name="zero.inf" horiz-adv-x="342" /><glyph glyph-name="zerowidthspace" horiz-adv-x="0" unicode="&#8203;" /></font>
</defs>
</svg>
