<?xml version="1.0" standalone="no"?><!DOCTYPE svg PUBLIC "-//W3C//DTD SVG 1.1//EN" "http://www.w3.org/Graphics/SVG/1.1/DTD/svg11.dtd" ><svg version="1.1" xmlns="http://www.w3.org/2000/svg"><defs><font horiz-adv-x="0" id="font"><font-face ascent="972" bbox="-97 -255 1391 942" cap-height="700" descent="-226" font-family="Honeywell Sans" font-stretch="normal" font-style="normal" font-weight="400" units-per-em="1000" x-height="482" /><missing-glyph d="M110 0V700H804V0ZM431 349 155 647V51ZM483 349 759 51V647ZM194 662 457 377 721 662ZM456 321 195 38H719Z" horiz-adv-x="914" /><glyph d="M0 0Z" glyph-name=".ttfautohint" horiz-adv-x="604" /><glyph d="M300 645 144 207H457ZM531 0 474 158H128L72 0H12L266 700H338L592 0Z" glyph-name="A" horiz-adv-x="604" unicode="A" /><glyph d="M301 648 143 207H450ZM519 0 464 158H126L69 0H10L266 700H846V651H359L453 377H791V327H469L564 49H856V0Z" glyph-name="AE" horiz-adv-x="894" unicode="&#198;" /><glyph d="M12 0ZM300 645 144 207H457ZM531 0 474 158H128L72 0H12L266 700H338L592 0ZM431 893 324 786H277V789L357 898H431Z" glyph-name="Aacute" horiz-adv-x="604" unicode="&#193;" /><glyph d="M12 0ZM300 645 144 207H457ZM531 0 474 158H128L72 0H12L266 700H338L592 0ZM389 897H433Q433 865 424 843Q415 821 398.5 808Q382 795 357.5 789.5Q333 784 303 784Q273 784 249 789.5Q225 795 208.5 808Q192 821 183 843Q174 865 174 897H217Q217 853 239 837Q261 821 303 821Q345 821 367 837Q389 853 389 897Z" glyph-name="Abreve" horiz-adv-x="604" unicode="&#258;" /><glyph d="M12 0ZM300 645 144 207H457ZM531 0 474 158H128L72 0H12L266 700H338L592 0ZM305 864 222 786H160V788L280 898H332L452 788V786H387Z" glyph-name="Acircumflex" horiz-adv-x="604" unicode="&#194;" /><glyph d="M12 0ZM300 645 144 207H457ZM531 0 474 158H128L72 0H12L266 700H338L592 0ZM336 840Q336 860 348 871Q360 882 380 882Q400 882 412 871Q424 860 424 840Q424 820 412 809Q400 798 380 798Q360 798 348 809Q336 820 336 840ZM184 840Q184 860 195.5 871Q207 882 227 882Q247 882 259 871Q271 860 271 840Q271 820 259 809Q247 798 227 798Q207 798 195.5 809Q184 820 184 840Z" glyph-name="Adieresis" horiz-adv-x="604" unicode="&#196;" /><glyph d="M12 0ZM300 645 144 207H457ZM531 0 474 158H128L72 0H12L266 700H338L592 0ZM286 787 179 894V899H253L334 790V787Z" glyph-name="Agrave" horiz-adv-x="604" unicode="&#192;" /><glyph d="M12 0ZM300 645 144 207H457ZM531 0 474 158H128L72 0H12L266 700H338L592 0ZM424 859V820H185V859Z" glyph-name="Amacron" horiz-adv-x="604" unicode="&#256;" /><glyph d="M524 17 474 158H128L71 0H12L266 700H338L592 0H569Q527 -5 498 -35Q469 -65 469 -105Q469 -138 487.5 -151Q506 -164 535 -164Q571 -164 599 -146L610 -182Q573 -204 530 -204Q510 -204 491.5 -199.5Q473 -195 458.5 -184.5Q444 -174 435 -156Q426 -138 426 -112Q426 -87 434.5 -65.5Q443 -44 456.5 -28Q470 -12 488 -0.5Q506 11 524 17ZM301 646 144 207H457Z" glyph-name="Aogonek" horiz-adv-x="604" unicode="&#260;" /><glyph d="M12 0ZM300 645 144 207H457ZM531 0 474 158H128L72 0H12L266 700H338L592 0ZM215 852Q215 893 240.5 917.5Q266 942 306 942Q344 942 369 917.5Q394 893 394 852Q394 812 368.5 787.5Q343 763 304 763Q266 763 240.5 787.5Q215 812 215 852ZM247 852Q247 826 263.5 808.5Q280 791 304 791Q329 791 345.5 808.5Q362 826 362 852Q362 879 345.5 896Q329 913 306 913Q280 913 263.5 896Q247 879 247 852Z" glyph-name="Aring" horiz-adv-x="604" unicode="&#197;" /><glyph d="M12 0ZM300 645 144 207H457ZM531 0 474 158H128L72 0H12L266 700H338L592 0ZM400 887H444Q445 861 438 844Q431 827 420 817.5Q409 808 395 804Q381 800 368 800Q347 800 330.5 807.5Q314 815 300 824.5Q286 834 272.5 841.5Q259 849 243 849Q227 849 217.5 838Q208 827 208 804H164Q163 829 169.5 846Q176 863 187 873Q198 883 211.5 887Q225 891 238 891Q260 891 276.5 883.5Q293 876 307.5 866.5Q322 857 335.5 849.5Q349 842 365 842Q400 842 400 887Z" glyph-name="Atilde" horiz-adv-x="604" unicode="&#195;" /><glyph d="M115 0V700H394Q447 700 485 687Q523 674 547 650.5Q571 627 582 594Q593 561 593 521Q593 462 563 420Q533 378 482 362Q517 356 542 340Q567 324 582.5 301.5Q598 279 605.5 251.5Q613 224 613 197Q613 99 558 49.5Q503 0 382 0ZM395 652H171V383H402Q436 383 461.5 394Q487 405 503.5 423.5Q520 442 528 466Q536 490 536 517Q536 586 498 619Q460 652 395 652ZM402 333H171V48H386Q472 48 514 83.5Q556 119 556 197Q556 260 518.5 296.5Q481 333 402 333Z" glyph-name="B" horiz-adv-x="674" unicode="B" /><glyph d="M385 -11Q311 -11 254 8.5Q197 28 158 71.5Q119 115 99 183.5Q79 252 79 350Q79 449 99 517.5Q119 586 158 629Q197 672 254 691.5Q311 711 385 711Q475 711 537.5 681Q600 651 636 581L590 550Q558 613 507.5 638Q457 663 385 663Q327 663 281 648Q235 633 203 597Q171 561 154 501Q137 441 137 351Q137 261 154 201Q171 141 203 104.5Q235 68 281 52.5Q327 37 385 37Q460 37 514 64Q568 91 604 160L647 131Q606 54 541 21.5Q476 -11 385 -11Z" glyph-name="C" horiz-adv-x="696" unicode="C" /><glyph glyph-name="CR" horiz-adv-x="176" unicode="" /><glyph d="M79 0ZM512 894 405 787H358V790L438 899H512ZM385 -11Q311 -11 254 8.5Q197 28 158 71.5Q119 115 99 183.5Q79 252 79 350Q79 449 99 517.5Q119 586 158 629Q197 672 254 691.5Q311 711 385 711Q475 711 537.5 681Q600 651 636 581L590 550Q558 613 507.5 638Q457 663 385 663Q327 663 281 648Q235 633 203 597Q171 561 154 501Q137 441 137 351Q137 261 154 201Q171 141 203 104.5Q235 68 281 52.5Q327 37 385 37Q460 37 514 64Q568 91 604 160L647 131Q606 54 541 21.5Q476 -11 385 -11Z" glyph-name="Cacute" horiz-adv-x="696" unicode="&#262;" /><glyph d="M79 0ZM385 822 469 899H531V897L411 787H359L239 897V899H303ZM385 -11Q311 -11 254 8.5Q197 28 158 71.5Q119 115 99 183.5Q79 252 79 350Q79 449 99 517.5Q119 586 158 629Q197 672 254 691.5Q311 711 385 711Q475 711 537.5 681Q600 651 636 581L590 550Q558 613 507.5 638Q457 663 385 663Q327 663 281 648Q235 633 203 597Q171 561 154 501Q137 441 137 351Q137 261 154 201Q171 141 203 104.5Q235 68 281 52.5Q327 37 385 37Q460 37 514 64Q568 91 604 160L647 131Q606 54 541 21.5Q476 -11 385 -11Z" glyph-name="Ccaron" horiz-adv-x="696" unicode="&#268;" /><glyph d="M371 -228Q336 -228 309.5 -215.5Q283 -203 265 -175L294 -149Q308 -172 324.5 -182.5Q341 -193 369 -193Q400 -193 417.5 -181Q435 -169 435 -146Q435 -122 418.5 -111.5Q402 -101 378 -101H366Q361 -101 354 -103L340 -92L360 -10Q292 -7 239.5 14.5Q187 36 151.5 79.5Q116 123 97.5 189.5Q79 256 79 350Q79 449 99 517.5Q119 586 158 629Q197 672 254 691.5Q311 711 385 711Q475 711 537.5 681Q600 651 636 581L590 550Q558 613 507.5 638Q457 663 385 663Q327 663 281 648Q235 633 203 597Q171 561 154 501Q137 441 137 351Q137 261 154 201Q171 141 203 104.5Q235 68 281 52.5Q327 37 385 37Q460 37 514 64Q568 91 604 160L647 131Q608 57 546 24Q484 -9 399 -11L385 -72H397Q428 -72 453 -89.5Q478 -107 478 -146Q478 -187 448 -207.5Q418 -228 371 -228Z" glyph-name="Ccedilla" horiz-adv-x="696" unicode="&#199;" /><glyph d="M79 0ZM387 865 304 787H242V789L362 899H414L534 789V787H469ZM385 -11Q311 -11 254 8.5Q197 28 158 71.5Q119 115 99 183.5Q79 252 79 350Q79 449 99 517.5Q119 586 158 629Q197 672 254 691.5Q311 711 385 711Q475 711 537.5 681Q600 651 636 581L590 550Q558 613 507.5 638Q457 663 385 663Q327 663 281 648Q235 633 203 597Q171 561 154 501Q137 441 137 351Q137 261 154 201Q171 141 203 104.5Q235 68 281 52.5Q327 37 385 37Q460 37 514 64Q568 91 604 160L647 131Q606 54 541 21.5Q476 -11 385 -11Z" glyph-name="Ccircumflex" horiz-adv-x="696" unicode="&#264;" /><glyph d="M79 0ZM385 -11Q311 -11 254 8.5Q197 28 158 71.5Q119 115 99 183.5Q79 252 79 350Q79 449 99 517.5Q119 586 158 629Q197 672 254 691.5Q311 711 385 711Q475 711 537.5 681Q600 651 636 581L590 550Q558 613 507.5 638Q457 663 385 663Q327 663 281 648Q235 633 203 597Q171 561 154 501Q137 441 137 351Q137 261 154 201Q171 141 203 104.5Q235 68 281 52.5Q327 37 385 37Q460 37 514 64Q568 91 604 160L647 131Q606 54 541 21.5Q476 -11 385 -11ZM343 841Q343 861 355 872Q367 883 388 883Q431 883 431 841Q431 799 388 799Q367 799 355 810Q343 821 343 841Z" glyph-name="Cdotaccent" horiz-adv-x="696" unicode="&#266;" /><glyph d="M368 0H115V700H369Q441 700 496 681Q551 662 588 620.5Q625 579 644 513.5Q663 448 663 356Q663 170 587 85Q511 0 368 0ZM173 49H366Q420 49 464.5 64.5Q509 80 540 116Q571 152 588 210.5Q605 269 605 355Q605 438 589 494.5Q573 551 542.5 586Q512 621 468.5 636Q425 651 370 651H173Z" glyph-name="D" horiz-adv-x="742" unicode="D" /><glyph d="M115 0ZM381 821 465 898H527V896L407 786H355L235 896V898H299ZM368 0H115V700H369Q441 700 496 681Q551 662 588 620.5Q625 579 644 513.5Q663 448 663 356Q663 170 587 85Q511 0 368 0ZM173 49H366Q420 49 464.5 64.5Q509 80 540 116Q571 152 588 210.5Q605 269 605 355Q605 438 589 494.5Q573 551 542.5 586Q512 621 468.5 636Q425 651 370 651H173Z" glyph-name="Dcaron" horiz-adv-x="742" unicode="&#270;" /><glyph d="M384 0H131V340H48V386H131V700H385Q457 700 512 681Q567 662 604.5 620.5Q642 579 661 513.5Q680 448 680 356Q680 263 660.5 195.5Q641 128 603.5 84.5Q566 41 510.5 20.5Q455 0 384 0ZM189 49H382Q436 49 480.5 64.5Q525 80 556.5 116Q588 152 605 210.5Q622 269 622 355Q622 438 605.5 494.5Q589 551 558.5 586Q528 621 484.5 636Q441 651 386 651H189V386H362V340H189Z" glyph-name="Dcroat" horiz-adv-x="758" unicode="&#272;" /><glyph d="M115 0V700H605V651H171V377H551V327H171V49H615V0Z" glyph-name="E" horiz-adv-x="653" unicode="E" /><glyph d="M115 0ZM496 893 389 786H342V789L422 898H496ZM115 0V700H605V651H171V377H551V327H171V49H615V0Z" glyph-name="Eacute" horiz-adv-x="653" unicode="&#201;" /><glyph d="M115 0ZM115 0V700H605V651H171V377H551V327H171V49H615V0ZM454 897H498Q498 865 489 843Q480 821 463.5 808Q447 795 422.5 789.5Q398 784 368 784Q338 784 314 789.5Q290 795 273.5 808Q257 821 248 843Q239 865 239 897H282Q282 853 304 837Q326 821 368 821Q410 821 432 837Q454 853 454 897Z" glyph-name="Ebreve" horiz-adv-x="653" unicode="&#276;" /><glyph d="M115 0ZM368 821 452 898H514V896L394 786H342L222 896V898H286ZM115 0V700H605V651H171V377H551V327H171V49H615V0Z" glyph-name="Ecaron" horiz-adv-x="653" unicode="&#282;" /><glyph d="M115 0ZM369 864 286 786H224V788L344 898H396L516 788V786H451ZM115 0V700H605V651H171V377H551V327H171V49H615V0Z" glyph-name="Ecircumflex" horiz-adv-x="653" unicode="&#202;" /><glyph d="M115 0ZM400 840Q400 860 412 871Q424 882 444 882Q464 882 476 871Q488 860 488 840Q488 820 476 809Q464 798 444 798Q424 798 412 809Q400 820 400 840ZM248 840Q248 860 259.5 871Q271 882 291 882Q311 882 323 871Q335 860 335 840Q335 820 323 809Q311 798 291 798Q271 798 259.5 809Q248 820 248 840ZM115 0V700H605V651H171V377H551V327H171V49H615V0Z" glyph-name="Edieresis" horiz-adv-x="653" unicode="&#203;" /><glyph d="M115 0ZM115 0V700H605V651H171V377H551V327H171V49H615V0ZM327 840Q327 860 339 871Q351 882 372 882Q415 882 415 840Q415 798 372 798Q351 798 339 809Q327 820 327 840Z" glyph-name="Edotaccent" horiz-adv-x="653" unicode="&#278;" /><glyph d="M115 0ZM115 0V700H605V651H171V377H551V327H171V49H615V0ZM350 787 243 894V899H317L398 790V787Z" glyph-name="Egrave" horiz-adv-x="653" unicode="&#200;" /><glyph d="M115 0ZM115 0V700H605V651H171V377H551V327H171V49H615V0ZM488 859V820H249V859Z" glyph-name="Emacron" horiz-adv-x="653" unicode="&#274;" /><glyph d="M602 -46V-4L169 616L171 0H115V700H175L604 86L603 700H659V-54Q659 -136 624.5 -173Q590 -210 530 -210Q511 -210 493.5 -207.5Q476 -205 456 -197L465 -150Q479 -156 492.5 -159Q506 -162 525 -162Q563 -162 582.5 -137Q602 -112 602 -46Z" glyph-name="Eng" horiz-adv-x="774" unicode="&#330;" /><glyph d="M115 0V700H605V651H172V377H551V327H172V49H615V0Q567 -5 537.5 -35Q508 -65 508 -105Q508 -138 526 -151Q544 -164 573 -164Q610 -164 638 -146L648 -182Q613 -204 569 -204Q549 -204 530.5 -199.5Q512 -195 497.5 -184.5Q483 -174 474.5 -156Q466 -138 466 -112Q466 -73 484.5 -44.5Q503 -16 529 0Z" glyph-name="Eogonek" horiz-adv-x="653" unicode="&#280;" /><glyph d="M384 0H131V340H48V386H131V700H385Q457 700 512 681Q567 662 604.5 620.5Q642 579 661 513.5Q680 448 680 356Q680 263 660.5 195.5Q641 128 603.5 84.5Q566 41 510.5 20.5Q455 0 384 0ZM189 49H382Q436 49 480.5 64.5Q525 80 556.5 116Q588 152 605 210.5Q622 269 622 355Q622 438 605.5 494.5Q589 551 558.5 586Q528 621 484.5 636Q441 651 386 651H189V386H362V340H189Z" glyph-name="Eth" horiz-adv-x="758" unicode="&#208;" /><glyph d="M382 -11Q320 -11 270 4.5Q220 20 183.5 53.5Q147 87 124 140.5Q101 194 94 270H9V315H91Q90 318 90 327V374H9V419H93Q99 498 121 553.5Q143 609 179.5 644Q216 679 267 695Q318 711 382 711Q470 711 530.5 680Q591 649 626 577L580 546Q549 612 500 638Q451 664 382 664Q333 664 293 651.5Q253 639 223 610.5Q193 582 174.5 535Q156 488 150 419H487L475 374H148V327Q148 318 149 315H457L445 270H153Q159 205 178 160.5Q197 116 226 88.5Q255 61 294.5 49Q334 37 382 37Q452 37 504 63.5Q556 90 590 155L634 127Q594 52 531.5 20.5Q469 -11 382 -11Z" glyph-name="Euro" horiz-adv-x="681" unicode="&#8364;" /><glyph d="M115 0V700H590V651H173V371H547V321H173V0Z" glyph-name="F" horiz-adv-x="607" unicode="F" /><glyph d="M376 -11Q305 -11 250 9.5Q195 30 157 74Q119 118 99 186.5Q79 255 79 350Q79 449 99 517.5Q119 586 158 629Q197 672 254 691.5Q311 711 385 711Q475 711 537 680.5Q599 650 635 583L589 551Q557 611 507 637Q457 663 385 663Q327 663 281 648.5Q235 634 203 598Q171 562 154 501.5Q137 441 137 350Q137 261 154 201Q171 141 202.5 104.5Q234 68 280 52.5Q326 37 383 37Q426 37 464.5 48.5Q503 60 533 86Q563 112 581 154.5Q599 197 602 260V285H394V331H656V0H607L603 127Q577 59 517.5 24Q458 -11 376 -11Z" glyph-name="G" horiz-adv-x="728" unicode="G" /><glyph d="M375 -11Q304 -11 249 9.5Q194 30 156.5 74Q119 118 99 186.5Q79 255 79 350Q79 449 99 517.5Q119 586 157.5 629Q196 672 253 691.5Q310 711 384 711Q475 711 537 680.5Q599 650 635 583L588 551Q556 611 506 637Q456 663 384 663Q326 663 280.5 648.5Q235 634 203 598Q171 562 154 501.5Q137 441 137 350Q137 261 154 201Q171 141 202.5 104.5Q234 68 279.5 52.5Q325 37 382 37Q432 37 472.5 50Q513 63 541.5 92.5Q570 122 585 169Q600 216 598 285H394V331H656V289Q656 205 636 147.5Q616 90 579.5 55Q543 20 491 4.5Q439 -11 375 -11Z" glyph-name="G.alt" horiz-adv-x="728" /><glyph d="M79 0ZM376 -11Q305 -11 250 9.5Q195 30 157 74Q119 118 99 186.5Q79 255 79 350Q79 449 99 517.5Q119 586 158 629Q197 672 254 691.5Q311 711 385 711Q475 711 537 680.5Q599 650 635 583L589 551Q557 611 507 637Q457 663 385 663Q327 663 281 648.5Q235 634 203 598Q171 562 154 501.5Q137 441 137 350Q137 261 154 201Q171 141 202.5 104.5Q234 68 280 52.5Q326 37 383 37Q426 37 464.5 48.5Q503 60 533 86Q563 112 581 154.5Q599 197 602 260V285H394V331H656V0H607L603 127Q577 59 517.5 24Q458 -11 376 -11ZM468 897H512Q512 865 503 843Q494 821 477.5 808Q461 795 436.5 789.5Q412 784 382 784Q352 784 328 789.5Q304 795 287.5 808Q271 821 262 843Q253 865 253 897H296Q296 853 318 837Q340 821 382 821Q424 821 446 837Q468 853 468 897Z" glyph-name="Gbreve" horiz-adv-x="728" unicode="&#286;" /><glyph d="M468 897H513Q513 833 478 808.5Q443 784 383 784Q321 784 287 808.5Q253 833 253 897H296Q296 853 318 837Q340 821 382 821Q424 821 446 837Q468 853 468 897ZM375 -11Q304 -11 249 9.5Q194 30 156.5 74Q119 118 99 186.5Q79 255 79 350Q79 449 99 517.5Q119 586 157.5 629Q196 672 253 691.5Q310 711 384 711Q475 711 537 680.5Q599 650 635 583L588 551Q556 611 506 637Q456 663 384 663Q326 663 280.5 648.5Q235 634 203 598Q171 562 154 501.5Q137 441 137 350Q137 261 154 201Q171 141 202.5 104.5Q234 68 279.5 52.5Q325 37 382 37Q432 37 472.5 50Q513 63 541.5 92.5Q570 122 585 169Q600 216 598 285H394V331H656V289Q656 205 636 147.5Q616 90 579.5 55Q543 20 491 4.5Q439 -11 375 -11Z" glyph-name="Gbreve.alt" horiz-adv-x="728" /><glyph d="M79 0ZM384 864 301 786H239V788L359 898H411L531 788V786H466ZM376 -11Q305 -11 250 9.5Q195 30 157 74Q119 118 99 186.5Q79 255 79 350Q79 449 99 517.5Q119 586 158 629Q197 672 254 691.5Q311 711 385 711Q475 711 537 680.5Q599 650 635 583L589 551Q557 611 507 637Q457 663 385 663Q327 663 281 648.5Q235 634 203 598Q171 562 154 501.5Q137 441 137 350Q137 261 154 201Q171 141 202.5 104.5Q234 68 280 52.5Q326 37 383 37Q426 37 464.5 48.5Q503 60 533 86Q563 112 581 154.5Q599 197 602 260V285H394V331H656V0H607L603 127Q577 59 517.5 24Q458 -11 376 -11Z" glyph-name="Gcircumflex" horiz-adv-x="728" unicode="&#284;" /><glyph d="M385 865 301 786H239V789L359 898H411L532 789V786H466ZM375 -11Q304 -11 249 9.5Q194 30 156.5 74Q119 118 99 186.5Q79 255 79 350Q79 449 99 517.5Q119 586 157.5 629Q196 672 253 691.5Q310 711 384 711Q475 711 537 680.5Q599 650 635 583L588 551Q556 611 506 637Q456 663 384 663Q326 663 280.5 648.5Q235 634 203 598Q171 562 154 501.5Q137 441 137 350Q137 261 154 201Q171 141 202.5 104.5Q234 68 279.5 52.5Q325 37 382 37Q432 37 472.5 50Q513 63 541.5 92.5Q570 122 585 169Q600 216 598 285H394V331H656V289Q656 205 636 147.5Q616 90 579.5 55Q543 20 491 4.5Q439 -11 375 -11Z" glyph-name="Gcircumflex.alt" horiz-adv-x="728" /><glyph d="M79 0ZM349 -255 337 -229Q361 -219 374 -197.5Q387 -176 389 -148Q363 -152 350.5 -139Q338 -126 338 -108Q338 -88 349 -78Q360 -68 379 -68Q400 -68 412.5 -82Q425 -96 425 -129Q425 -172 406.5 -207.5Q388 -243 349 -255ZM376 -11Q305 -11 250 9.5Q195 30 157 74Q119 118 99 186.5Q79 255 79 350Q79 449 99 517.5Q119 586 158 629Q197 672 254 691.5Q311 711 385 711Q475 711 537 680.5Q599 650 635 583L589 551Q557 611 507 637Q457 663 385 663Q327 663 281 648.5Q235 634 203 598Q171 562 154 501.5Q137 441 137 350Q137 261 154 201Q171 141 202.5 104.5Q234 68 280 52.5Q326 37 383 37Q426 37 464.5 48.5Q503 60 533 86Q563 112 581 154.5Q599 197 602 260V285H394V331H656V0H607L603 127Q577 59 517.5 24Q458 -11 376 -11Z" glyph-name="Gcommaaccent" horiz-adv-x="728" unicode="&#290;" /><glyph d="M375 -11Q304 -11 249 9.5Q194 30 156.5 74Q119 118 99 186.5Q79 255 79 350Q79 449 99 517.5Q119 586 157.5 629Q196 672 253 691.5Q310 711 384 711Q475 711 537 680.5Q599 650 635 583L588 551Q556 611 506 637Q456 663 384 663Q326 663 280.5 648.5Q235 634 203 598Q171 562 154 501.5Q137 441 137 350Q137 261 154 201Q171 141 202.5 104.5Q234 68 279.5 52.5Q325 37 382 37Q432 37 472.5 50Q513 63 541.5 92.5Q570 122 585 169Q600 216 598 285H394V331H656V289Q656 205 636 147.5Q616 90 579.5 55Q543 20 491 4.5Q439 -11 375 -11ZM349 -255 337 -229Q361 -219 374 -197Q387 -175 389 -147Q387 -149 384 -149H381Q361 -149 349 -138.5Q337 -128 337 -108Q337 -88 348.5 -78Q360 -68 379 -68Q400 -68 412 -82Q424 -96 424 -129Q424 -172 406 -207.5Q388 -243 349 -255Z" glyph-name="Gcommaaccent.alt" horiz-adv-x="728" /><glyph d="M79 0ZM376 -11Q305 -11 250 9.5Q195 30 157 74Q119 118 99 186.5Q79 255 79 350Q79 449 99 517.5Q119 586 158 629Q197 672 254 691.5Q311 711 385 711Q475 711 537 680.5Q599 650 635 583L589 551Q557 611 507 637Q457 663 385 663Q327 663 281 648.5Q235 634 203 598Q171 562 154 501.5Q137 441 137 350Q137 261 154 201Q171 141 202.5 104.5Q234 68 280 52.5Q326 37 383 37Q426 37 464.5 48.5Q503 60 533 86Q563 112 581 154.5Q599 197 602 260V285H394V331H656V0H607L603 127Q577 59 517.5 24Q458 -11 376 -11ZM341 840Q341 860 353 871Q365 882 386 882Q429 882 429 840Q429 798 386 798Q365 798 353 809Q341 820 341 840Z" glyph-name="Gdotaccent" horiz-adv-x="728" unicode="&#288;" /><glyph d="M341 841Q341 861 353 871.5Q365 882 386 882Q429 882 429 841Q429 798 386 798Q365 798 353 809Q341 820 341 841ZM375 -11Q304 -11 249 9.5Q194 30 156.5 74Q119 118 99 186.5Q79 255 79 350Q79 449 99 517.5Q119 586 157.5 629Q196 672 253 691.5Q310 711 384 711Q475 711 537 680.5Q599 650 635 583L588 551Q556 611 506 637Q456 663 384 663Q326 663 280.5 648.5Q235 634 203 598Q171 562 154 501.5Q137 441 137 350Q137 261 154 201Q171 141 202.5 104.5Q234 68 279.5 52.5Q325 37 382 37Q432 37 472.5 50Q513 63 541.5 92.5Q570 122 585 169Q600 216 598 285H394V331H656V289Q656 205 636 147.5Q616 90 579.5 55Q543 20 491 4.5Q439 -11 375 -11Z" glyph-name="Gdotaccent.alt" horiz-adv-x="728" /><glyph d="M610 0V327H173V0H115V700H173V377H610V700H668V0Z" glyph-name="H" horiz-adv-x="783" unicode="H" /><glyph d="M179 377H616V500H179ZM616 0V327H179V0H121V500H45V541H121V700H179V541H616V700H674V541H754V500H674V0Z" glyph-name="Hbar" horiz-adv-x="795" unicode="&#294;" /><glyph d="M115 0ZM392 865 309 787H247V789L367 899H419L539 789V787H474ZM610 0V327H173V0H115V700H173V377H610V700H668V0Z" glyph-name="Hcircumflex" horiz-adv-x="783" unicode="&#292;" /><glyph d="M115 0V700H173V0Z" glyph-name="I" horiz-adv-x="288" unicode="I" /><glyph d="M115 0ZM115 0V700H173V0ZM460 -11Q418 -11 381.5 -0.5Q345 10 314 33L341 78Q366 58 397.5 48Q429 38 464 38Q504 38 536.5 50Q569 62 592 87.5Q615 113 627.5 154Q640 195 640 253V700H697V257Q697 183 680 131.5Q663 80 632 48.5Q601 17 557 3Q513 -11 460 -11Z" glyph-name="IJ" horiz-adv-x="791" unicode="&#306;" /><glyph d="M115 0ZM115 0V700H173V0ZM271 893 164 786H117V789L197 898H271Z" glyph-name="Iacute" horiz-adv-x="288" unicode="&#205;" /><glyph d="M14 0ZM115 0V700H173V0ZM229 897H273Q273 865 264 843Q255 821 238.5 808Q222 795 197.5 789.5Q173 784 143 784Q113 784 89 789.5Q65 795 48.5 808Q32 821 23 843Q14 865 14 897H57Q57 853 79 837Q101 821 143 821Q185 821 207 837Q229 853 229 897Z" glyph-name="Ibreve" horiz-adv-x="288" unicode="&#300;" /><glyph d="M0 0ZM115 0V700H173V0ZM144 864 61 786H-1V788L119 898H171L291 788V786H226Z" glyph-name="Icircumflex" horiz-adv-x="288" unicode="&#206;" /><glyph d="M24 0ZM115 0V700H173V0ZM176 840Q176 860 188 871Q200 882 220 882Q240 882 252 871Q264 860 264 840Q264 820 252 809Q240 798 220 798Q200 798 188 809Q176 820 176 840ZM24 840Q24 860 35.5 871Q47 882 67 882Q87 882 99 871Q111 860 111 840Q111 820 99 809Q87 798 67 798Q47 798 35.5 809Q24 820 24 840Z" glyph-name="Idieresis" horiz-adv-x="288" unicode="&#207;" /><glyph d="M102 0ZM115 0V700H173V0ZM102 840Q102 860 114 871Q126 882 147 882Q190 882 190 840Q190 798 147 798Q126 798 114 809Q102 820 102 840Z" glyph-name="Idotaccent" horiz-adv-x="288" unicode="&#304;" /><glyph d="M19 0ZM115 0V700H173V0ZM126 787 19 894V899H93L174 790V787Z" glyph-name="Igrave" horiz-adv-x="288" unicode="&#204;" /><glyph d="M25 0ZM115 0V700H173V0ZM264 859V820H25V859Z" glyph-name="Imacron" horiz-adv-x="288" unicode="&#298;" /><glyph d="M109 -204Q89 -204 70 -199.5Q51 -195 37 -184.5Q23 -174 14.5 -156Q6 -138 6 -112Q6 -84 15.5 -61.5Q25 -39 40 -22.5Q55 -6 74.5 5Q94 16 115 21V700H173V0H147Q126 -2 108 -11.5Q90 -21 76.5 -35Q63 -49 55.5 -67Q48 -85 48 -105Q48 -138 66 -151Q84 -164 113 -164Q150 -164 178 -146L188 -182Q153 -204 109 -204Z" glyph-name="Iogonek" horiz-adv-x="288" unicode="&#302;" /><glyph d="M3 0ZM115 0V700H173V0ZM240 887H284Q285 861 278 844Q271 827 260 817.5Q249 808 235 804Q221 800 208 800Q187 800 170.5 807.5Q154 815 140 824.5Q126 834 112.5 841.5Q99 849 83 849Q67 849 57.5 838Q48 827 48 804H4Q3 829 9.5 846Q16 863 27 873Q38 883 51.5 887Q65 891 78 891Q100 891 116.5 883.5Q133 876 147.5 866.5Q162 857 175.5 849.5Q189 842 205 842Q240 842 240 887Z" glyph-name="Itilde" horiz-adv-x="288" unicode="&#296;" /><glyph d="M169 -11Q127 -11 90.5 -0.5Q54 10 23 33L50 78Q75 58 106.5 48Q138 38 173 38Q213 38 245.5 50Q278 62 301 87.5Q324 113 336.5 154Q349 195 349 253V700H406V257Q406 183 389 131.5Q372 80 341 48.5Q310 17 266 3Q222 -11 169 -11Z" glyph-name="J" horiz-adv-x="501" unicode="J" /><glyph d="M23 0ZM379 864 296 786H234V788L354 898H406L526 788V786H461ZM169 -11Q127 -11 90.5 -0.5Q54 10 23 33L50 78Q75 58 106.5 48Q138 38 173 38Q213 38 245.5 50Q278 62 301 87.5Q324 113 336.5 154Q349 195 349 253V700H406V257Q406 183 389 131.5Q372 80 341 48.5Q310 17 266 3Q222 -11 169 -11Z" glyph-name="Jcircumflex" horiz-adv-x="501" unicode="&#308;" /><glyph d="M115 0V700H173V282L531 700H600L329 386L619 0H550L291 344L173 208V0Z" glyph-name="K" horiz-adv-x="626" unicode="K" /><glyph d="M543 0 191 342V345L527 700H594L261 348L617 0ZM114 0V700H173V0Z" glyph-name="K.alt" horiz-adv-x="620" /><glyph d="M115 0ZM317 -255 305 -229Q329 -219 342 -197.5Q355 -176 357 -148Q331 -152 318.5 -139Q306 -126 306 -108Q306 -88 317 -78Q328 -68 347 -68Q368 -68 380.5 -82Q393 -96 393 -129Q393 -172 374.5 -207.5Q356 -243 317 -255ZM115 0V700H173V282L531 700H600L329 386L619 0H550L291 344L173 208V0Z" glyph-name="Kcommaaccent" horiz-adv-x="626" unicode="&#310;" /><glyph d="M114 0ZM317 -255 305 -229Q329 -219 342 -197.5Q355 -176 357 -148Q331 -152 318.5 -139Q306 -126 306 -108Q306 -88 317 -78Q328 -68 347 -68Q368 -68 380.5 -82Q393 -96 393 -129Q393 -172 374.5 -207.5Q356 -243 317 -255ZM543 0 191 342V345L527 700H594L261 348L617 0ZM114 0V700H173V0Z" glyph-name="Kcommaaccent.alt" horiz-adv-x="620" /><glyph d="M173 49H595V0H115V700H173Z" glyph-name="L" horiz-adv-x="619" unicode="L" /><glyph d="M115 0ZM270 893 163 786H116V789L196 898H270ZM173 49H595V0H115V700H173Z" glyph-name="Lacute" horiz-adv-x="619" unicode="&#313;" /><glyph d="M115 0ZM433 500H394L401 700H458ZM173 49H595V0H115V700H173Z" glyph-name="Lcaron" horiz-adv-x="619" unicode="&#317;" /><glyph d="M115 0ZM324 -255 312 -229Q336 -219 349 -197.5Q362 -176 364 -148Q338 -152 325.5 -139Q313 -126 313 -108Q313 -88 324 -78Q335 -68 354 -68Q375 -68 387.5 -82Q400 -96 400 -129Q400 -172 381.5 -207.5Q363 -243 324 -255ZM173 49H595V0H115V700H173Z" glyph-name="Lcommaaccent" horiz-adv-x="619" unicode="&#315;" /><glyph d="M115 0ZM173 49H595V0H115V700H173ZM391 355Q391 375 403 386Q415 397 436 397Q479 397 479 355Q479 313 436 313Q415 313 403 324Q391 335 391 355Z" glyph-name="Ldot" horiz-adv-x="619" unicode="&#319;" /><glyph d="M193 49H615V0H135V282L25 207V261L135 336V700H193V373L368 491V437L193 319Z" glyph-name="Lslash" horiz-adv-x="639" unicode="&#321;" /><glyph d="M446 0 169 603 170 0H115V700H179L469 67L759 700H822V0H767L769 603L492 0Z" glyph-name="M" horiz-adv-x="938" unicode="M" /><glyph d="M599 0 169 616 171 0H115V700H175L604 86L603 700H659V0Z" glyph-name="N" horiz-adv-x="774" unicode="N" /><glyph glyph-name="NULL" horiz-adv-x="176" /><glyph d="M115 0ZM513 893 406 786H359V789L439 898H513ZM599 0 169 616 171 0H115V700H175L604 86L603 700H659V0Z" glyph-name="Nacute" horiz-adv-x="774" unicode="&#323;" /><glyph d="M115 0ZM386 821 470 898H532V896L412 786H360L240 896V898H304ZM599 0 169 616 171 0H115V700H175L604 86L603 700H659V0Z" glyph-name="Ncaron" horiz-adv-x="774" unicode="&#327;" /><glyph d="M115 0ZM356 -255 344 -229Q368 -219 381 -197.5Q394 -176 396 -148Q370 -152 357.5 -139Q345 -126 345 -108Q345 -88 356 -78Q367 -68 386 -68Q407 -68 419.5 -82Q432 -96 432 -129Q432 -172 413.5 -207.5Q395 -243 356 -255ZM599 0 169 616 171 0H115V700H175L604 86L603 700H659V0Z" glyph-name="Ncommaaccent" horiz-adv-x="774" unicode="&#325;" /><glyph d="M115 0ZM599 0 169 616 171 0H115V700H175L604 86L603 700H659V0ZM481 887H525Q526 861 519 844Q512 827 501 817.5Q490 808 476 804Q462 800 449 800Q428 800 411.5 807.5Q395 815 381 824.5Q367 834 353.5 841.5Q340 849 324 849Q308 849 298.5 838Q289 827 289 804H245Q244 829 250.5 846Q257 863 268 873Q279 883 292.5 887Q306 891 319 891Q341 891 357.5 883.5Q374 876 388.5 866.5Q403 857 416.5 849.5Q430 842 446 842Q481 842 481 887Z" glyph-name="Ntilde" horiz-adv-x="774" unicode="&#209;" /><glyph d="M384 -11Q309 -11 251.5 9Q194 29 156 72.5Q118 116 98.5 184.5Q79 253 79 350Q79 447 98.5 515.5Q118 584 156.5 627.5Q195 671 252 691Q309 711 384 711Q461 711 518.5 691Q576 671 614.5 627.5Q653 584 672 515.5Q691 447 691 350Q691 253 671 184.5Q651 116 612.5 72.5Q574 29 516.5 9Q459 -11 384 -11ZM384 663Q325 663 279 648Q233 633 201.5 596.5Q170 560 153.5 500Q137 440 137 350Q137 261 153.5 201.5Q170 142 201.5 105Q233 68 279 52.5Q325 37 384 37Q443 37 489.5 52.5Q536 68 568 104.5Q600 141 616.5 201Q633 261 633 351Q633 439 616.5 499Q600 559 568 595.5Q536 632 489.5 647.5Q443 663 384 663Z" glyph-name="O" horiz-adv-x="769" unicode="O" /><glyph d="M1065 0H375Q229 0 153.5 85Q78 170 78 356Q78 448 97 513.5Q116 579 153.5 620.5Q191 662 247 681Q303 700 376 700H1055V651H626V377H1001V327H626V49H1065ZM377 49H569V651H375Q319 651 274.5 636Q230 621 199.5 586Q169 551 152.5 494.5Q136 438 136 355Q136 269 153 210.5Q170 152 201 116Q232 80 276.5 64.5Q321 49 377 49Z" glyph-name="OE" horiz-adv-x="1103" unicode="&#338;" /><glyph d="M79 0ZM511 893 404 786H357V789L437 898H511ZM384 -11Q309 -11 251.5 9Q194 29 156 72.5Q118 116 98.5 184.5Q79 253 79 350Q79 447 98.5 515.5Q118 584 156.5 627.5Q195 671 252 691Q309 711 384 711Q461 711 518.5 691Q576 671 614.5 627.5Q653 584 672 515.5Q691 447 691 350Q691 253 671 184.5Q651 116 612.5 72.5Q574 29 516.5 9Q459 -11 384 -11ZM384 663Q325 663 279 648Q233 633 201.5 596.5Q170 560 153.5 500Q137 440 137 350Q137 261 153.5 201.5Q170 142 201.5 105Q233 68 279 52.5Q325 37 384 37Q443 37 489.5 52.5Q536 68 568 104.5Q600 141 616.5 201Q633 261 633 351Q633 439 616.5 499Q600 559 568 595.5Q536 632 489.5 647.5Q443 663 384 663Z" glyph-name="Oacute" horiz-adv-x="769" unicode="&#211;" /><glyph d="M79 0ZM384 -11Q309 -11 251.5 9Q194 29 156 72.5Q118 116 98.5 184.5Q79 253 79 350Q79 447 98.5 515.5Q118 584 156.5 627.5Q195 671 252 691Q309 711 384 711Q461 711 518.5 691Q576 671 614.5 627.5Q653 584 672 515.5Q691 447 691 350Q691 253 671 184.5Q651 116 612.5 72.5Q574 29 516.5 9Q459 -11 384 -11ZM384 663Q325 663 279 648Q233 633 201.5 596.5Q170 560 153.5 500Q137 440 137 350Q137 261 153.5 201.5Q170 142 201.5 105Q233 68 279 52.5Q325 37 384 37Q443 37 489.5 52.5Q536 68 568 104.5Q600 141 616.5 201Q633 261 633 351Q633 439 616.5 499Q600 559 568 595.5Q536 632 489.5 647.5Q443 663 384 663ZM469 897H513Q513 865 504 843Q495 821 478.5 808Q462 795 437.5 789.5Q413 784 383 784Q353 784 329 789.5Q305 795 288.5 808Q272 821 263 843Q254 865 254 897H297Q297 853 319 837Q341 821 383 821Q425 821 447 837Q469 853 469 897Z" glyph-name="Obreve" horiz-adv-x="769" unicode="&#334;" /><glyph d="M79 0ZM385 864 302 786H240V788L360 898H412L532 788V786H467ZM384 -11Q309 -11 251.5 9Q194 29 156 72.5Q118 116 98.5 184.5Q79 253 79 350Q79 447 98.5 515.5Q118 584 156.5 627.5Q195 671 252 691Q309 711 384 711Q461 711 518.5 691Q576 671 614.5 627.5Q653 584 672 515.5Q691 447 691 350Q691 253 671 184.5Q651 116 612.5 72.5Q574 29 516.5 9Q459 -11 384 -11ZM384 663Q325 663 279 648Q233 633 201.5 596.5Q170 560 153.5 500Q137 440 137 350Q137 261 153.5 201.5Q170 142 201.5 105Q233 68 279 52.5Q325 37 384 37Q443 37 489.5 52.5Q536 68 568 104.5Q600 141 616.5 201Q633 261 633 351Q633 439 616.5 499Q600 559 568 595.5Q536 632 489.5 647.5Q443 663 384 663Z" glyph-name="Ocircumflex" horiz-adv-x="769" unicode="&#212;" /><glyph d="M79 0ZM417 840Q417 860 429 871Q441 882 461 882Q481 882 493 871Q505 860 505 840Q505 820 493 809Q481 798 461 798Q441 798 429 809Q417 820 417 840ZM265 840Q265 860 276.5 871Q288 882 308 882Q328 882 340 871Q352 860 352 840Q352 820 340 809Q328 798 308 798Q288 798 276.5 809Q265 820 265 840ZM384 -11Q309 -11 251.5 9Q194 29 156 72.5Q118 116 98.5 184.5Q79 253 79 350Q79 447 98.5 515.5Q118 584 156.5 627.5Q195 671 252 691Q309 711 384 711Q461 711 518.5 691Q576 671 614.5 627.5Q653 584 672 515.5Q691 447 691 350Q691 253 671 184.5Q651 116 612.5 72.5Q574 29 516.5 9Q459 -11 384 -11ZM384 663Q325 663 279 648Q233 633 201.5 596.5Q170 560 153.5 500Q137 440 137 350Q137 261 153.5 201.5Q170 142 201.5 105Q233 68 279 52.5Q325 37 384 37Q443 37 489.5 52.5Q536 68 568 104.5Q600 141 616.5 201Q633 261 633 351Q633 439 616.5 499Q600 559 568 595.5Q536 632 489.5 647.5Q443 663 384 663Z" glyph-name="Odieresis" horiz-adv-x="769" unicode="&#214;" /><glyph d="M79 0ZM384 -11Q309 -11 251.5 9Q194 29 156 72.5Q118 116 98.5 184.5Q79 253 79 350Q79 447 98.5 515.5Q118 584 156.5 627.5Q195 671 252 691Q309 711 384 711Q461 711 518.5 691Q576 671 614.5 627.5Q653 584 672 515.5Q691 447 691 350Q691 253 671 184.5Q651 116 612.5 72.5Q574 29 516.5 9Q459 -11 384 -11ZM384 663Q325 663 279 648Q233 633 201.5 596.5Q170 560 153.5 500Q137 440 137 350Q137 261 153.5 201.5Q170 142 201.5 105Q233 68 279 52.5Q325 37 384 37Q443 37 489.5 52.5Q536 68 568 104.5Q600 141 616.5 201Q633 261 633 351Q633 439 616.5 499Q600 559 568 595.5Q536 632 489.5 647.5Q443 663 384 663ZM367 788 260 895V900H334L415 791V788Z" glyph-name="Ograve" horiz-adv-x="769" unicode="&#210;" /><glyph d="M79 0ZM565 893 455 786H409V789L490 898H565ZM435 893 342 786H296V789L367 898H435ZM384 -11Q309 -11 251.5 9Q194 29 156 72.5Q118 116 98.5 184.5Q79 253 79 350Q79 447 98.5 515.5Q118 584 156.5 627.5Q195 671 252 691Q309 711 384 711Q461 711 518.5 691Q576 671 614.5 627.5Q653 584 672 515.5Q691 447 691 350Q691 253 671 184.5Q651 116 612.5 72.5Q574 29 516.5 9Q459 -11 384 -11ZM384 663Q325 663 279 648Q233 633 201.5 596.5Q170 560 153.5 500Q137 440 137 350Q137 261 153.5 201.5Q170 142 201.5 105Q233 68 279 52.5Q325 37 384 37Q443 37 489.5 52.5Q536 68 568 104.5Q600 141 616.5 201Q633 261 633 351Q633 439 616.5 499Q600 559 568 595.5Q536 632 489.5 647.5Q443 663 384 663Z" glyph-name="Ohungarumlaut" horiz-adv-x="769" unicode="&#336;" /><glyph d="M79 0ZM505 859V820H266V859ZM384 -11Q309 -11 251.5 9Q194 29 156 72.5Q118 116 98.5 184.5Q79 253 79 350Q79 447 98.5 515.5Q118 584 156.5 627.5Q195 671 252 691Q309 711 384 711Q461 711 518.5 691Q576 671 614.5 627.5Q653 584 672 515.5Q691 447 691 350Q691 253 671 184.5Q651 116 612.5 72.5Q574 29 516.5 9Q459 -11 384 -11ZM384 663Q325 663 279 648Q233 633 201.5 596.5Q170 560 153.5 500Q137 440 137 350Q137 261 153.5 201.5Q170 142 201.5 105Q233 68 279 52.5Q325 37 384 37Q443 37 489.5 52.5Q536 68 568 104.5Q600 141 616.5 201Q633 261 633 351Q633 439 616.5 499Q600 559 568 595.5Q536 632 489.5 647.5Q443 663 384 663Z" glyph-name="Omacron" horiz-adv-x="769" unicode="&#332;" /><glyph d="M113 0H50L138 100Q110 144 96 205Q82 266 82 350Q82 447 101.5 515.5Q121 584 160 627.5Q199 671 256 691Q313 711 388 711Q460 711 515.5 693Q571 675 609 634L667 700H728L639 598Q666 554 680 493.5Q694 433 694 350Q694 253 674 184.5Q654 116 615.5 72.5Q577 29 520 9Q463 -11 388 -11Q316 -11 261.5 7Q207 25 169 64ZM573 593Q541 631 494.5 647Q448 663 388 663Q329 663 282.5 648Q236 633 204.5 596.5Q173 560 156.5 500Q140 440 140 350Q140 282 149.5 232Q159 182 179 146ZM205 104Q237 68 282.5 52.5Q328 37 388 37Q447 37 493 52.5Q539 68 571 104.5Q603 141 619.5 201Q636 261 636 351Q636 417 626.5 466.5Q617 516 598 551Z" glyph-name="Oslash" horiz-adv-x="775" unicode="&#216;" /><glyph d="M79 0ZM384 -11Q309 -11 251.5 9Q194 29 156 72.5Q118 116 98.5 184.5Q79 253 79 350Q79 447 98.5 515.5Q118 584 156.5 627.5Q195 671 252 691Q309 711 384 711Q461 711 518.5 691Q576 671 614.5 627.5Q653 584 672 515.5Q691 447 691 350Q691 253 671 184.5Q651 116 612.5 72.5Q574 29 516.5 9Q459 -11 384 -11ZM384 663Q325 663 279 648Q233 633 201.5 596.5Q170 560 153.5 500Q137 440 137 350Q137 261 153.5 201.5Q170 142 201.5 105Q233 68 279 52.5Q325 37 384 37Q443 37 489.5 52.5Q536 68 568 104.5Q600 141 616.5 201Q633 261 633 351Q633 439 616.5 499Q600 559 568 595.5Q536 632 489.5 647.5Q443 663 384 663ZM480 887H524Q525 861 518 844Q511 827 500 817.5Q489 808 475 804Q461 800 448 800Q427 800 410.5 807.5Q394 815 380 824.5Q366 834 352.5 841.5Q339 849 323 849Q307 849 297.5 838Q288 827 288 804H244Q243 829 249.5 846Q256 863 267 873Q278 883 291.5 887Q305 891 318 891Q340 891 356.5 883.5Q373 876 387.5 866.5Q402 857 415.5 849.5Q429 842 445 842Q480 842 480 887Z" glyph-name="Otilde" horiz-adv-x="769" unicode="&#213;" /><glyph d="M115 0V700H380Q502 700 558 645Q614 590 614 484Q614 380 556.5 319Q499 258 378 258H173V0ZM381 651H173V307H385Q465 307 510.5 350.5Q556 394 556 482Q556 569 513.5 610Q471 651 381 651Z" glyph-name="P" horiz-adv-x="668" unicode="P" /><glyph d="M549 23 641 -92H575L499 3Q446 -11 384 -11Q309 -11 251.5 9Q194 29 156 72.5Q118 116 98.5 184.5Q79 253 79 350Q79 447 98.5 515.5Q118 584 156.5 627.5Q195 671 252 691Q309 711 384 711Q461 711 518.5 691Q576 671 614.5 627.5Q653 584 672 515.5Q691 447 691 350Q691 219 655 139.5Q619 60 549 23ZM384 663Q325 663 279 648Q233 633 201.5 596.5Q170 560 153.5 500Q137 440 137 350Q137 261 153.5 201.5Q170 142 201.5 105Q233 68 279 52.5Q325 37 384 37Q406 37 426 38.5Q446 40 465 45L366 170H433L517 64Q574 94 603.5 162Q633 230 633 351Q633 439 616.5 499Q600 559 568 595.5Q536 632 489.5 647.5Q443 663 384 663Z" glyph-name="Q" horiz-adv-x="768" unicode="Q" /><glyph d="M380 651H173V328H384Q463 328 508 368.5Q553 409 553 492Q553 651 380 651ZM115 0V700H379Q500 700 555 648Q610 596 610 494Q610 415 574 361.5Q538 308 463 288L620 0H557L404 279Q399 278 388 278H173V0Z" glyph-name="R" horiz-adv-x="664" unicode="R" /><glyph d="M115 0ZM489 893 382 786H335V789L415 898H489ZM380 651H173V328H384Q463 328 508 368.5Q553 409 553 492Q553 651 380 651ZM115 0V700H379Q500 700 555 648Q610 596 610 494Q610 415 574 361.5Q538 308 463 288L620 0H557L404 279Q399 278 388 278H173V0Z" glyph-name="Racute" horiz-adv-x="664" unicode="&#340;" /><glyph d="M115 0ZM362 821 446 898H508V896L388 786H336L216 896V898H280ZM380 651H173V328H384Q463 328 508 368.5Q553 409 553 492Q553 651 380 651ZM115 0V700H379Q500 700 555 648Q610 596 610 494Q610 415 574 361.5Q538 308 463 288L620 0H557L404 279Q399 278 388 278H173V0Z" glyph-name="Rcaron" horiz-adv-x="664" unicode="&#344;" /><glyph d="M115 0ZM312 -255 300 -229Q324 -219 337 -197.5Q350 -176 352 -148Q326 -152 313.5 -139Q301 -126 301 -108Q301 -88 312 -78Q323 -68 342 -68Q363 -68 375.5 -82Q388 -96 388 -129Q388 -172 369.5 -207.5Q351 -243 312 -255ZM380 651H173V328H384Q463 328 508 368.5Q553 409 553 492Q553 651 380 651ZM115 0V700H379Q500 700 555 648Q610 596 610 494Q610 415 574 361.5Q538 308 463 288L620 0H557L404 279Q399 278 388 278H173V0Z" glyph-name="Rcommaaccent" horiz-adv-x="664" unicode="&#342;" /><glyph d="M538 587 491 558Q461 612 416.5 638.5Q372 665 298 665Q205 665 163 627.5Q121 590 121 530Q121 478 156.5 444Q192 410 276 390L339 375Q397 361 438.5 343.5Q480 326 505.5 303.5Q531 281 543 251.5Q555 222 555 184Q555 91 490.5 40Q426 -11 304 -11Q213 -11 148 19Q83 49 39 121L85 151Q105 120 126.5 98Q148 76 174 62.5Q200 49 231.5 42.5Q263 36 303 36Q406 36 452.5 74.5Q499 113 499 180Q499 206 491.5 226.5Q484 247 464.5 263.5Q445 280 412.5 294Q380 308 331 320L266 336Q166 361 115.5 406Q65 451 65 528Q65 610 124 660.5Q183 711 299 711Q391 711 446.5 680Q502 649 538 587Z" glyph-name="S" horiz-adv-x="616" unicode="S" /><glyph d="M39 0ZM425 893 318 786H271V789L351 898H425ZM538 587 491 558Q461 612 416.5 638.5Q372 665 298 665Q205 665 163 627.5Q121 590 121 530Q121 478 156.5 444Q192 410 276 390L339 375Q397 361 438.5 343.5Q480 326 505.5 303.5Q531 281 543 251.5Q555 222 555 184Q555 91 490.5 40Q426 -11 304 -11Q213 -11 148 19Q83 49 39 121L85 151Q105 120 126.5 98Q148 76 174 62.5Q200 49 231.5 42.5Q263 36 303 36Q406 36 452.5 74.5Q499 113 499 180Q499 206 491.5 226.5Q484 247 464.5 263.5Q445 280 412.5 294Q380 308 331 320L266 336Q166 361 115.5 406Q65 451 65 528Q65 610 124 660.5Q183 711 299 711Q391 711 446.5 680Q502 649 538 587Z" glyph-name="Sacute" horiz-adv-x="616" unicode="&#346;" /><glyph d="M39 0ZM298 821 382 898H444V896L324 786H272L152 896V898H216ZM538 587 491 558Q461 612 416.5 638.5Q372 665 298 665Q205 665 163 627.5Q121 590 121 530Q121 478 156.5 444Q192 410 276 390L339 375Q397 361 438.5 343.5Q480 326 505.5 303.5Q531 281 543 251.5Q555 222 555 184Q555 91 490.5 40Q426 -11 304 -11Q213 -11 148 19Q83 49 39 121L85 151Q105 120 126.5 98Q148 76 174 62.5Q200 49 231.5 42.5Q263 36 303 36Q406 36 452.5 74.5Q499 113 499 180Q499 206 491.5 226.5Q484 247 464.5 263.5Q445 280 412.5 294Q380 308 331 320L266 336Q166 361 115.5 406Q65 451 65 528Q65 610 124 660.5Q183 711 299 711Q391 711 446.5 680Q502 649 538 587Z" glyph-name="Scaron" horiz-adv-x="616" unicode="&#352;" /><glyph d="M290 -228Q255 -228 228.5 -215.5Q202 -203 184 -175L213 -149Q227 -172 243.5 -182.5Q260 -193 288 -193Q319 -193 336.5 -181Q354 -169 354 -146Q354 -122 337.5 -111.5Q321 -101 297 -101H285Q280 -101 273 -103L259 -92L279 -10Q198 -6 139 24.5Q80 55 39 121L85 151Q105 120 126.5 98Q148 76 174 62.5Q200 49 231.5 42.5Q263 36 303 36Q406 36 452.5 74.5Q499 113 499 180Q499 206 491.5 226.5Q484 247 464.5 263.5Q445 280 412.5 294Q380 308 331 320L266 336Q166 361 115.5 406Q65 451 65 528Q65 610 124 660.5Q183 711 299 711Q391 711 446.5 680Q502 649 538 587L491 558Q461 612 416.5 638.5Q372 665 298 665Q205 665 163 627.5Q121 590 121 530Q121 478 156.5 444Q192 410 276 390L339 375Q397 361 438.5 343.5Q480 326 505.5 303.5Q531 281 543 251.5Q555 222 555 184Q555 94 494 43Q433 -8 318 -11L304 -72H316Q347 -72 372 -89.5Q397 -107 397 -146Q397 -187 367 -207.5Q337 -228 290 -228Z" glyph-name="Scedilla" horiz-adv-x="616" unicode="&#350;" /><glyph d="M39 0ZM299 864 216 786H154V788L274 898H326L446 788V786H381ZM538 587 491 558Q461 612 416.5 638.5Q372 665 298 665Q205 665 163 627.5Q121 590 121 530Q121 478 156.5 444Q192 410 276 390L339 375Q397 361 438.5 343.5Q480 326 505.5 303.5Q531 281 543 251.5Q555 222 555 184Q555 91 490.5 40Q426 -11 304 -11Q213 -11 148 19Q83 49 39 121L85 151Q105 120 126.5 98Q148 76 174 62.5Q200 49 231.5 42.5Q263 36 303 36Q406 36 452.5 74.5Q499 113 499 180Q499 206 491.5 226.5Q484 247 464.5 263.5Q445 280 412.5 294Q380 308 331 320L266 336Q166 361 115.5 406Q65 451 65 528Q65 610 124 660.5Q183 711 299 711Q391 711 446.5 680Q502 649 538 587Z" glyph-name="Scircumflex" horiz-adv-x="616" unicode="&#348;" /><glyph d="M39 0ZM270 -255 258 -229Q282 -219 295 -197.5Q308 -176 310 -148Q284 -152 271.5 -139Q259 -126 259 -108Q259 -88 270 -78Q281 -68 300 -68Q321 -68 333.5 -82Q346 -96 346 -129Q346 -172 327.5 -207.5Q309 -243 270 -255ZM538 587 491 558Q461 612 416.5 638.5Q372 665 298 665Q205 665 163 627.5Q121 590 121 530Q121 478 156.5 444Q192 410 276 390L339 375Q397 361 438.5 343.5Q480 326 505.5 303.5Q531 281 543 251.5Q555 222 555 184Q555 91 490.5 40Q426 -11 304 -11Q213 -11 148 19Q83 49 39 121L85 151Q105 120 126.5 98Q148 76 174 62.5Q200 49 231.5 42.5Q263 36 303 36Q406 36 452.5 74.5Q499 113 499 180Q499 206 491.5 226.5Q484 247 464.5 263.5Q445 280 412.5 294Q380 308 331 320L266 336Q166 361 115.5 406Q65 451 65 528Q65 610 124 660.5Q183 711 299 711Q391 711 446.5 680Q502 649 538 587Z" glyph-name="Scommaaccent" horiz-adv-x="616" unicode="&#536;" /><glyph d="M13 700H552V651H311V0H254V651H13Z" glyph-name="T" horiz-adv-x="565" unicode="T" /><glyph d="M14 700H552V651H312V371H505V331H312V0H254V331H60V371H254V651H14Z" glyph-name="Tbar" horiz-adv-x="565" unicode="&#358;" /><glyph d="M13 0ZM281 821 365 898H427V896L307 786H255L135 896V898H199ZM13 700H552V651H311V0H254V651H13Z" glyph-name="Tcaron" horiz-adv-x="565" unicode="&#356;" /><glyph d="M13 0ZM251 -255 239 -229Q263 -219 276 -197.5Q289 -176 291 -148Q265 -152 252.5 -139Q240 -126 240 -108Q240 -88 251 -78Q262 -68 281 -68Q302 -68 314.5 -82Q327 -96 327 -129Q327 -172 308.5 -207.5Q290 -243 251 -255ZM13 700H552V651H311V0H254V651H13Z" glyph-name="Tcommaaccent" horiz-adv-x="565" unicode="&#354;" /><glyph d="M115 0V700H173V560H374Q489 560 542 510Q595 460 595 363Q595 267 540 212Q485 157 372 157H173V0ZM374 509H173V206H378Q453 206 495 244.5Q537 283 537 360Q537 436 498 472.5Q459 509 374 509Z" glyph-name="Thorn" horiz-adv-x="648" unicode="&#222;" /><glyph d="M590 265V700H647V267Q647 126 573.5 57.5Q500 -11 371 -11Q241 -11 168 57.5Q95 126 95 267V700H153V265Q153 203 168.5 160Q184 117 212.5 89.5Q241 62 281 49.5Q321 37 371 37Q420 37 460.5 49.5Q501 62 530 89.5Q559 117 574.5 160Q590 203 590 265Z" glyph-name="U" horiz-adv-x="742" unicode="U" /><glyph d="M95 0ZM499 893 392 786H345V789L425 898H499ZM590 265V700H647V267Q647 126 573.5 57.5Q500 -11 371 -11Q241 -11 168 57.5Q95 126 95 267V700H153V265Q153 203 168.5 160Q184 117 212.5 89.5Q241 62 281 49.5Q321 37 371 37Q420 37 460.5 49.5Q501 62 530 89.5Q559 117 574.5 160Q590 203 590 265Z" glyph-name="Uacute" horiz-adv-x="742" unicode="&#218;" /><glyph d="M95 0ZM590 265V700H647V267Q647 126 573.5 57.5Q500 -11 371 -11Q241 -11 168 57.5Q95 126 95 267V700H153V265Q153 203 168.5 160Q184 117 212.5 89.5Q241 62 281 49.5Q321 37 371 37Q420 37 460.5 49.5Q501 62 530 89.5Q559 117 574.5 160Q590 203 590 265ZM457 897H501Q501 865 492 843Q483 821 466.5 808Q450 795 425.5 789.5Q401 784 371 784Q341 784 317 789.5Q293 795 276.5 808Q260 821 251 843Q242 865 242 897H285Q285 853 307 837Q329 821 371 821Q413 821 435 837Q457 853 457 897Z" glyph-name="Ubreve" horiz-adv-x="742" unicode="&#364;" /><glyph d="M95 0ZM372 864 289 786H227V788L347 898H399L519 788V786H454ZM590 265V700H647V267Q647 126 573.5 57.5Q500 -11 371 -11Q241 -11 168 57.5Q95 126 95 267V700H153V265Q153 203 168.5 160Q184 117 212.5 89.5Q241 62 281 49.5Q321 37 371 37Q420 37 460.5 49.5Q501 62 530 89.5Q559 117 574.5 160Q590 203 590 265Z" glyph-name="Ucircumflex" horiz-adv-x="742" unicode="&#219;" /><glyph d="M95 0ZM404 840Q404 860 416 871Q428 882 448 882Q468 882 480 871Q492 860 492 840Q492 820 480 809Q468 798 448 798Q428 798 416 809Q404 820 404 840ZM252 840Q252 860 263.5 871Q275 882 295 882Q315 882 327 871Q339 860 339 840Q339 820 327 809Q315 798 295 798Q275 798 263.5 809Q252 820 252 840ZM590 265V700H647V267Q647 126 573.5 57.5Q500 -11 371 -11Q241 -11 168 57.5Q95 126 95 267V700H153V265Q153 203 168.5 160Q184 117 212.5 89.5Q241 62 281 49.5Q321 37 371 37Q420 37 460.5 49.5Q501 62 530 89.5Q559 117 574.5 160Q590 203 590 265Z" glyph-name="Udieresis" horiz-adv-x="742" unicode="&#220;" /><glyph d="M95 0ZM590 265V700H647V267Q647 126 573.5 57.5Q500 -11 371 -11Q241 -11 168 57.5Q95 126 95 267V700H153V265Q153 203 168.5 160Q184 117 212.5 89.5Q241 62 281 49.5Q321 37 371 37Q420 37 460.5 49.5Q501 62 530 89.5Q559 117 574.5 160Q590 203 590 265ZM354 787 247 894V899H321L402 790V787Z" glyph-name="Ugrave" horiz-adv-x="742" unicode="&#217;" /><glyph d="M95 0ZM590 265V700H647V267Q647 126 573.5 57.5Q500 -11 371 -11Q241 -11 168 57.5Q95 126 95 267V700H153V265Q153 203 168.5 160Q184 117 212.5 89.5Q241 62 281 49.5Q321 37 371 37Q420 37 460.5 49.5Q501 62 530 89.5Q559 117 574.5 160Q590 203 590 265ZM552 893 442 786H396V789L477 898H552ZM422 893 329 786H283V789L354 898H422Z" glyph-name="Uhungarumlaut" horiz-adv-x="742" unicode="&#368;" /><glyph d="M95 0ZM590 265V700H647V267Q647 126 573.5 57.5Q500 -11 371 -11Q241 -11 168 57.5Q95 126 95 267V700H153V265Q153 203 168.5 160Q184 117 212.5 89.5Q241 62 281 49.5Q321 37 371 37Q420 37 460.5 49.5Q501 62 530 89.5Q559 117 574.5 160Q590 203 590 265ZM492 859V820H253V859Z" glyph-name="Umacron" horiz-adv-x="742" unicode="&#362;" /><glyph d="M352 -100Q352 -69 363 -46.5Q374 -24 392 -8Q386 -9 378.5 -9.5Q371 -10 365 -10Q238 -8 166.5 59.5Q95 127 95 267V700H153V265Q153 203 168.5 160Q184 117 212.5 89.5Q241 62 281.5 49.5Q322 37 372 37Q421 37 461.5 49.5Q502 62 530.5 89.5Q559 117 574.5 160Q590 203 590 265V700H648V267Q648 155 601 90.5Q554 26 469 1Q437 -9 415.5 -34Q394 -59 394 -94Q394 -133 412 -148.5Q430 -164 459 -164Q496 -164 524 -146L534 -182Q499 -204 455 -204Q435 -204 416 -199Q397 -194 383 -182Q369 -170 360.5 -150Q352 -130 352 -100Z" glyph-name="Uogonek" horiz-adv-x="743" unicode="&#370;" /><glyph d="M95 0ZM283 852Q283 893 308.5 917.5Q334 942 374 942Q412 942 437 917.5Q462 893 462 852Q462 812 436.5 787.5Q411 763 372 763Q334 763 308.5 787.5Q283 812 283 852ZM315 852Q315 826 331.5 808.5Q348 791 372 791Q397 791 413.5 808.5Q430 826 430 852Q430 879 413.5 896Q397 913 374 913Q348 913 331.5 896Q315 879 315 852ZM590 265V700H647V267Q647 126 573.5 57.5Q500 -11 371 -11Q241 -11 168 57.5Q95 126 95 267V700H153V265Q153 203 168.5 160Q184 117 212.5 89.5Q241 62 281 49.5Q321 37 371 37Q420 37 460.5 49.5Q501 62 530 89.5Q559 117 574.5 160Q590 203 590 265Z" glyph-name="Uring" horiz-adv-x="742" unicode="&#366;" /><glyph d="M95 0ZM590 265V700H647V267Q647 126 573.5 57.5Q500 -11 371 -11Q241 -11 168 57.5Q95 126 95 267V700H153V265Q153 203 168.5 160Q184 117 212.5 89.5Q241 62 281 49.5Q321 37 371 37Q420 37 460.5 49.5Q501 62 530 89.5Q559 117 574.5 160Q590 203 590 265ZM467 887H511Q512 861 505 844Q498 827 487 817.5Q476 808 462 804Q448 800 435 800Q414 800 397.5 807.5Q381 815 367 824.5Q353 834 339.5 841.5Q326 849 310 849Q294 849 284.5 838Q275 827 275 804H231Q230 829 236.5 846Q243 863 254 873Q265 883 278.5 887Q292 891 305 891Q327 891 343.5 883.5Q360 876 374.5 866.5Q389 857 402.5 849.5Q416 842 432 842Q467 842 467 887Z" glyph-name="Utilde" horiz-adv-x="742" unicode="&#360;" /><glyph d="M10 700H71L301 54L532 700H591L337 0H265Z" glyph-name="V" horiz-adv-x="601" unicode="V" /><glyph d="M424 695H481L654 83L838 700H894L681 0H624L451 612L280 0H222L12 700H71L251 80Z" glyph-name="W" horiz-adv-x="906" unicode="W" /><glyph d="M12 0ZM579 893 472 786H425V789L505 898H579ZM424 695H481L654 83L838 700H894L681 0H624L451 612L280 0H222L12 700H71L251 80Z" glyph-name="Wacute" horiz-adv-x="906" unicode="&#7810;" /><glyph d="M12 0ZM453 864 370 786H308V788L428 898H480L600 788V786H535ZM424 695H481L654 83L838 700H894L681 0H624L451 612L280 0H222L12 700H71L251 80Z" glyph-name="Wcircumflex" horiz-adv-x="906" unicode="&#372;" /><glyph d="M12 0ZM485 840Q485 860 497 871Q509 882 529 882Q549 882 561 871Q573 860 573 840Q573 820 561 809Q549 798 529 798Q509 798 497 809Q485 820 485 840ZM333 840Q333 860 344.5 871Q356 882 376 882Q396 882 408 871Q420 860 420 840Q420 820 408 809Q396 798 376 798Q356 798 344.5 809Q333 820 333 840ZM424 695H481L654 83L838 700H894L681 0H624L451 612L280 0H222L12 700H71L251 80Z" glyph-name="Wdieresis" horiz-adv-x="906" unicode="&#7812;" /><glyph d="M12 0ZM424 695H481L654 83L838 700H894L681 0H624L451 612L280 0H222L12 700H71L251 80ZM434 787 327 894V899H401L482 790V787Z" glyph-name="Wgrave" horiz-adv-x="906" unicode="&#7808;" /><glyph d="M539 0 312 318 85 0H20L279 362L40 700H106L315 405L522 700H587L347 363L607 0Z" glyph-name="X" horiz-adv-x="627" unicode="X" /><glyph d="M271 283 16 700H79L300 333L522 700H583L329 283V0H271Z" glyph-name="Y" horiz-adv-x="599" unicode="Y" /><glyph d="M16 0ZM271 283 16 700H79L300 333L522 700H583L329 283V0H271ZM427 893 320 786H273V789L353 898H427Z" glyph-name="Yacute" horiz-adv-x="599" unicode="&#221;" /><glyph d="M16 0ZM271 283 16 700H79L300 333L522 700H583L329 283V0H271ZM301 864 218 786H156V788L276 898H328L448 788V786H383Z" glyph-name="Ycircumflex" horiz-adv-x="599" unicode="&#374;" /><glyph d="M16 0ZM271 283 16 700H79L300 333L522 700H583L329 283V0H271ZM332 840Q332 860 344 871Q356 882 376 882Q396 882 408 871Q420 860 420 840Q420 820 408 809Q396 798 376 798Q356 798 344 809Q332 820 332 840ZM180 840Q180 860 191.5 871Q203 882 223 882Q243 882 255 871Q267 860 267 840Q267 820 255 809Q243 798 223 798Q203 798 191.5 809Q180 820 180 840Z" glyph-name="Ydieresis" horiz-adv-x="599" unicode="&#376;" /><glyph d="M26 0V44L474 651H49V700H542V656L93 49H550V0Z" glyph-name="Z" horiz-adv-x="571" unicode="Z" /><glyph d="M26 0ZM415 893 308 786H261V789L341 898H415ZM26 0V44L474 651H49V700H542V656L93 49H550V0Z" glyph-name="Zacute" horiz-adv-x="571" unicode="&#377;" /><glyph d="M26 0ZM287 821 371 898H433V896L313 786H261L141 896V898H205ZM26 0V44L474 651H49V700H542V656L93 49H550V0Z" glyph-name="Zcaron" horiz-adv-x="571" unicode="&#381;" /><glyph d="M26 0ZM26 0V44L474 651H49V700H542V656L93 49H550V0ZM246 840Q246 860 258 871Q270 882 291 882Q334 882 334 840Q334 798 291 798Q270 798 258 809Q246 820 246 840Z" glyph-name="Zdotaccent" horiz-adv-x="571" unicode="&#379;" /><glyph d="M242 35Q320 35 365 84.5Q410 134 415 222V244H274Q195 244 156 218Q117 192 117 135Q117 87 148 61Q179 35 242 35ZM418 106Q395 51 347 20Q299 -11 229 -11Q154 -11 108 26.5Q62 64 62 133Q62 205 113 247Q164 289 272 289H415Q415 335 406.5 365.5Q398 396 380 414Q362 432 334.5 439.5Q307 447 270 447Q210 447 175 429Q140 411 117 380L85 414Q139 493 274 493Q321 493 358 483Q395 473 420 450Q445 427 458 390Q471 353 471 299V0H423Z" glyph-name="a" horiz-adv-x="563" unicode="a" /><glyph d="M450 245Q450 297 437.5 335Q425 373 402.5 398Q380 423 349.5 435Q319 447 284 447Q200 447 159.5 395Q119 343 119 241Q119 35 283 35Q319 35 349.5 47.5Q380 60 402.5 85.5Q425 111 437.5 150.5Q450 190 450 245ZM454 0 450 106Q427 46 379.5 17.5Q332 -11 269 -11Q169 -11 116 54Q63 119 63 241Q63 363 118 428Q173 493 277 493Q337 493 383 466Q429 439 452 382L458 482H505V0Z" glyph-name="a.school" horiz-adv-x="604" /><glyph d="M62 0ZM242 35Q320 35 365 84.5Q410 134 415 222V244H274Q195 244 156 218Q117 192 117 135Q117 87 148 61Q179 35 242 35ZM418 106Q395 51 347 20Q299 -11 229 -11Q154 -11 108 26.5Q62 64 62 133Q62 205 113 247Q164 289 272 289H415Q415 335 406.5 365.5Q398 396 380 414Q362 432 334.5 439.5Q307 447 270 447Q210 447 175 429Q140 411 117 380L85 414Q139 493 274 493Q321 493 358 483Q395 473 420 450Q445 427 458 390Q471 353 471 299V0H423ZM399 675 292 568H245V571L325 680H399Z" glyph-name="aacute" horiz-adv-x="563" unicode="&#225;" /><glyph d="M63 0ZM450 245Q450 297 437.5 335Q425 373 402.5 398Q380 423 349.5 435Q319 447 284 447Q200 447 159.5 395Q119 343 119 241Q119 35 283 35Q319 35 349.5 47.5Q380 60 402.5 85.5Q425 111 437.5 150.5Q450 190 450 245ZM454 0 450 106Q427 46 379.5 17.5Q332 -11 269 -11Q169 -11 116 54Q63 119 63 241Q63 363 118 428Q173 493 277 493Q337 493 383 466Q429 439 452 382L458 482H505V0ZM402 675 295 568H248V571L328 680H402Z" glyph-name="aacute.school" horiz-adv-x="604" /><glyph d="M60 0ZM240 35Q318 35 363 84.5Q408 134 413 222V244H272Q193 244 154 218Q115 192 115 135Q115 87 146 61Q177 35 240 35ZM416 106Q393 51 345 20Q297 -11 227 -11Q152 -11 106 26.5Q60 64 60 133Q60 205 111 247Q162 289 270 289H413Q413 335 404.5 365.5Q396 396 378 414Q360 432 332.5 439.5Q305 447 268 447Q208 447 173 429Q138 411 115 380L83 414Q137 493 272 493Q319 493 356 483Q393 473 418 450Q443 427 456 390Q469 353 469 299V0H421ZM357 679H401Q401 647 392 625Q383 603 366.5 590Q350 577 325.5 571.5Q301 566 271 566Q241 566 217 571.5Q193 577 176.5 590Q160 603 151 625Q142 647 142 679H185Q185 635 207 619Q229 603 271 603Q313 603 335 619Q357 635 357 679Z" glyph-name="abreve" horiz-adv-x="563" unicode="&#259;" /><glyph d="M63 0ZM450 245Q450 297 437.5 335Q425 373 402.5 398Q380 423 349.5 435Q319 447 284 447Q200 447 159.5 395Q119 343 119 241Q119 35 283 35Q319 35 349.5 47.5Q380 60 402.5 85.5Q425 111 437.5 150.5Q450 190 450 245ZM454 0 450 106Q427 46 379.5 17.5Q332 -11 269 -11Q169 -11 116 54Q63 119 63 241Q63 363 118 428Q173 493 277 493Q337 493 383 466Q429 439 452 382L458 482H505V0ZM364 679H408Q408 647 399 625Q390 603 373.5 590Q357 577 332.5 571.5Q308 566 278 566Q248 566 224 571.5Q200 577 183.5 590Q167 603 158 625Q149 647 149 679H192Q192 635 214 619Q236 603 278 603Q320 603 342 619Q364 635 364 679Z" glyph-name="abreve.school" horiz-adv-x="604" /><glyph d="M60 0ZM240 35Q318 35 363 84.5Q408 134 413 222V244H272Q193 244 154 218Q115 192 115 135Q115 87 146 61Q177 35 240 35ZM416 106Q393 51 345 20Q297 -11 227 -11Q152 -11 106 26.5Q60 64 60 133Q60 205 111 247Q162 289 270 289H413Q413 335 404.5 365.5Q396 396 378 414Q360 432 332.5 439.5Q305 447 268 447Q208 447 173 429Q138 411 115 380L83 414Q137 493 272 493Q319 493 356 483Q393 473 418 450Q443 427 456 390Q469 353 469 299V0H421ZM272 646 189 568H127V570L247 680H299L419 570V568H354Z" glyph-name="acircumflex" horiz-adv-x="563" unicode="&#226;" /><glyph d="M63 0ZM281 646 198 568H136V570L256 680H308L428 570V568H363ZM450 245Q450 297 437.5 335Q425 373 402.5 398Q380 423 349.5 435Q319 447 284 447Q200 447 159.5 395Q119 343 119 241Q119 35 283 35Q319 35 349.5 47.5Q380 60 402.5 85.5Q425 111 437.5 150.5Q450 190 450 245ZM454 0 450 106Q427 46 379.5 17.5Q332 -11 269 -11Q169 -11 116 54Q63 119 63 241Q63 363 118 428Q173 493 277 493Q337 493 383 466Q429 439 452 382L458 482H505V0Z" glyph-name="acircumflex.school" horiz-adv-x="604" /><glyph d="M416 675 309 568H262V571L342 680H416Z" glyph-name="acute" horiz-adv-x="600" unicode="&#180;" /><glyph d="M60 0ZM240 35Q318 35 363 84.5Q408 134 413 222V244H272Q193 244 154 218Q115 192 115 135Q115 87 146 61Q177 35 240 35ZM416 106Q393 51 345 20Q297 -11 227 -11Q152 -11 106 26.5Q60 64 60 133Q60 205 111 247Q162 289 270 289H413Q413 335 404.5 365.5Q396 396 378 414Q360 432 332.5 439.5Q305 447 268 447Q208 447 173 429Q138 411 115 380L83 414Q137 493 272 493Q319 493 356 483Q393 473 418 450Q443 427 456 390Q469 353 469 299V0H421ZM304 622Q304 642 316 653Q328 664 348 664Q368 664 380 653Q392 642 392 622Q392 602 380 591Q368 580 348 580Q328 580 316 591Q304 602 304 622ZM152 622Q152 642 163.5 653Q175 664 195 664Q215 664 227 653Q239 642 239 622Q239 602 227 591Q215 580 195 580Q175 580 163.5 591Q152 602 152 622Z" glyph-name="adieresis" horiz-adv-x="563" unicode="&#228;" /><glyph d="M63 0ZM311 622Q311 642 323 653Q335 664 355 664Q375 664 387 653Q399 642 399 622Q399 602 387 591Q375 580 355 580Q335 580 323 591Q311 602 311 622ZM159 622Q159 642 170.5 653Q182 664 202 664Q222 664 234 653Q246 642 246 622Q246 602 234 591Q222 580 202 580Q182 580 170.5 591Q159 602 159 622ZM450 245Q450 297 437.5 335Q425 373 402.5 398Q380 423 349.5 435Q319 447 284 447Q200 447 159.5 395Q119 343 119 241Q119 35 283 35Q319 35 349.5 47.5Q380 60 402.5 85.5Q425 111 437.5 150.5Q450 190 450 245ZM454 0 450 106Q427 46 379.5 17.5Q332 -11 269 -11Q169 -11 116 54Q63 119 63 241Q63 363 118 428Q173 493 277 493Q337 493 383 466Q429 439 452 382L458 482H505V0Z" glyph-name="adieresis.school" horiz-adv-x="604" /><glyph d="M634 -11Q557 -11 506 22Q455 55 433 124Q412 61 358.5 25Q305 -11 224 -11Q150 -11 105.5 25.5Q61 62 61 131Q61 200 110.5 240Q160 280 267 280H411V292Q411 337 402 366.5Q393 396 375 414Q357 432 329.5 439.5Q302 447 265 447Q207 447 171.5 429Q136 411 113 380L81 414Q135 493 270 493Q339 493 383.5 470Q428 447 448 391Q500 493 635 493Q686 493 724 477Q762 461 787 431.5Q812 402 824.5 360Q837 318 837 266Q837 257 836.5 249Q836 241 835 236H465Q466 129 509 82Q552 35 635 35Q695 35 733 56Q771 77 793 128L835 106Q809 45 757.5 17Q706 -11 634 -11ZM632 448Q557 448 515.5 407.5Q474 367 466 280H781Q778 369 740 408.5Q702 448 632 448ZM236 35Q316 35 363.5 86.5Q411 138 411 236H271Q193 236 154.5 210.5Q116 185 116 130Q116 84 146 59.5Q176 35 236 35Z" glyph-name="ae" horiz-adv-x="892" unicode="&#230;" /><glyph d="M62 0ZM242 35Q320 35 365 84.5Q410 134 415 222V244H274Q195 244 156 218Q117 192 117 135Q117 87 148 61Q179 35 242 35ZM418 106Q395 51 347 20Q299 -11 229 -11Q154 -11 108 26.5Q62 64 62 133Q62 205 113 247Q164 289 272 289H415Q415 335 406.5 365.5Q398 396 380 414Q362 432 334.5 439.5Q307 447 270 447Q210 447 175 429Q140 411 117 380L85 414Q139 493 274 493Q321 493 358 483Q395 473 420 450Q445 427 458 390Q471 353 471 299V0H423ZM253 568 146 675V680H220L301 571V568Z" glyph-name="agrave" horiz-adv-x="563" unicode="&#224;" /><glyph d="M63 0ZM450 245Q450 297 437.5 335Q425 373 402.5 398Q380 423 349.5 435Q319 447 284 447Q200 447 159.5 395Q119 343 119 241Q119 35 283 35Q319 35 349.5 47.5Q380 60 402.5 85.5Q425 111 437.5 150.5Q450 190 450 245ZM454 0 450 106Q427 46 379.5 17.5Q332 -11 269 -11Q169 -11 116 54Q63 119 63 241Q63 363 118 428Q173 493 277 493Q337 493 383 466Q429 439 452 382L458 482H505V0ZM262 569 155 676V681H229L310 572V569Z" glyph-name="agrave.school" horiz-adv-x="604" /><glyph d="M60 0ZM240 35Q318 35 363 84.5Q408 134 413 222V244H272Q193 244 154 218Q115 192 115 135Q115 87 146 61Q177 35 240 35ZM416 106Q393 51 345 20Q297 -11 227 -11Q152 -11 106 26.5Q60 64 60 133Q60 205 111 247Q162 289 270 289H413Q413 335 404.5 365.5Q396 396 378 414Q360 432 332.5 439.5Q305 447 268 447Q208 447 173 429Q138 411 115 380L83 414Q137 493 272 493Q319 493 356 483Q393 473 418 450Q443 427 456 390Q469 353 469 299V0H421ZM392 641V602H153V641Z" glyph-name="amacron" horiz-adv-x="563" unicode="&#257;" /><glyph d="M63 0ZM450 245Q450 297 437.5 335Q425 373 402.5 398Q380 423 349.5 435Q319 447 284 447Q200 447 159.5 395Q119 343 119 241Q119 35 283 35Q319 35 349.5 47.5Q380 60 402.5 85.5Q425 111 437.5 150.5Q450 190 450 245ZM454 0 450 106Q427 46 379.5 17.5Q332 -11 269 -11Q169 -11 116 54Q63 119 63 241Q63 363 118 428Q173 493 277 493Q337 493 383 466Q429 439 452 382L458 482H505V0ZM400 641V602H161V641Z" glyph-name="amacron.school" horiz-adv-x="604" /><glyph d="M581 474H635Q635 359 611.5 272.5Q588 186 545 125Q578 102 614 78.5Q650 55 691 29L664 -11Q622 15 585 39Q548 63 514 87Q422 -11 274 -11Q225 -11 182.5 0Q140 11 108.5 34Q77 57 59 91.5Q41 126 41 173Q41 210 52 239Q63 268 83 291.5Q103 315 130 334.5Q157 354 189 374Q144 435 129 480.5Q114 526 114 559Q114 630 158.5 670.5Q203 711 294 711Q374 711 411 677.5Q448 644 448 585Q448 550 436 522Q424 494 401 468.5Q378 443 343 418.5Q308 394 263 366Q301 321 359 269Q417 217 504 155Q541 209 562 288.5Q583 368 581 474ZM168 557Q168 529 181 490.5Q194 452 233 401Q275 427 305.5 448Q336 469 355.5 489Q375 509 384.5 530Q394 551 394 577Q394 666 291 666Q228 666 198 637Q168 608 168 557ZM278 35Q335 35 384.5 54.5Q434 74 473 115Q382 180 321 235Q260 290 219 338Q159 300 128 264.5Q97 229 97 176Q97 109 147 72Q197 35 278 35Z" glyph-name="ampersand" horiz-adv-x="700" unicode="&amp;" /><glyph d="M507 -182Q472 -204 428 -204Q408 -204 389 -199.5Q370 -195 356 -184.5Q342 -174 333.5 -156Q325 -138 325 -112Q325 -87 333 -66Q341 -45 354 -28.5Q367 -12 384.5 -0.5Q402 11 420 17L416 106Q393 51 345 20Q297 -11 227 -11Q152 -11 106 26.5Q60 64 60 133Q60 205 111 247Q162 289 270 289H413Q413 335 404.5 365.5Q396 396 378 414Q360 432 332.5 439.5Q305 447 268 447Q208 447 173 429Q138 411 115 380L83 414Q137 493 272 493Q319 493 356 483Q393 473 418 450Q443 427 456 390Q469 353 469 299V0H466Q424 -5 396 -35Q368 -65 368 -105Q368 -138 385.5 -151Q403 -164 432 -164Q469 -164 497 -146ZM240 35Q318 35 363 84.5Q408 134 413 222V244H272Q193 244 154 218Q115 192 115 135Q115 87 146 61Q177 35 240 35Z" glyph-name="aogonek" horiz-adv-x="563" unicode="&#261;" /><glyph d="M455 13 451 105Q427 45 379.5 17Q332 -11 269 -11Q169 -11 116 53.5Q63 118 63 241Q63 364 117.5 428.5Q172 493 276 493Q337 493 383 466Q429 439 452 382L458 482H505V0Q464 -5 435.5 -35Q407 -65 407 -105Q407 -138 424.5 -151Q442 -164 471 -164Q489 -164 505 -160Q521 -156 537 -146L546 -182Q511 -204 467 -204Q447 -204 428 -199.5Q409 -195 395 -184.5Q381 -174 372.5 -156Q364 -138 364 -112Q364 -87 371.5 -67Q379 -47 392 -31Q405 -15 421 -4Q437 7 455 13ZM450 245Q450 297 437.5 335Q425 373 402.5 398Q380 423 350 435Q320 447 284 447Q200 447 159.5 395Q119 343 119 241Q119 35 283 35Q319 35 349.5 47.5Q380 60 402.5 85.5Q425 111 437.5 150.5Q450 190 450 245Z" glyph-name="aogonek.school" horiz-adv-x="604" /><glyph d="M338 374Q362 374 393 381Q424 388 447 405V357Q426 343 394 335.5Q362 328 334 328Q307 328 286 334Q265 340 245.5 347.5Q226 355 205 361Q184 367 159 367Q135 367 104.5 360.5Q74 354 50 337V385Q72 399 103 405.5Q134 412 161 412Q189 412 210.5 406Q232 400 252.5 393Q273 386 293 380Q313 374 338 374ZM338 245Q362 245 393 251.5Q424 258 447 275V228Q426 214 394 207Q362 200 334 200Q307 200 286 206Q265 212 245.5 219Q226 226 205 232Q184 238 159 238Q135 238 104.5 231.5Q74 225 50 208V255Q72 269 103 276Q134 283 161 283Q189 283 210.5 277Q232 271 252.5 264Q273 257 293 251Q313 245 338 245Z" glyph-name="approxequal" horiz-adv-x="497" unicode="&#8776;" /><glyph d="M60 0ZM240 35Q318 35 363 84.5Q408 134 413 222V244H272Q193 244 154 218Q115 192 115 135Q115 87 146 61Q177 35 240 35ZM416 106Q393 51 345 20Q297 -11 227 -11Q152 -11 106 26.5Q60 64 60 133Q60 205 111 247Q162 289 270 289H413Q413 335 404.5 365.5Q396 396 378 414Q360 432 332.5 439.5Q305 447 268 447Q208 447 173 429Q138 411 115 380L83 414Q137 493 272 493Q319 493 356 483Q393 473 418 450Q443 427 456 390Q469 353 469 299V0H421ZM183 634Q183 675 208.5 699.5Q234 724 274 724Q312 724 337 699.5Q362 675 362 634Q362 594 336.5 569.5Q311 545 272 545Q234 545 208.5 569.5Q183 594 183 634ZM215 634Q215 608 231.5 590.5Q248 573 272 573Q297 573 313.5 590.5Q330 608 330 634Q330 661 313.5 678Q297 695 274 695Q248 695 231.5 678Q215 661 215 634Z" glyph-name="aring" horiz-adv-x="563" unicode="&#229;" /><glyph d="M63 0ZM450 245Q450 297 437.5 335Q425 373 402.5 398Q380 423 349.5 435Q319 447 284 447Q200 447 159.5 395Q119 343 119 241Q119 35 283 35Q319 35 349.5 47.5Q380 60 402.5 85.5Q425 111 437.5 150.5Q450 190 450 245ZM454 0 450 106Q427 46 379.5 17.5Q332 -11 269 -11Q169 -11 116 54Q63 119 63 241Q63 363 118 428Q173 493 277 493Q337 493 383 466Q429 439 452 382L458 482H505V0ZM190 634Q190 675 215.5 699.5Q241 724 281 724Q319 724 344 699.5Q369 675 369 634Q369 594 343.5 569.5Q318 545 279 545Q241 545 215.5 569.5Q190 594 190 634ZM222 634Q222 608 238.5 590.5Q255 573 279 573Q304 573 320.5 590.5Q337 608 337 634Q337 661 320.5 678Q304 695 281 695Q255 695 238.5 678Q222 661 222 634Z" glyph-name="aring.school" horiz-adv-x="604" /><glyph d="M176 701H229L377 394V393H320L202 644L80 393H25V394Z" glyph-name="asciicircum" horiz-adv-x="402" unicode="^" /><glyph d="M432 407 484 400Q481 367 470.5 344Q460 321 444 306.5Q428 292 407 285.5Q386 279 363 279Q331 279 303.5 291Q276 303 250 317Q224 331 199.5 343Q175 355 148 355Q122 355 101.5 339Q81 323 77 280L25 288Q30 353 65 380.5Q100 408 148 408Q180 408 207 396.5Q234 385 260 371Q286 357 310.5 345Q335 333 361 333Q387 333 407.5 349Q428 365 432 407Z" glyph-name="asciitilde" horiz-adv-x="509" unicode="~" /><glyph d="M107 362 69 392 165 512 27 551 40 597 176 551 171 711H223L217 551L354 597L367 552L230 512L325 392L288 362L197 487Z" glyph-name="asterisk" horiz-adv-x="397" unicode="*" /><glyph d="M679 1Q634 -46 569 -71.5Q504 -97 419 -97Q338 -97 274 -72.5Q210 -48 165.5 -4Q121 40 98 102.5Q75 165 75 242Q75 318 98 380.5Q121 443 165.5 487Q210 531 274 555.5Q338 580 419 580Q497 580 557 558Q617 536 658.5 495.5Q700 455 721 398.5Q742 342 742 273Q742 187 706 136.5Q670 86 599 86Q563 86 537.5 102.5Q512 119 506 162Q473 77 373 77Q322 77 291 102Q260 127 260 177Q260 225 297 252.5Q334 280 409 280H503Q502 341 477 363.5Q452 386 403 386Q361 386 337.5 374Q314 362 298 340L276 364Q313 420 407 420Q470 420 506.5 389Q543 358 543 281V190Q543 152 558 133Q573 114 607 114Q657 114 684.5 155.5Q712 197 712 272Q712 339 691.5 391.5Q671 444 632.5 479.5Q594 515 540 533.5Q486 552 419 552Q347 552 289.5 531.5Q232 511 191 471Q150 431 128 373.5Q106 316 106 242Q106 168 128 110Q150 52 191 12Q232 -28 289.5 -48.5Q347 -69 419 -69Q576 -69 661 22ZM381 110Q437 110 468 146Q499 182 503 242V250H411Q357 250 328.5 233Q300 216 300 178Q300 143 321 126.5Q342 110 381 110Z" glyph-name="at" horiz-adv-x="818" unicode="@" /><glyph d="M75 10ZM679 108Q634 61 569 35.5Q504 10 419 10Q338 10 274 34.5Q210 59 165.5 103Q121 147 98 209.5Q75 272 75 349Q75 425 98 487.5Q121 550 165.5 594Q210 638 274 662.5Q338 687 419 687Q497 687 557 665Q617 643 658.5 602.5Q700 562 721 505.5Q742 449 742 380Q742 294 706 243.5Q670 193 599 193Q563 193 537.5 209.5Q512 226 506 269Q473 184 373 184Q322 184 291 209Q260 234 260 284Q260 332 297 359.5Q334 387 409 387H503Q502 448 477 470.5Q452 493 403 493Q361 493 337.5 481Q314 469 298 447L276 471Q313 527 407 527Q470 527 506.5 496Q543 465 543 388V297Q543 259 558 240Q573 221 607 221Q657 221 684.5 262.5Q712 304 712 379Q712 446 691.5 498.5Q671 551 632.5 586.5Q594 622 540 640.5Q486 659 419 659Q347 659 289.5 638.5Q232 618 191 578Q150 538 128 480.5Q106 423 106 349Q106 275 128 217Q150 159 191 119Q232 79 289.5 58.5Q347 38 419 38Q576 38 661 129ZM381 217Q437 217 468 253Q499 289 503 349V357H411Q357 357 328.5 340Q300 323 300 285Q300 250 321 233.5Q342 217 381 217Z" glyph-name="at.cap" horiz-adv-x="818" /><glyph d="M60 0ZM240 35Q318 35 363 84.5Q408 134 413 222V244H272Q193 244 154 218Q115 192 115 135Q115 87 146 61Q177 35 240 35ZM416 106Q393 51 345 20Q297 -11 227 -11Q152 -11 106 26.5Q60 64 60 133Q60 205 111 247Q162 289 270 289H413Q413 335 404.5 365.5Q396 396 378 414Q360 432 332.5 439.5Q305 447 268 447Q208 447 173 429Q138 411 115 380L83 414Q137 493 272 493Q319 493 356 483Q393 473 418 450Q443 427 456 390Q469 353 469 299V0H421ZM367 669H411Q412 643 405 626Q398 609 387 599.5Q376 590 362 586Q348 582 335 582Q314 582 297.5 589.5Q281 597 267 606.5Q253 616 239.5 623.5Q226 631 210 631Q194 631 184.5 620Q175 609 175 586H131Q130 611 136.5 628Q143 645 154 655Q165 665 178.5 669Q192 673 205 673Q227 673 243.5 665.5Q260 658 274.5 648.5Q289 639 302.5 631.5Q316 624 332 624Q367 624 367 669Z" glyph-name="atilde" horiz-adv-x="563" unicode="&#227;" /><glyph d="M63 0ZM450 245Q450 297 437.5 335Q425 373 402.5 398Q380 423 349.5 435Q319 447 284 447Q200 447 159.5 395Q119 343 119 241Q119 35 283 35Q319 35 349.5 47.5Q380 60 402.5 85.5Q425 111 437.5 150.5Q450 190 450 245ZM454 0 450 106Q427 46 379.5 17.5Q332 -11 269 -11Q169 -11 116 54Q63 119 63 241Q63 363 118 428Q173 493 277 493Q337 493 383 466Q429 439 452 382L458 482H505V0ZM376 669H420Q421 643 414 626Q407 609 396 599.5Q385 590 371 586Q357 582 344 582Q323 582 306.5 589.5Q290 597 276 606.5Q262 616 248.5 623.5Q235 631 219 631Q203 631 193.5 620Q184 609 184 586H140Q139 611 145.5 628Q152 645 163 655Q174 665 187.5 669Q201 673 214 673Q236 673 252.5 665.5Q269 658 283.5 648.5Q298 639 311.5 631.5Q325 624 341 624Q376 624 376 669Z" glyph-name="atilde.school" horiz-adv-x="604" /><glyph d="M154 700V378Q178 436 226 464.5Q274 493 340 493Q439 493 491 430Q543 367 543 242Q543 120 487.5 54.5Q432 -11 329 -11Q270 -11 224 14.5Q178 40 152 96L149 0H98V700ZM154 238Q154 185 166.5 146.5Q179 108 201.5 83Q224 58 254.5 46.5Q285 35 321 35Q487 35 487 241Q487 447 326 447Q288 447 256.5 434.5Q225 422 202.5 396.5Q180 371 167 331.5Q154 292 154 238Z" glyph-name="b" horiz-adv-x="606" unicode="b" /><glyph d="M406 0 10 700H68L464 0Z" glyph-name="backslash" horiz-adv-x="490" unicode="\" /><glyph d="M115 -65V766H166V-65Z" glyph-name="bar" horiz-adv-x="281" unicode="|" /><glyph d="M280 -77Q217 -71 185 -41.5Q153 -12 153 48Q153 81 158.5 112.5Q164 144 164 175Q164 240 138 269.5Q112 299 49 299H22V342H49Q112 342 138 371Q164 400 164 466Q164 496 158.5 528Q153 560 153 595Q153 654 185 683Q217 712 280 718L285 675Q246 670 225 650.5Q204 631 204 590Q204 560 209.5 527Q215 494 215 461Q215 402 194 368.5Q173 335 123 321Q173 307 194 273Q215 239 215 181Q215 148 209.5 115Q204 82 204 52Q204 10 225 -9.5Q246 -29 285 -34Z" glyph-name="braceleft" horiz-adv-x="347" unicode="{" /><glyph d="M65 -34Q104 -29 125 -9.5Q146 10 146 52Q146 82 140.5 115Q135 148 135 181Q135 239 156 273Q177 307 227 321Q177 335 156 368.5Q135 402 135 461Q135 494 140.5 527Q146 560 146 590Q146 631 125 650.5Q104 670 65 675L70 718Q133 712 165 683Q197 654 197 595Q197 560 191.5 528Q186 496 186 466Q186 400 212 371Q238 342 301 342H328V299H301Q238 299 212 269.5Q186 240 186 175Q186 144 191.5 112.5Q197 81 197 48Q197 -12 165 -41.5Q133 -71 70 -77Z" glyph-name="braceright" horiz-adv-x="347" unicode="}" /><glyph d="M92 -103V709H279V667H143V-60H285V-103Z" glyph-name="bracketleft" horiz-adv-x="339" unicode="[" /><glyph d="M54 -103V-60H196V667H60V709H247V-103Z" glyph-name="bracketright" horiz-adv-x="339" unicode="]" /><glyph d="M385 679H429Q429 647 420 625Q411 603 394.5 590Q378 577 353.5 571.5Q329 566 299 566Q269 566 245 571.5Q221 577 204.5 590Q188 603 179 625Q170 647 170 679H213Q213 635 235 619Q257 603 299 603Q341 603 363 619Q385 635 385 679Z" glyph-name="breve" horiz-adv-x="600" unicode="&#728;" /><glyph d="M115 381V766H166V381ZM115 -65V319H166V-65Z" glyph-name="brokenbar" horiz-adv-x="281" unicode="&#166;" /><glyph d="M73 327Q73 391 111 429.5Q149 468 215 468Q282 468 320 429.5Q358 391 358 327Q358 262 320 224Q282 186 215 186Q149 186 111 224Q73 262 73 327Z" glyph-name="bullet" horiz-adv-x="430" unicode="&#8226;" /><glyph d="M289 -11Q179 -11 121 49.5Q63 110 63 240Q63 370 121.5 431.5Q180 493 290 493Q362 493 408.5 466.5Q455 440 482 391L441 364Q420 406 381.5 426.5Q343 447 290 447Q203 447 161 399.5Q119 352 119 240Q119 130 161.5 82.5Q204 35 289 35Q348 35 385 56.5Q422 78 445 129L488 106Q462 45 411.5 17Q361 -11 289 -11Z" glyph-name="c" horiz-adv-x="534" unicode="c" /><glyph d="M63 0ZM417 675 310 568H263V571L343 680H417ZM289 -11Q179 -11 121 49.5Q63 110 63 240Q63 370 121.5 431.5Q180 493 290 493Q362 493 408.5 466.5Q455 440 482 391L441 364Q420 406 381.5 426.5Q343 447 290 447Q203 447 161 399.5Q119 352 119 240Q119 130 161.5 82.5Q204 35 289 35Q348 35 385 56.5Q422 78 445 129L488 106Q462 45 411.5 17Q361 -11 289 -11Z" glyph-name="cacute" horiz-adv-x="534" unicode="&#263;" /><glyph d="M297 603 381 680H443V678L323 568H271L151 678V680H215Z" glyph-name="caron" horiz-adv-x="600" unicode="&#711;" /><glyph d="M298 500H259L266 700H323Z" glyph-name="caronSlovak" horiz-adv-x="600" /><glyph d="M63 0ZM289 603 373 680H435V678L315 568H263L143 678V680H207ZM289 -11Q179 -11 121 49.5Q63 110 63 240Q63 370 121.5 431.5Q180 493 290 493Q362 493 408.5 466.5Q455 440 482 391L441 364Q420 406 381.5 426.5Q343 447 290 447Q203 447 161 399.5Q119 352 119 240Q119 130 161.5 82.5Q204 35 289 35Q348 35 385 56.5Q422 78 445 129L488 106Q462 45 411.5 17Q361 -11 289 -11Z" glyph-name="ccaron" horiz-adv-x="534" unicode="&#269;" /><glyph d="M278 -228Q243 -228 216.5 -215.5Q190 -203 172 -175L201 -149Q215 -172 231.5 -182.5Q248 -193 276 -193Q307 -193 324.5 -181Q342 -169 342 -146Q342 -122 325.5 -111.5Q309 -101 285 -101H273Q268 -101 261 -103L247 -92L267 -10Q167 -5 115 55.5Q63 116 63 240Q63 370 121.5 431.5Q180 493 290 493Q362 493 408.5 466.5Q455 440 482 391L441 364Q420 406 381.5 426.5Q343 447 290 447Q203 447 161 399.5Q119 352 119 240Q119 130 161.5 82.5Q204 35 289 35Q348 35 385 56.5Q422 78 445 129L488 106Q463 49 417.5 21Q372 -7 307 -11L292 -72H304Q335 -72 360 -89.5Q385 -107 385 -146Q385 -187 355 -207.5Q325 -228 278 -228Z" glyph-name="ccedilla" horiz-adv-x="534" unicode="&#231;" /><glyph d="M63 0ZM290 646 207 568H145V570L265 680H317L437 570V568H372ZM289 -11Q179 -11 121 49.5Q63 110 63 240Q63 370 121.5 431.5Q180 493 290 493Q362 493 408.5 466.5Q455 440 482 391L441 364Q420 406 381.5 426.5Q343 447 290 447Q203 447 161 399.5Q119 352 119 240Q119 130 161.5 82.5Q204 35 289 35Q348 35 385 56.5Q422 78 445 129L488 106Q462 45 411.5 17Q361 -11 289 -11Z" glyph-name="ccircumflex" horiz-adv-x="534" unicode="&#265;" /><glyph d="M63 0ZM289 -11Q179 -11 121 49.5Q63 110 63 240Q63 370 121.5 431.5Q180 493 290 493Q362 493 408.5 466.5Q455 440 482 391L441 364Q420 406 381.5 426.5Q343 447 290 447Q203 447 161 399.5Q119 352 119 240Q119 130 161.5 82.5Q204 35 289 35Q348 35 385 56.5Q422 78 445 129L488 106Q462 45 411.5 17Q361 -11 289 -11ZM248 622Q248 642 260 653Q272 664 293 664Q336 664 336 622Q336 580 293 580Q272 580 260 591Q248 602 248 622Z" glyph-name="cdotaccent" horiz-adv-x="534" unicode="&#267;" /><glyph d="M308 0H348L331 -72H343Q374 -72 399 -89.5Q424 -107 424 -146Q424 -187 394 -207.5Q364 -228 317 -228Q282 -228 255.5 -215.5Q229 -203 211 -175L240 -149Q254 -172 270.5 -182.5Q287 -193 315 -193Q346 -193 363.5 -181Q381 -169 381 -146Q381 -122 364.5 -111.5Q348 -101 324 -101H312Q307 -101 300 -103L286 -92Z" glyph-name="cedilla" horiz-adv-x="600" unicode="&#184;" /><glyph d="M125 254Q125 158 160 113Q195 68 267 62V448Q194 442 159.5 396.5Q125 351 125 254ZM267 -62V16Q170 22 119 79.5Q68 137 68 254Q68 371 119 429.5Q170 488 267 494V574H314V495Q376 491 416.5 466Q457 441 481 396L440 370Q422 405 389.5 424.5Q357 444 314 448V61Q363 63 395 84.5Q427 106 448 150L491 128Q467 72 422 45Q377 18 314 15V-62Z" glyph-name="cent" horiz-adv-x="545" unicode="&#162;" /><glyph d="M296 646 213 568H151V570L271 680H323L443 570V568H378Z" glyph-name="circumflex" horiz-adv-x="600" unicode="&#710;" /><glyph d="M63 0ZM63 37Q63 57 75 68Q87 79 107 79Q127 79 138.5 68Q150 57 150 37Q150 17 138.5 5.5Q127 -6 107 -6Q87 -6 75 5.5Q63 17 63 37ZM63 424Q63 444 75 455Q87 466 107 466Q127 466 138.5 455Q150 444 150 424Q150 404 138.5 392.5Q127 381 107 381Q87 381 75 392.5Q63 404 63 424Z" glyph-name="colon" horiz-adv-x="213" unicode=":" /><glyph d="M73 -115 61 -89Q85 -78 98.5 -54.5Q112 -31 114 -2Q89 -8 76 5Q63 18 63 38Q63 58 74.5 68.5Q86 79 105 79Q126 79 138 65.5Q150 52 150 17Q150 -28 131.5 -64.5Q113 -101 73 -115Z" glyph-name="comma" horiz-adv-x="213" unicode="," /><glyph d="M264 -255 252 -229Q276 -219 289 -197.5Q302 -176 304 -148Q278 -152 265.5 -139Q253 -126 253 -108Q253 -88 264 -78Q275 -68 294 -68Q315 -68 327.5 -82Q340 -96 340 -129Q340 -172 321.5 -207.5Q303 -243 264 -255Z" glyph-name="commaaccent" horiz-adv-x="600" unicode="&#63171;" /><glyph d="M75 349Q75 425 98 487.5Q121 550 164.5 594Q208 638 271 662.5Q334 687 414 687Q494 687 556.5 662.5Q619 638 662.5 594Q706 550 729 487.5Q752 425 752 349Q752 273 729 210.5Q706 148 662.5 104Q619 60 556.5 35.5Q494 11 414 11Q334 11 271 35.5Q208 60 164.5 104Q121 148 98 210.5Q75 273 75 349ZM106 349Q106 275 127.5 217.5Q149 160 189 120Q229 80 286 59.5Q343 39 414 39Q484 39 541 59.5Q598 80 638.5 120Q679 160 700.5 217.5Q722 275 722 349Q722 423 700.5 481Q679 539 638.5 578.5Q598 618 541 639Q484 660 414 660Q343 660 286 639Q229 618 189 578.5Q149 539 127.5 481Q106 423 106 349ZM419 174Q335 174 292 217Q249 260 249 351Q249 443 292 487Q335 531 419 531Q473 531 507 512Q541 493 561 458L529 437Q496 496 419 496Q356 496 324 462Q292 428 292 351Q292 276 324 243Q356 210 419 210Q462 210 488.5 225Q515 240 532 275L565 257Q545 213 508.5 193.5Q472 174 419 174Z" glyph-name="copyright" horiz-adv-x="827" unicode="&#169;" /><glyph d="M208 355Q130 355 89 397Q48 439 48 533Q48 625 89.5 668Q131 711 209 711Q261 711 293.5 692.5Q326 674 345 639L313 616Q284 675 209 675Q149 675 120.5 642.5Q92 610 92 532Q92 457 121 424Q150 391 209 391Q250 391 275 405.5Q300 420 316 455L350 438Q331 393 295.5 374Q260 355 208 355Z" glyph-name="cordinal" horiz-adv-x="391" /><glyph d="M452 245Q452 297 439 335Q426 373 403.5 398Q381 423 350.5 435Q320 447 284 447Q200 447 159.5 395Q119 343 119 241Q119 35 283 35Q319 35 350 47.5Q381 60 403.5 85.5Q426 111 439 150.5Q452 190 452 245ZM456 0 453 105Q430 46 382 17.5Q334 -11 269 -11Q169 -11 116 54Q63 119 63 241Q63 363 118 428Q173 493 277 493Q337 493 381.5 468Q426 443 452 392V700H507V0Z" glyph-name="d" horiz-adv-x="606" unicode="d" /><glyph d="M245 552H174Q174 494 173.5 434.5Q173 375 173 317H130V552H58V590H129L127 710H177L175 590H245Z" glyph-name="dagger" horiz-adv-x="304" unicode="&#8224;" /><glyph d="M57 470H129V558H57V598H128L126 710H178L175 598H246V558H174V470H246V430H175L178 314H126L128 430H57Z" glyph-name="daggerdbl" horiz-adv-x="304" unicode="&#8225;" /><glyph d="M63 0ZM645 500H606L613 700H670ZM452 245Q452 297 439 335Q426 373 403.5 398Q381 423 350.5 435Q320 447 284 447Q200 447 159.5 395Q119 343 119 241Q119 35 283 35Q319 35 350 47.5Q381 60 403.5 85.5Q426 111 439 150.5Q452 190 452 245ZM456 0 453 105Q430 46 382 17.5Q334 -11 269 -11Q169 -11 116 54Q63 119 63 241Q63 363 118 428Q173 493 277 493Q337 493 381.5 468Q426 443 452 392V700H507V0Z" glyph-name="dcaron" horiz-adv-x="649" unicode="&#271;" /><glyph d="M452 245Q452 297 439 335.5Q426 374 403.5 399Q381 424 350.5 436Q320 448 284 448Q200 448 159.5 395.5Q119 343 119 241Q119 35 283 35Q319 35 350 47.5Q381 60 403.5 85.5Q426 111 439 151Q452 191 452 245ZM590 602V564H507V0H456L453 104Q429 46 381 17.5Q333 -11 269 -11Q169 -11 116 54Q63 119 63 241Q63 363 118 428Q173 493 277 493Q336 493 381 467.5Q426 442 452 391V564H285V602H452V700H507V602Z" glyph-name="dcroat" horiz-adv-x="620" unicode="&#273;" /><glyph d="M231 357Q146 357 99.5 405Q53 453 53 533Q53 613 99.5 661.5Q146 710 231 710Q315 710 361.5 661.5Q408 613 408 533Q408 453 361.5 405Q315 357 231 357ZM231 671Q169 671 133.5 635Q98 599 98 533Q98 467 133.5 431Q169 395 231 395Q291 395 327 431Q363 467 363 533Q363 599 327 635Q291 671 231 671Z" glyph-name="degree" horiz-adv-x="460" unicode="&#176;" /><glyph d="M337 622Q337 642 349 653Q361 664 381 664Q401 664 413 653Q425 642 425 622Q425 602 413 591Q401 580 381 580Q361 580 349 591Q337 602 337 622ZM185 622Q185 642 196.5 653Q208 664 228 664Q248 664 260 653Q272 642 272 622Q272 602 260 591Q248 580 228 580Q208 580 196.5 591Q185 602 185 622Z" glyph-name="dieresis" horiz-adv-x="600" unicode="&#168;" /><glyph d="M203 460Q203 480 215 491.5Q227 503 247 503Q267 503 279 491.5Q291 480 291 460Q291 440 279 429Q267 418 247 418Q227 418 215 429Q203 440 203 460ZM446 330V284H50V330ZM203 158Q203 179 215 190Q227 201 247 201Q267 201 279 190Q291 179 291 158Q291 138 279 127Q267 116 247 116Q227 116 215 127Q203 138 203 158Z" glyph-name="divide" horiz-adv-x="496" unicode="&#247;" /><glyph d="M269 385V633Q196 630 160.5 601Q125 572 125 519Q125 418 261 387ZM316 64Q394 68 430.5 100.5Q467 133 467 192Q467 217 459.5 237Q452 257 434.5 272.5Q417 288 388 300Q359 312 316 323ZM316 -62H269V16Q195 20 140 49Q85 78 45 141L87 168Q124 116 165.5 91.5Q207 67 269 63V334L252 338Q161 360 117 405Q73 450 73 516Q73 551 84.5 580.5Q96 610 120 631Q144 652 181 664.5Q218 677 269 679V766H316V679Q386 674 430.5 649Q475 624 505 575L462 547Q437 587 403.5 607.5Q370 628 316 633V374L321 373Q375 359 413.5 343Q452 327 476 306Q500 285 511 258Q522 231 522 195Q522 108 469 64.5Q416 21 316 16Z" glyph-name="dollar" horiz-adv-x="576" unicode="$" /><glyph d="M258 622Q258 642 270 653Q282 664 303 664Q346 664 346 622Q346 580 303 580Q282 580 270 591Q258 602 258 622Z" glyph-name="dotaccent" horiz-adv-x="600" unicode="&#729;" /><glyph d="M101 482H157V0H101Z" glyph-name="dotlessi" horiz-adv-x="258" unicode="&#305;" /><glyph d="M101 -46V482H157V-54Q157 -136 123 -173Q89 -210 28 -210Q9 -210 -8.5 -207.5Q-26 -205 -47 -197L-37 -150Q-23 -156 -9.5 -159Q4 -162 24 -162Q62 -162 81.5 -137Q101 -112 101 -46Z" glyph-name="dotlessj" horiz-adv-x="258" unicode="&#567;" /><glyph d="M240 -65V766H291V-65ZM115 -65V766H166V-65Z" glyph-name="doublebar" horiz-adv-x="406" /><glyph d="M287 -11Q180 -11 121.5 50Q63 111 63 241Q63 366 120 429.5Q177 493 285 493Q388 493 439 429.5Q490 366 490 257Q490 251 489.5 245.5Q489 240 489 235V225H119Q122 124 164.5 79.5Q207 35 288 35Q348 35 386 56Q424 77 446 128L488 106Q462 45 410.5 17Q359 -11 287 -11ZM283 448Q207 448 165.5 405Q124 362 119 270H434Q431 362 393 405Q355 448 283 448Z" glyph-name="e" horiz-adv-x="543" unicode="e" /><glyph d="M63 0ZM409 675 302 568H255V571L335 680H409ZM287 -11Q180 -11 121.5 50Q63 111 63 241Q63 366 120 429.5Q177 493 285 493Q388 493 439 429.5Q490 366 490 257Q490 251 489.5 245.5Q489 240 489 235V225H119Q122 124 164.5 79.5Q207 35 288 35Q348 35 386 56Q424 77 446 128L488 106Q462 45 410.5 17Q359 -11 287 -11ZM283 448Q207 448 165.5 405Q124 362 119 270H434Q431 362 393 405Q355 448 283 448Z" glyph-name="eacute" horiz-adv-x="543" unicode="&#233;" /><glyph d="M63 0ZM287 -11Q180 -11 121.5 50Q63 111 63 241Q63 366 120 429.5Q177 493 285 493Q388 493 439 429.5Q490 366 490 257Q490 251 489.5 245.5Q489 240 489 235V225H119Q122 124 164.5 79.5Q207 35 288 35Q348 35 386 56Q424 77 446 128L488 106Q462 45 410.5 17Q359 -11 287 -11ZM283 448Q207 448 165.5 405Q124 362 119 270H434Q431 362 393 405Q355 448 283 448ZM367 679H411Q411 647 402 625Q393 603 376.5 590Q360 577 335.5 571.5Q311 566 281 566Q251 566 227 571.5Q203 577 186.5 590Q170 603 161 625Q152 647 152 679H195Q195 635 217 619Q239 603 281 603Q323 603 345 619Q367 635 367 679Z" glyph-name="ebreve" horiz-adv-x="543" unicode="&#277;" /><glyph d="M63 0ZM283 603 367 680H429V678L309 568H257L137 678V680H201ZM287 -11Q180 -11 121.5 50Q63 111 63 241Q63 366 120 429.5Q177 493 285 493Q388 493 439 429.5Q490 366 490 257Q490 251 489.5 245.5Q489 240 489 235V225H119Q122 124 164.5 79.5Q207 35 288 35Q348 35 386 56Q424 77 446 128L488 106Q462 45 410.5 17Q359 -11 287 -11ZM283 448Q207 448 165.5 405Q124 362 119 270H434Q431 362 393 405Q355 448 283 448Z" glyph-name="ecaron" horiz-adv-x="543" unicode="&#283;" /><glyph d="M63 0ZM283 646 200 568H138V570L258 680H310L430 570V568H365ZM287 -11Q180 -11 121.5 50Q63 111 63 241Q63 366 120 429.5Q177 493 285 493Q388 493 439 429.5Q490 366 490 257Q490 251 489.5 245.5Q489 240 489 235V225H119Q122 124 164.5 79.5Q207 35 288 35Q348 35 386 56Q424 77 446 128L488 106Q462 45 410.5 17Q359 -11 287 -11ZM283 448Q207 448 165.5 405Q124 362 119 270H434Q431 362 393 405Q355 448 283 448Z" glyph-name="ecircumflex" horiz-adv-x="543" unicode="&#234;" /><glyph d="M63 0ZM315 622Q315 642 327 653Q339 664 359 664Q379 664 391 653Q403 642 403 622Q403 602 391 591Q379 580 359 580Q339 580 327 591Q315 602 315 622ZM163 622Q163 642 174.5 653Q186 664 206 664Q226 664 238 653Q250 642 250 622Q250 602 238 591Q226 580 206 580Q186 580 174.5 591Q163 602 163 622ZM287 -11Q180 -11 121.5 50Q63 111 63 241Q63 366 120 429.5Q177 493 285 493Q388 493 439 429.5Q490 366 490 257Q490 251 489.5 245.5Q489 240 489 235V225H119Q122 124 164.5 79.5Q207 35 288 35Q348 35 386 56Q424 77 446 128L488 106Q462 45 410.5 17Q359 -11 287 -11ZM283 448Q207 448 165.5 405Q124 362 119 270H434Q431 362 393 405Q355 448 283 448Z" glyph-name="edieresis" horiz-adv-x="543" unicode="&#235;" /><glyph d="M63 0ZM287 -11Q180 -11 121.5 50Q63 111 63 241Q63 366 120 429.5Q177 493 285 493Q388 493 439 429.5Q490 366 490 257Q490 251 489.5 245.5Q489 240 489 235V225H119Q122 124 164.5 79.5Q207 35 288 35Q348 35 386 56Q424 77 446 128L488 106Q462 45 410.5 17Q359 -11 287 -11ZM283 448Q207 448 165.5 405Q124 362 119 270H434Q431 362 393 405Q355 448 283 448ZM240 622Q240 642 252 653Q264 664 285 664Q328 664 328 622Q328 580 285 580Q264 580 252 591Q240 602 240 622Z" glyph-name="edotaccent" horiz-adv-x="543" unicode="&#279;" /><glyph d="M63 0ZM287 -11Q180 -11 121.5 50Q63 111 63 241Q63 366 120 429.5Q177 493 285 493Q388 493 439 429.5Q490 366 490 257Q490 251 489.5 245.5Q489 240 489 235V225H119Q122 124 164.5 79.5Q207 35 288 35Q348 35 386 56Q424 77 446 128L488 106Q462 45 410.5 17Q359 -11 287 -11ZM283 448Q207 448 165.5 405Q124 362 119 270H434Q431 362 393 405Q355 448 283 448ZM265 568 158 675V680H232L313 571V568Z" glyph-name="egrave" horiz-adv-x="543" unicode="&#232;" /><glyph d="M312 -11Q194 -11 130 43Q66 97 66 191Q66 266 108.5 311.5Q151 357 220 371Q161 385 126.5 426Q92 467 92 532Q92 620 148 665.5Q204 711 312 711Q420 711 476 666Q532 621 532 533Q532 468 498 427Q464 386 405 371Q473 357 515.5 311.5Q558 266 558 191Q558 97 494.5 43Q431 -11 312 -11ZM477 532Q477 597 435.5 631.5Q394 666 312 666Q230 666 188.5 631.5Q147 597 147 532Q147 469 188.5 432Q230 395 312 395Q394 395 435.5 432Q477 469 477 532ZM502 193Q502 265 452.5 306Q403 347 312 347Q222 347 172.5 306Q123 265 123 193Q123 118 170.5 77Q218 36 312 36Q406 36 454 77Q502 118 502 193Z" glyph-name="eight" horiz-adv-x="625" unicode="8" /><glyph d="M319 -11Q201 -11 137 43Q73 97 73 191Q73 266 115.5 311.5Q158 357 227 371Q168 385 134 426Q100 467 100 532Q100 620 155.5 665.5Q211 711 319 711Q427 711 483 666Q539 621 539 533Q539 468 505 427Q471 386 412 371Q481 357 523 311.5Q565 266 565 191Q565 97 501.5 43Q438 -11 319 -11ZM484 532Q484 597 442.5 631.5Q401 666 319 666Q237 666 195.5 631.5Q154 597 154 532Q154 469 195.5 432Q237 395 319 395Q401 395 442.5 432Q484 469 484 532ZM509 193Q509 265 459.5 306Q410 347 319 347Q229 347 179.5 306Q130 265 130 193Q130 118 177.5 77Q225 36 319 36Q413 36 461 77Q509 118 509 193Z" glyph-name="eight.LP" horiz-adv-x="639" /><glyph d="M304 -11Q191 -11 130.5 43Q70 97 70 191Q70 266 110 311.5Q150 357 215 371Q159 386 127 426.5Q95 467 95 532Q95 620 148 665.5Q201 711 304 711Q407 711 460 666Q513 621 513 533Q513 468 480.5 427Q448 386 392 371Q457 357 497 311.5Q537 266 537 191Q537 97 476.5 43Q416 -11 304 -11ZM459 532Q459 597 420.5 631.5Q382 666 304 666Q226 666 187.5 631.5Q149 597 149 532Q149 469 187.5 432Q226 395 304 395Q382 395 420.5 432Q459 469 459 532ZM483 193Q483 265 436.5 306Q390 347 304 347Q218 347 171.5 306Q125 265 125 193Q125 118 170 77Q215 36 304 36Q392 36 437.5 77Q483 118 483 193Z" glyph-name="eight.OP" horiz-adv-x="607" /><glyph d="M312 -11Q194 -11 130 43Q66 97 66 191Q66 266 108.5 311.5Q151 357 220 371Q161 385 126.5 426Q92 467 92 532Q92 620 148 665.5Q204 711 312 711Q420 711 476 666Q532 621 532 533Q532 468 498 427Q464 386 405 371Q473 357 515.5 311.5Q558 266 558 191Q558 97 494.5 43Q431 -11 312 -11ZM477 532Q477 597 435.5 631.5Q394 666 312 666Q230 666 188.5 631.5Q147 597 147 532Q147 469 188.5 432Q230 395 312 395Q394 395 435.5 432Q477 469 477 532ZM502 193Q502 265 452.5 306Q403 347 312 347Q222 347 172.5 306Q123 265 123 193Q123 118 170.5 77Q218 36 312 36Q406 36 454 77Q502 118 502 193Z" glyph-name="eight.OT" horiz-adv-x="625" /><glyph d="M44 0ZM193 -208Q121 -208 82.5 -177Q44 -146 44 -89Q44 -46 67.5 -20Q91 6 129 15Q97 26 79 49.5Q61 73 61 108Q61 216 193 216Q325 216 325 109Q325 73 307 49.5Q289 26 257 15Q295 6 318 -20.5Q341 -47 341 -89Q341 -146 303 -177Q265 -208 193 -208ZM282 107Q282 177 193 177Q104 177 104 107Q104 73 126 53.5Q148 34 193 34Q237 34 259.5 53.5Q282 73 282 107ZM294 -88Q294 -50 267.5 -28Q241 -6 193 -6Q145 -6 118.5 -28Q92 -50 92 -88Q92 -126 117.5 -148.5Q143 -171 193 -171Q243 -171 268.5 -148.5Q294 -126 294 -88Z" glyph-name="eight.inf" horiz-adv-x="388" /><glyph d="M489 37Q489 57 500.5 68Q512 79 532 79Q552 79 564 68Q576 57 576 37Q576 17 564 5.5Q552 -6 532 -6Q512 -6 500.5 5.5Q489 17 489 37ZM275 37Q275 57 287 68Q299 79 319 79Q339 79 351 68Q363 57 363 37Q363 17 351 5.5Q339 -6 319 -6Q299 -6 287 5.5Q275 17 275 37ZM63 37Q63 57 75 68Q87 79 107 79Q127 79 138.5 68Q150 57 150 37Q150 17 138.5 5.5Q127 -6 107 -6Q87 -6 75 5.5Q63 17 63 37Z" glyph-name="ellipsis" horiz-adv-x="638" unicode="&#8230;" /><glyph d="M63 0ZM287 -11Q180 -11 121.5 50Q63 111 63 241Q63 366 120 429.5Q177 493 285 493Q388 493 439 429.5Q490 366 490 257Q490 251 489.5 245.5Q489 240 489 235V225H119Q122 124 164.5 79.5Q207 35 288 35Q348 35 386 56Q424 77 446 128L488 106Q462 45 410.5 17Q359 -11 287 -11ZM283 448Q207 448 165.5 405Q124 362 119 270H434Q431 362 393 405Q355 448 283 448ZM403 641V602H164V641Z" glyph-name="emacron" horiz-adv-x="543" unicode="&#275;" /><glyph d="M739 273V227H50V273Z" glyph-name="emdash" horiz-adv-x="788" unicode="&#8212;" /><glyph d="M739 376V330H50V376Z" glyph-name="emdash.cap" horiz-adv-x="788" /><glyph glyph-name="emspace" horiz-adv-x="1000" unicode="&#8195;" /><glyph d="M539 273V227H50V273Z" glyph-name="endash" horiz-adv-x="588" unicode="&#8211;" /><glyph d="M539 376V330H50V376Z" glyph-name="endash.cap" horiz-adv-x="588" /><glyph d="M469 -46V291Q469 376 432.5 410.5Q396 445 331 445Q250 445 204.5 392.5Q159 340 154 250V0H98V482H147L154 372Q180 434 229.5 463.5Q279 493 348 493Q525 493 525 305V-54Q525 -136 491 -173Q457 -210 396 -210Q377 -210 360 -207.5Q343 -205 322 -197L331 -150Q345 -156 359 -159Q373 -162 393 -162Q430 -162 449.5 -137Q469 -112 469 -46Z" glyph-name="eng" horiz-adv-x="616" unicode="&#331;" /><glyph glyph-name="enspace" horiz-adv-x="500" unicode="&#8194;" /><glyph d="M233 -112Q233 -78 247 -52.5Q261 -27 282 -10Q178 -9 120.5 51.5Q63 112 63 241Q63 366 120 429.5Q177 493 285 493Q389 493 439.5 429.5Q490 366 490 257V241Q490 232 489 225H118Q120 124 164 79.5Q208 35 288 35Q348 35 386 56Q424 77 446 128L488 106Q450 20 359 -2Q321 -12 298.5 -41Q276 -70 276 -105Q276 -138 294 -151Q312 -164 341 -164Q378 -164 406 -146L416 -182Q379 -204 336 -204Q316 -204 297.5 -199.5Q279 -195 264.5 -184.5Q250 -174 241.5 -156Q233 -138 233 -112ZM283 448Q206 448 165 405Q124 362 119 270H435Q433 362 394 405Q355 448 283 448Z" glyph-name="eogonek" horiz-adv-x="543" unicode="&#281;" /><glyph d="M446 395V349H50V395ZM446 270V223H50V270Z" glyph-name="equal" horiz-adv-x="496" unicode="=" /><glyph d="M38 0ZM272 36V0H38V36ZM272 -40V-76H38V-40Z" glyph-name="equal.inf" horiz-adv-x="309" /><glyph d="M482 706 503 674 416 619Q470 555 494.5 463.5Q519 372 519 249V239Q519 111 461.5 50Q404 -11 292 -11Q181 -11 122 49Q63 109 63 239Q63 369 122.5 430Q182 491 292 491Q403 491 451 414Q441 469 422 513Q403 557 372 592L286 538L265 570L344 620Q316 646 281 664Q246 682 203 696L221 735Q324 706 388 646ZM463 239Q463 348 421.5 397Q380 446 292 446Q203 446 161 397Q119 348 119 239Q119 131 161.5 83Q204 35 292 35Q380 35 421.5 83Q463 131 463 239Z" glyph-name="eth" horiz-adv-x="586" unicode="&#240;" /><glyph d="M137 700 129 181H82L74 700ZM62 37Q62 57 74 68Q86 79 106 79Q126 79 137.5 68Q149 57 149 37Q149 17 137.5 5.5Q126 -6 106 -6Q86 -6 74 5.5Q62 17 62 37Z" glyph-name="exclam" horiz-adv-x="211" unicode="!" /><glyph d="M80 -198 88 321H135L143 -198ZM155 465Q155 445 143 434Q131 423 111 423Q91 423 79.5 434Q68 445 68 465Q68 485 79.5 496.5Q91 508 111 508Q131 508 143 496.5Q155 485 155 465Z" glyph-name="exclamdown" horiz-adv-x="217" unicode="&#161;" /><glyph d="M82 0 90 519H137L145 0ZM157 663Q157 643 145 632Q133 621 113 621Q93 621 81.5 632Q70 643 70 663Q70 683 81.5 694.5Q93 706 113 706Q133 706 145 694.5Q157 683 157 663Z" glyph-name="exclamdown.cap" horiz-adv-x="220" /><glyph d="M32 482H126V556Q126 640 162.5 676.5Q199 713 264 713Q285 713 305.5 709Q326 705 344 697L335 650Q319 657 304 660.5Q289 664 269 664Q227 664 203.5 639.5Q180 615 180 551V482H336V438H180V0H126V438H32Z" glyph-name="f" horiz-adv-x="348" unicode="f" /><glyph d="M433 623Q433 643 445 654Q457 665 477 665Q520 665 520 623Q520 580 477 580Q457 580 445 591.5Q433 603 433 623ZM126 0V438H32V482H126V556Q126 640 162.5 676.5Q199 713 264 713Q285 713 305.5 709Q326 705 344 697L335 650Q319 657 304 660.5Q289 664 269 664Q227 664 203.5 639.5Q180 615 180 551V482H336V438H180V0ZM449 482H505V0H449Z" glyph-name="fi" horiz-adv-x="606" unicode="&#64257;" /><glyph d="M538 273V227H50V273Z" glyph-name="figuredash" horiz-adv-x="588" unicode="&#8210;" /><glyph d="M538 376V330H50V376Z" glyph-name="figuredash.cap" horiz-adv-x="588" /><glyph glyph-name="figurespace" horiz-adv-x="625" unicode="&#8199;" /><glyph d="M173 651 146 384Q186 413 232 425.5Q278 438 326 438Q375 438 418 426Q461 414 492.5 388.5Q524 363 542 322.5Q560 282 560 226Q560 174 543.5 130.5Q527 87 494.5 55.5Q462 24 414 6.5Q366 -11 302 -11Q224 -11 163 16.5Q102 44 65 107L107 140Q137 89 185 62Q233 35 302 35Q353 35 391 49Q429 63 453.5 88.5Q478 114 490.5 148.5Q503 183 503 224Q503 309 454 351Q405 393 314 393Q253 393 208.5 374.5Q164 356 123 324L91 340L128 700H523V651Z" glyph-name="five" horiz-adv-x="625" unicode="5" /><glyph d="M163 651 136 384Q176 413 222 425.5Q268 438 316 438Q365 438 408 426Q451 414 482.5 388.5Q514 363 532 322.5Q550 282 550 226Q550 174 533.5 130.5Q517 87 485 55.5Q453 24 404.5 6.5Q356 -11 292 -11Q214 -11 153 16.5Q92 44 55 107L97 140Q127 89 175 62Q223 35 292 35Q343 35 381 49Q419 63 443.5 88.5Q468 114 480.5 148.5Q493 183 493 224Q493 309 444.5 350.5Q396 392 305 392Q243 392 198.5 374Q154 356 113 324L81 340L118 700H513V651Z" glyph-name="five.LP" horiz-adv-x="593" /><glyph d="M158 552 131 285Q169 314 212 326Q255 338 301 338Q348 338 389 326Q430 314 460 288Q490 262 507.5 221.5Q525 181 525 124Q525 73 509 29.5Q493 -14 462 -45Q431 -76 385 -93.5Q339 -111 279 -111Q204 -111 145 -83.5Q86 -56 51 7L92 39Q121 -12 166.5 -39Q212 -66 279 -66Q326 -66 361.5 -51.5Q397 -37 420.5 -11.5Q444 14 456 48.5Q468 83 468 123Q468 208 422 250Q376 292 287 292Q231 292 188.5 274Q146 256 108 224L76 240L112 600H488V552Z" glyph-name="five.OP" horiz-adv-x="563" /><glyph d="M173 551 146 284Q186 313 232 325.5Q278 338 326 338Q375 338 418 326Q461 314 492.5 288.5Q524 263 542 222.5Q560 182 560 126Q560 74 543.5 30.5Q527 -13 494.5 -44.5Q462 -76 414 -93.5Q366 -111 302 -111Q224 -111 163 -83.5Q102 -56 65 7L107 40Q137 -11 185 -38Q233 -65 302 -65Q353 -65 391 -51Q429 -37 453.5 -11.5Q478 14 490.5 48.5Q503 83 503 124Q503 209 454 251Q405 293 314 293Q253 293 208.5 274.5Q164 256 123 224L91 240L128 600H523V551Z" glyph-name="five.OT" horiz-adv-x="625" /><glyph d="M33 0ZM108 167 93 27Q116 43 140.5 49Q165 55 192 55Q222 55 247 48Q272 41 290.5 26Q309 11 319.5 -13Q330 -37 330 -70Q330 -132 291 -170Q252 -208 177 -208Q129 -208 92 -192Q55 -176 33 -139L66 -113Q83 -140 109.5 -154Q136 -168 176 -168Q229 -168 255.5 -141Q282 -114 282 -71Q282 19 179 19Q148 19 123.5 10Q99 1 77 -16L49 -3L70 207H309V167Z" glyph-name="five.inf" horiz-adv-x="358" /><glyph d="M126 0V438H32V482H126V556Q126 640 162.5 676.5Q199 713 264 713Q285 713 305.5 709Q326 705 344 697L335 650Q319 657 304 660.5Q289 664 269 664Q227 664 203.5 639.5Q180 615 180 551V482H336V438H180V0ZM547 0Q498 0 470.5 23.5Q443 47 443 102V700H499V109Q499 73 512 59.5Q525 46 560 46H594V0Z" glyph-name="fl" horiz-adv-x="604" unicode="&#64258;" /><glyph d="M126 0V438H32V482H126V556Q126 640 162.5 676.5Q199 713 264 713Q285 713 305.5 709Q326 705 344 697L335 650Q319 657 304 660.5Q289 664 269 664Q227 664 203.5 639.5Q180 615 180 551V482H336V438H180V0ZM504 700V0H448V700Z" glyph-name="fl.alt" horiz-adv-x="604" /><glyph d="M72 -48 128 317H37L44 361H135L152 462Q165 545 206 581.5Q247 618 311 618Q331 618 352 614Q373 610 390 602L373 555Q359 562 345 565Q331 568 311 568Q269 568 243 544.5Q217 521 206 457L190 361H343L336 317H184L126 -54Q113 -136 75 -173Q37 -210 -23 -210Q-42 -210 -61 -207.5Q-80 -205 -97 -197L-80 -150Q-66 -156 -54 -159Q-42 -162 -22 -162Q14 -162 37.5 -137.5Q61 -113 72 -48Z" glyph-name="florin" horiz-adv-x="380" unicode="&#402;" /><glyph d="M30 190V230L274 700H334L91 239H425V582H481V239H595V190H481V0H425V190Z" glyph-name="four" horiz-adv-x="625" unicode="4" /><glyph d="M44 190V230L288 700H348L105 239H439V582H495V239H609V190H495V0H439V190Z" glyph-name="four.LP" horiz-adv-x="635" /><glyph d="M42 90V129L274 600H330L100 135H417V482H472V135H579V90H472V-100H417V90Z" glyph-name="four.OP" horiz-adv-x="603" /><glyph d="M30 90V130L274 600H334L91 139H425V482H481V139H595V90H481V-100H425V90Z" glyph-name="four.OT" horiz-adv-x="625" /><glyph d="M29 0ZM29 -96V-61L168 207H216L79 -54H259V133H303V-54H367V-96H303V-200H259V-96Z" glyph-name="four.inf" horiz-adv-x="387" /><glyph glyph-name="fourperemspace" horiz-adv-x="250" unicode="&#8197;" /><glyph d="M442 701 108 0H54L390 701Z" glyph-name="fraction" horiz-adv-x="492" unicode="&#8260;" /><glyph d="M449 250Q449 301 436 338.5Q423 376 400.5 400.5Q378 425 347.5 436.5Q317 448 281 448Q119 448 119 246Q119 43 280 43Q317 43 348 55Q379 67 401.5 92.5Q424 118 436.5 157Q449 196 449 250ZM505 482V5Q505 -53 487.5 -93.5Q470 -134 439.5 -160Q409 -186 366 -198Q323 -210 272 -210Q204 -210 152 -186.5Q100 -163 68 -100L109 -71Q136 -124 176.5 -144Q217 -164 272 -164Q311 -164 343.5 -155Q376 -146 399.5 -126Q423 -106 436 -74Q449 -42 449 4V102Q424 48 377.5 22.5Q331 -3 268 -3Q170 -3 116.5 60.5Q63 124 63 246Q63 365 115.5 429Q168 493 270 493Q333 493 379.5 467Q426 441 451 389L457 482Z" glyph-name="g" horiz-adv-x="604" unicode="g" /><glyph d="M63 0ZM449 250Q449 301 436 338.5Q423 376 400.5 400.5Q378 425 347.5 436.5Q317 448 281 448Q119 448 119 246Q119 43 280 43Q317 43 348 55Q379 67 401.5 92.5Q424 118 436.5 157Q449 196 449 250ZM505 482V5Q505 -53 487.5 -93.5Q470 -134 439.5 -160Q409 -186 366 -198Q323 -210 272 -210Q204 -210 152 -186.5Q100 -163 68 -100L109 -71Q136 -124 176.5 -144Q217 -164 272 -164Q311 -164 343.5 -155Q376 -146 399.5 -126Q423 -106 436 -74Q449 -42 449 4V102Q424 48 377.5 22.5Q331 -3 268 -3Q170 -3 116.5 60.5Q63 124 63 246Q63 365 115.5 429Q168 493 270 493Q333 493 379.5 467Q426 441 451 389L457 482ZM362 679H406Q406 647 397 625Q388 603 371.5 590Q355 577 330.5 571.5Q306 566 276 566Q246 566 222 571.5Q198 577 181.5 590Q165 603 156 625Q147 647 147 679H190Q190 635 212 619Q234 603 276 603Q318 603 340 619Q362 635 362 679Z" glyph-name="gbreve" horiz-adv-x="604" unicode="&#287;" /><glyph d="M63 0ZM278 646 195 568H133V570L253 680H305L425 570V568H360ZM449 250Q449 301 436 338.5Q423 376 400.5 400.5Q378 425 347.5 436.5Q317 448 281 448Q119 448 119 246Q119 43 280 43Q317 43 348 55Q379 67 401.5 92.5Q424 118 436.5 157Q449 196 449 250ZM505 482V5Q505 -53 487.5 -93.5Q470 -134 439.5 -160Q409 -186 366 -198Q323 -210 272 -210Q204 -210 152 -186.5Q100 -163 68 -100L109 -71Q136 -124 176.5 -144Q217 -164 272 -164Q311 -164 343.5 -155Q376 -146 399.5 -126Q423 -106 436 -74Q449 -42 449 4V102Q424 48 377.5 22.5Q331 -3 268 -3Q170 -3 116.5 60.5Q63 124 63 246Q63 365 115.5 429Q168 493 270 493Q333 493 379.5 467Q426 441 451 389L457 482Z" glyph-name="gcircumflex" horiz-adv-x="604" unicode="&#285;" /><glyph d="M310 757 322 731Q298 721 285 699.5Q272 678 270 650Q296 654 308.5 641Q321 628 321 610Q321 590 310 580Q299 570 280 570Q259 570 246.5 584Q234 598 234 631Q234 674 252.5 709.5Q271 745 310 757ZM449 250Q449 301 436 338.5Q423 376 400.5 400.5Q378 425 347.5 436.5Q317 448 281 448Q119 448 119 246Q119 43 280 43Q317 43 348 55Q379 67 401.5 92.5Q424 118 436.5 157Q449 196 449 250ZM505 482V5Q505 -53 487.5 -93.5Q470 -134 439.5 -160Q409 -186 366 -198Q323 -210 272 -210Q204 -210 152 -186.5Q100 -163 68 -100L109 -71Q136 -124 176.5 -144Q217 -164 272 -164Q311 -164 343.5 -155Q376 -146 399.5 -126Q423 -106 436 -74Q449 -42 449 4V102Q424 48 377.5 22.5Q331 -3 268 -3Q170 -3 116.5 60.5Q63 124 63 246Q63 365 115.5 429Q168 493 270 493Q333 493 379.5 467Q426 441 451 389L457 482Z" glyph-name="gcommaaccent" horiz-adv-x="604" unicode="&#291;" /><glyph d="M63 0ZM449 250Q449 301 436 338.5Q423 376 400.5 400.5Q378 425 347.5 436.5Q317 448 281 448Q119 448 119 246Q119 43 280 43Q317 43 348 55Q379 67 401.5 92.5Q424 118 436.5 157Q449 196 449 250ZM505 482V5Q505 -53 487.5 -93.5Q470 -134 439.5 -160Q409 -186 366 -198Q323 -210 272 -210Q204 -210 152 -186.5Q100 -163 68 -100L109 -71Q136 -124 176.5 -144Q217 -164 272 -164Q311 -164 343.5 -155Q376 -146 399.5 -126Q423 -106 436 -74Q449 -42 449 4V102Q424 48 377.5 22.5Q331 -3 268 -3Q170 -3 116.5 60.5Q63 124 63 246Q63 365 115.5 429Q168 493 270 493Q333 493 379.5 467Q426 441 451 389L457 482ZM235 622Q235 642 247 653Q259 664 280 664Q323 664 323 622Q323 580 280 580Q259 580 247 591Q235 602 235 622Z" glyph-name="gdotaccent" horiz-adv-x="604" unicode="&#289;" /><glyph d="M331 353H286V397H332Q396 397 426.5 435.5Q457 474 457 532Q457 598 418 630.5Q379 663 310 663Q237 663 195.5 619.5Q154 576 154 485V1H98V490Q98 550 115 592Q132 634 161 660Q190 686 228.5 698Q267 710 310 710Q410 710 461.5 661.5Q513 613 513 533Q513 478 489.5 439.5Q466 401 424 381Q493 364 526.5 317Q560 270 560 201Q560 155 546.5 117Q533 79 506.5 51.5Q480 24 440.5 9Q401 -6 350 -6Q326 -6 300 -2.5Q274 1 243 15L255 60Q280 49 300.5 45Q321 41 341 41Q420 41 462.5 79.5Q505 118 505 199Q505 269 464 311Q423 353 331 353Z" glyph-name="germandbls" horiz-adv-x="609" unicode="&#223;" /><glyph d="M285 568 178 675V680H252L333 571V568Z" glyph-name="grave" horiz-adv-x="600" unicode="`" /><glyph d="M114 111 86 147 312 309 86 470 115 508 376 323V298Z" glyph-name="greater" horiz-adv-x="459" unicode="&gt;" /><glyph d="M120 139 96 176 312 323 95 470 121 508 380 337V312ZM387 46V0H86V46Z" glyph-name="greaterequal" horiz-adv-x="476" unicode="&#8805;" /><glyph d="M452 0 257 241V244L449 482H513L320 244L517 0ZM252 0 61 240V243L252 482H316L124 242L319 0Z" glyph-name="guillemotleft" horiz-adv-x="608" unicode="&#171;" /><glyph d="M156 483 351 242V239L159 1H95L288 239L91 483ZM356 483 547 243V240L356 1H292L484 241L289 483Z" glyph-name="guillemotright" horiz-adv-x="608" unicode="&#187;" /><glyph d="M252 0 61 240V243L252 482H316L124 242L318 0Z" glyph-name="guilsinglleft" horiz-adv-x="408" unicode="&#8249;" /><glyph d="M156 482 347 242V239L156 0H92L284 240L90 482Z" glyph-name="guilsinglright" horiz-adv-x="408" unicode="&#8250;" /><glyph d="M154 700V369Q179 432 230.5 462.5Q282 493 348 493Q525 493 525 305V0H469V290Q469 375 432 410Q395 445 331 445Q250 445 204.5 392.5Q159 340 154 250V0H98V700Z" glyph-name="h" horiz-adv-x="616" unicode="h" /><glyph glyph-name="hairspace" horiz-adv-x="100" unicode="&#8202;" /><glyph d="M29 564V602H112V700H168V602H334V564H168V369Q193 432 244.5 462.5Q296 493 362 493Q538 493 538 305V0H482V290Q482 375 445 410Q408 445 345 445Q264 445 218 392.5Q172 340 168 250V0H112V564Z" glyph-name="hbar" horiz-adv-x="630" unicode="&#295;" /><glyph d="M0 0ZM130 823 47 745H-15V747L105 857H157L277 747V745H212ZM154 700V369Q179 432 230.5 462.5Q282 493 348 493Q525 493 525 305V0H469V290Q469 375 432 410Q395 445 331 445Q250 445 204.5 392.5Q159 340 154 250V0H98V700Z" glyph-name="hcircumflex" horiz-adv-x="616" unicode="&#293;" /><glyph d="M488 675 378 568H332V571L413 680H488ZM358 675 265 568H219V571L290 680H358Z" glyph-name="hungarumlaut" horiz-adv-x="600" unicode="&#733;" /><glyph d="M365 273V227H50V273Z" glyph-name="hyphen" horiz-adv-x="414" unicode="-" /><glyph d="M365 376V330H50V376Z" glyph-name="hyphen.cap" horiz-adv-x="414" /><glyph d="M86 623Q86 665 129 665Q172 665 172 623Q172 580 129 580Q86 580 86 623ZM101 482H157V0H101Z" glyph-name="i" horiz-adv-x="258" unicode="i" /><glyph d="M101 0ZM256 675 149 568H102V571L182 680H256ZM101 482H157V0H101Z" glyph-name="iacute" horiz-adv-x="258" unicode="&#237;" /><glyph d="M0 0ZM101 482H157V0H101ZM214 679H258Q258 647 249 625Q240 603 223.5 590Q207 577 182.5 571.5Q158 566 128 566Q98 566 74 571.5Q50 577 33.5 590Q17 603 8 625Q-1 647 -1 679H42Q42 635 64 619Q86 603 128 603Q170 603 192 619Q214 635 214 679Z" glyph-name="ibreve" horiz-adv-x="258" unicode="&#301;" /><glyph d="M0 0ZM129 646 46 568H-16V570L104 680H156L276 570V568H211ZM101 482H157V0H101Z" glyph-name="icircumflex" horiz-adv-x="258" unicode="&#238;" /><glyph d="M9 0ZM161 622Q161 642 173 653Q185 664 205 664Q225 664 237 653Q249 642 249 622Q249 602 237 591Q225 580 205 580Q185 580 173 591Q161 602 161 622ZM9 622Q9 642 20.5 653Q32 664 52 664Q72 664 84 653Q96 642 96 622Q96 602 84 591Q72 580 52 580Q32 580 20.5 591Q9 602 9 622ZM101 482H157V0H101Z" glyph-name="idieresis" horiz-adv-x="258" unicode="&#239;" /><glyph d="M86 623Q86 665 129 665Q172 665 172 623Q172 580 129 580Q86 580 86 623ZM101 482H157V0H101Z" glyph-name="idotaccent" horiz-adv-x="258" /><glyph d="M4 0ZM101 482H157V0H101ZM111 568 4 675V680H78L159 571V568Z" glyph-name="igrave" horiz-adv-x="258" unicode="&#236;" /><glyph d="M86 0ZM86 623Q86 665 129 665Q172 665 172 623Q172 580 129 580Q86 580 86 623ZM101 482H157V0H101ZM344 623Q344 665 387 665Q430 665 430 623Q430 580 387 580Q344 580 344 623ZM359 -46V482H415V-54Q415 -136 381 -173Q347 -210 286 -210Q267 -210 249.5 -207.5Q232 -205 211 -197L221 -150Q235 -156 248.5 -159Q262 -162 282 -162Q320 -162 339.5 -137Q359 -112 359 -46Z" glyph-name="ij" horiz-adv-x="515" unicode="&#307;" /><glyph d="M10 0ZM101 482H157V0H101ZM249 641V602H10V641Z" glyph-name="imacron" horiz-adv-x="258" unicode="&#299;" /><glyph d="M86 623Q86 665 129 665Q172 665 172 623Q172 580 129 580Q86 580 86 623ZM96 -204Q76 -204 57.5 -199.5Q39 -195 24.5 -184.5Q10 -174 1.5 -156Q-7 -138 -7 -112Q-7 -85 2.5 -62.5Q12 -40 27 -23Q42 -6 61.5 5Q81 16 101 21V482H157V0H135Q93 -5 64.5 -35Q36 -65 36 -105Q36 -138 53.5 -151Q71 -164 100 -164Q137 -164 165 -146L176 -182Q139 -204 96 -204Z" glyph-name="iogonek" horiz-adv-x="258" unicode="&#303;" /><glyph d="M0 0ZM101 482H157V0H101ZM224 669H268Q269 643 262 626Q255 609 244 599.5Q233 590 219 586Q205 582 192 582Q171 582 154.5 589.5Q138 597 124 606.5Q110 616 96.5 623.5Q83 631 67 631Q51 631 41.5 620Q32 609 32 586H-12Q-13 611 -6.5 628Q0 645 11 655Q22 665 35.5 669Q49 673 62 673Q84 673 100.5 665.5Q117 658 131.5 648.5Q146 639 159.5 631.5Q173 624 189 624Q224 624 224 669Z" glyph-name="itilde" horiz-adv-x="258" unicode="&#297;" /><glyph d="M86 623Q86 665 129 665Q172 665 172 623Q172 580 129 580Q86 580 86 623ZM101 -46V482H157V-54Q157 -136 123 -173Q89 -210 28 -210Q9 -210 -8.5 -207.5Q-26 -205 -47 -197L-37 -150Q-23 -156 -9.5 -159Q4 -162 24 -162Q62 -162 81.5 -137Q101 -112 101 -46Z" glyph-name="j" horiz-adv-x="258" unicode="j" /><glyph d="M0 0ZM101 -46V482H157V-54Q157 -136 123 -173Q89 -210 28 -210Q9 -210 -8.5 -207.5Q-26 -205 -47 -197L-37 -150Q-23 -156 -9.5 -159Q4 -162 24 -162Q62 -162 81.5 -137Q101 -112 101 -46ZM129 646 46 568H-16V570L104 680H156L276 570V568H211Z" glyph-name="jcircumflex" horiz-adv-x="258" unicode="&#309;" /><glyph d="M99 0V700H155V197L418 482H486L286 268L495 0H428L250 231L155 131V0Z" glyph-name="k" horiz-adv-x="511" unicode="k" /><glyph d="M99 0V700H155V0ZM424 0 170 235V238L415 482H479L237 240L494 0Z" glyph-name="k.alt" horiz-adv-x="510" /><glyph d="M99 0ZM242 -255 230 -229Q254 -219 267 -197.5Q280 -176 282 -148Q256 -152 243.5 -139Q231 -126 231 -108Q231 -88 242 -78Q253 -68 272 -68Q293 -68 305.5 -82Q318 -96 318 -129Q318 -172 299.5 -207.5Q281 -243 242 -255ZM99 0V700H155V197L418 482H486L286 268L495 0H428L250 231L155 131V0Z" glyph-name="kcommaaccent" horiz-adv-x="511" unicode="&#311;" /><glyph d="M99 0ZM243 -255 231 -229Q255 -219 268 -197.5Q281 -176 283 -148Q257 -152 244.5 -139Q232 -126 232 -108Q232 -88 243 -78Q254 -68 273 -68Q294 -68 306.5 -82Q319 -96 319 -129Q319 -172 300.5 -207.5Q282 -243 243 -255ZM99 0V700H155V0ZM424 0 170 235V238L415 482H479L237 240L494 0Z" glyph-name="kcommaaccent.alt" horiz-adv-x="510" /><glyph d="M99 0V482H155V197L418 482H486L286 268L495 0H428L250 231L155 131V0Z" glyph-name="kgreenlandic" horiz-adv-x="511" unicode="&#312;" /><glyph d="M199 0Q150 0 122.5 23.5Q95 47 95 102V700H151V109Q151 73 164 59.5Q177 46 212 46H246V0Z" glyph-name="l" horiz-adv-x="260" unicode="l" /><glyph d="M156 700V0H100V700Z" glyph-name="l.alt" horiz-adv-x="255" /><glyph d="M96 0ZM251 894 144 787H97V790L177 899H251ZM200 0Q151 0 123.5 23.5Q96 47 96 102V700H152V109Q152 73 165 59.5Q178 46 213 46H247V0Z" glyph-name="lacute" horiz-adv-x="260" unicode="&#314;" /><glyph d="M96 0ZM294 500H255L262 700H319ZM200 0Q151 0 123.5 23.5Q96 47 96 102V700H152V109Q152 73 165 59.5Q178 46 213 46H247V0Z" glyph-name="lcaron" horiz-adv-x="298" unicode="&#318;" /><glyph d="M95 0ZM199 0Q150 0 122.5 23.5Q95 47 95 102V700H151V109Q151 73 164 59.5Q177 46 212 46H246V0ZM144 -255 132 -229Q156 -219 169 -197.5Q182 -176 184 -148Q158 -152 145.5 -139Q133 -126 133 -108Q133 -88 144 -78Q155 -68 174 -68Q195 -68 207.5 -82Q220 -96 220 -129Q220 -172 201.5 -207.5Q183 -243 144 -255Z" glyph-name="lcommaaccent" horiz-adv-x="260" unicode="&#316;" /><glyph d="M96 0ZM200 0Q151 0 123.5 23.5Q96 47 96 102V700H152V109Q152 73 165 59.5Q178 46 213 46H247V0ZM243 301Q243 321 255 332Q267 343 288 343Q331 343 331 301Q331 259 288 259Q267 259 255 270Q243 281 243 301Z" glyph-name="ldot" horiz-adv-x="329" unicode="&#320;" /><glyph d="M345 508 373 472 149 311 373 150 345 111 83 297V323Z" glyph-name="less" horiz-adv-x="459" unicode="&lt;" /><glyph d="M355 508 379 471 164 324 380 178 355 139 95 310V336ZM86 0V46H387V0Z" glyph-name="lessequal" horiz-adv-x="476" unicode="&#8804;" /><glyph d="M266 0H219Q170 0 142.5 23.5Q115 47 115 102V291L12 201V256L115 346V700H171V390L285 491V436L171 335V109Q171 73 184 59.5Q197 46 232 46H266Z" glyph-name="lslash" horiz-adv-x="286" unicode="&#322;" /><glyph d="M98 0V482H147L153 375Q178 437 225.5 465Q273 493 328 493Q394 493 431.5 457.5Q469 422 479 361Q502 430 552 461.5Q602 493 665 493Q824 493 824 307V0H768V292Q768 377 736.5 411Q705 445 649 445Q578 445 535.5 396Q493 347 489 258V0H433V290Q433 375 400 410Q367 445 311 445Q242 445 200.5 395.5Q159 346 154 254V0Z" glyph-name="m" horiz-adv-x="915" unicode="m" /><glyph d="M427 641V602H188V641Z" glyph-name="macron" horiz-adv-x="600" unicode="&#175;" /><glyph d="M446 330V284H50V330Z" glyph-name="minus" horiz-adv-x="496" unicode="&#8722;" /><glyph d="M38 -3ZM272 -3V-38H38V-3Z" glyph-name="minus.inf" horiz-adv-x="309" /><glyph d="M103 151 71 183 201 313 70 445 104 479 235 347 367 479 399 447 268 316 400 184 366 150 233 282Z" glyph-name="multiply" horiz-adv-x="470" unicode="&#215;" /><glyph d="M98 482H147L154 373Q180 435 231 464Q282 493 348 493Q525 493 525 305V0H469V291Q469 376 432.5 410.5Q396 445 331 445Q250 445 204.5 392.5Q159 340 154 250V0H98Z" glyph-name="n" horiz-adv-x="616" unicode="n" /><glyph d="M98 0ZM446 675 339 568H292V571L372 680H446ZM98 482H147L154 373Q180 435 231 464Q282 493 348 493Q525 493 525 305V0H469V291Q469 376 432.5 410.5Q396 445 331 445Q250 445 204.5 392.5Q159 340 154 250V0H98Z" glyph-name="nacute" horiz-adv-x="616" unicode="&#324;" /><glyph d="M98 0ZM319 603 403 680H465V678L345 568H293L173 678V680H237ZM98 482H147L154 373Q180 435 231 464Q282 493 348 493Q525 493 525 305V0H469V291Q469 376 432.5 410.5Q396 445 331 445Q250 445 204.5 392.5Q159 340 154 250V0H98Z" glyph-name="ncaron" horiz-adv-x="616" unicode="&#328;" /><glyph d="M98 0ZM284 -255 272 -229Q296 -219 309 -197.5Q322 -176 324 -148Q298 -152 285.5 -139Q273 -126 273 -108Q273 -88 284 -78Q295 -68 314 -68Q335 -68 347.5 -82Q360 -96 360 -129Q360 -172 341.5 -207.5Q323 -243 284 -255ZM98 482H147L154 373Q180 435 231 464Q282 493 348 493Q525 493 525 305V0H469V291Q469 376 432.5 410.5Q396 445 331 445Q250 445 204.5 392.5Q159 340 154 250V0H98Z" glyph-name="ncommaaccent" horiz-adv-x="616" unicode="&#326;" /><glyph d="M486 493Q486 526 474 557Q462 588 438.5 612Q415 636 379.5 650.5Q344 665 296 665Q214 665 164 620Q114 575 114 483Q114 399 161 352.5Q208 306 299 306Q341 306 375.5 319Q410 332 434.5 356.5Q459 381 472.5 415.5Q486 450 486 493ZM290 -11Q215 -11 159.5 15.5Q104 42 74 99L117 129Q146 78 191 57Q236 36 293 36Q340 36 380 52.5Q420 69 449 107Q478 145 494.5 207Q511 269 511 360Q511 371 510.5 390Q510 409 508 424Q493 350 435.5 305Q378 260 290 260Q183 260 120.5 316.5Q58 373 58 482Q58 534 73 576Q88 618 117.5 648Q147 678 191 694.5Q235 711 293 711Q353 711 403 691.5Q453 672 489.5 629Q526 586 546.5 518.5Q567 451 567 355Q567 259 548 189.5Q529 120 493 75.5Q457 31 405.5 10Q354 -11 290 -11Z" glyph-name="nine" horiz-adv-x="625" unicode="9" /><glyph d="M490 493Q490 526 478 557Q466 588 442 612Q418 636 382.5 650.5Q347 665 299 665Q217 665 167 620Q117 575 117 483Q117 399 164 352.5Q211 306 302 306Q344 306 378.5 319Q413 332 438 356.5Q463 381 476.5 415.5Q490 450 490 493ZM293 -11Q218 -11 162.5 15.5Q107 42 77 99L120 129Q149 78 194 57Q239 36 296 36Q343 36 383 52.5Q423 69 452.5 107Q482 145 498.5 207Q515 269 515 360Q515 371 514 390Q513 409 511 424Q496 350 439 305Q382 260 294 260Q186 260 123.5 316.5Q61 373 61 482Q61 534 76 576Q91 618 121 648Q151 678 195 694.5Q239 711 297 711Q356 711 406.5 691.5Q457 672 493.5 629Q530 586 550.5 518.5Q571 451 571 355Q571 259 551.5 189.5Q532 120 496 75.5Q460 31 408.5 10Q357 -11 293 -11Z" glyph-name="nine.LP" horiz-adv-x="652" /><glyph d="M465 393Q465 426 453.5 457Q442 488 419.5 512Q397 536 363.5 550.5Q330 565 285 565Q207 565 160 520Q113 475 113 383Q113 299 157 252.5Q201 206 288 206Q327 206 360 219Q393 232 416 256.5Q439 281 452 315.5Q465 350 465 393ZM278 -111Q206 -111 153.5 -84.5Q101 -58 72 -1L116 29Q142 -22 184.5 -43Q227 -64 281 -64Q326 -64 364.5 -47.5Q403 -31 430.5 7Q458 45 474 107Q490 169 490 260Q490 272 488.5 292Q487 312 485 329Q480 293 463.5 262Q447 231 420.5 208.5Q394 186 358 173Q322 160 279 160Q177 160 117 217Q57 274 57 382Q57 434 71.5 476Q86 518 114.5 548Q143 578 185 594.5Q227 611 282 611Q339 611 387 591.5Q435 572 470.5 529.5Q506 487 525.5 419Q545 351 545 255Q545 159 526.5 89.5Q508 20 473 -24.5Q438 -69 388.5 -90Q339 -111 278 -111Z" glyph-name="nine.OP" horiz-adv-x="619" /><glyph d="M486 393Q486 426 474 457Q462 488 438.5 512Q415 536 379.5 550.5Q344 565 296 565Q214 565 164 520Q114 475 114 383Q114 299 161 252.5Q208 206 299 206Q341 206 375.5 219Q410 232 434.5 256.5Q459 281 472.5 315.5Q486 350 486 393ZM290 -111Q215 -111 159.5 -84.5Q104 -58 74 -1L117 29Q146 -22 191 -43Q236 -64 293 -64Q340 -64 380 -47.5Q420 -31 449 7Q478 45 494.5 107Q511 169 511 260Q511 271 510.5 290Q510 309 508 324Q493 250 435.5 205Q378 160 290 160Q183 160 120.5 216.5Q58 273 58 382Q58 434 73 476Q88 518 117.5 548Q147 578 191 594.5Q235 611 293 611Q353 611 403 591.5Q453 572 489.5 529Q526 486 546.5 418.5Q567 351 567 255Q567 159 548 89.5Q529 20 493 -24.5Q457 -69 405.5 -90Q354 -111 290 -111Z" glyph-name="nine.OT" horiz-adv-x="625" /><glyph d="M37 0ZM176 -208Q131 -208 97 -192.5Q63 -177 45 -145L78 -119Q93 -145 118.5 -156.5Q144 -168 176 -168Q238 -168 268 -123.5Q298 -79 297 7V20Q297 29 296 36Q285 -2 253.5 -25.5Q222 -49 172 -49Q110 -49 73.5 -16Q37 17 37 80Q37 142 73 179Q109 216 180 216Q216 216 246.5 204.5Q277 193 299 167.5Q321 142 333 102.5Q345 63 345 7Q345 -105 300.5 -156.5Q256 -208 176 -208ZM283 84Q283 121 257.5 148.5Q232 176 181 176Q137 176 110.5 152Q84 128 84 82Q84 38 108.5 13.5Q133 -11 182 -11Q229 -11 256 14Q283 39 283 84Z" glyph-name="nine.inf" horiz-adv-x="395" /><glyph d="M50 349V395H288L374 502H424L338 395H446V349H304L242 270H446V223H207L124 120H73L157 223H50V270H190L254 349Z" glyph-name="notequal" horiz-adv-x="496" unicode="&#8800;" /><glyph d="M98 0ZM98 482H147L154 373Q180 435 231 464Q282 493 348 493Q525 493 525 305V0H469V291Q469 376 432.5 410.5Q396 445 331 445Q250 445 204.5 392.5Q159 340 154 250V0H98ZM414 669H458Q459 643 452 626Q445 609 434 599.5Q423 590 409 586Q395 582 382 582Q361 582 344.5 589.5Q328 597 314 606.5Q300 616 286.5 623.5Q273 631 257 631Q241 631 231.5 620Q222 609 222 586H178Q177 611 183.5 628Q190 645 201 655Q212 665 225.5 669Q239 673 252 673Q274 673 290.5 665.5Q307 658 321.5 648.5Q336 639 349.5 631.5Q363 624 379 624Q414 624 414 669Z" glyph-name="ntilde" horiz-adv-x="616" unicode="&#241;" /><glyph d="M286 449 227 264H437L495 449ZM109 449 123 492H242L308 700H366L299 492H509L576 700H633L566 492H681L668 449H553L494 264H617L604 220H480L410 0H353L422 220H213L144 0H86L156 220H46L60 264H169L228 449Z" glyph-name="numbersign" horiz-adv-x="717" unicode="#" /><glyph d="M63 241Q63 371 122 432Q181 493 291 493Q405 493 461.5 432.5Q518 372 518 241Q518 112 460.5 50.5Q403 -11 291 -11Q179 -11 121 49.5Q63 110 63 241ZM462 240Q462 350 420.5 398.5Q379 447 291 447Q202 447 160.5 398.5Q119 350 119 240Q119 132 161 83.5Q203 35 291 35Q379 35 420.5 83.5Q462 132 462 240Z" glyph-name="o" horiz-adv-x="581" unicode="o" /><glyph d="M63 0ZM418 675 311 568H264V571L344 680H418ZM63 241Q63 371 122 432Q181 493 291 493Q405 493 461.5 432.5Q518 372 518 241Q518 112 460.5 50.5Q403 -11 291 -11Q179 -11 121 49.5Q63 110 63 241ZM462 240Q462 350 420.5 398.5Q379 447 291 447Q202 447 160.5 398.5Q119 350 119 240Q119 132 161 83.5Q203 35 291 35Q379 35 420.5 83.5Q462 132 462 240Z" glyph-name="oacute" horiz-adv-x="581" unicode="&#243;" /><glyph d="M63 0ZM63 241Q63 371 122 432Q181 493 291 493Q405 493 461.5 432.5Q518 372 518 241Q518 112 460.5 50.5Q403 -11 291 -11Q179 -11 121 49.5Q63 110 63 241ZM462 240Q462 350 420.5 398.5Q379 447 291 447Q202 447 160.5 398.5Q119 350 119 240Q119 132 161 83.5Q203 35 291 35Q379 35 420.5 83.5Q462 132 462 240ZM375 679H419Q419 647 410 625Q401 603 384.5 590Q368 577 343.5 571.5Q319 566 289 566Q259 566 235 571.5Q211 577 194.5 590Q178 603 169 625Q160 647 160 679H203Q203 635 225 619Q247 603 289 603Q331 603 353 619Q375 635 375 679Z" glyph-name="obreve" horiz-adv-x="581" unicode="&#335;" /><glyph d="M63 0ZM290 646 207 568H145V570L265 680H317L437 570V568H372ZM63 241Q63 371 122 432Q181 493 291 493Q405 493 461.5 432.5Q518 372 518 241Q518 112 460.5 50.5Q403 -11 291 -11Q179 -11 121 49.5Q63 110 63 241ZM462 240Q462 350 420.5 398.5Q379 447 291 447Q202 447 160.5 398.5Q119 350 119 240Q119 132 161 83.5Q203 35 291 35Q379 35 420.5 83.5Q462 132 462 240Z" glyph-name="ocircumflex" horiz-adv-x="581" unicode="&#244;" /><glyph d="M63 0ZM322 622Q322 642 334 653Q346 664 366 664Q386 664 398 653Q410 642 410 622Q410 602 398 591Q386 580 366 580Q346 580 334 591Q322 602 322 622ZM170 622Q170 642 181.5 653Q193 664 213 664Q233 664 245 653Q257 642 257 622Q257 602 245 591Q233 580 213 580Q193 580 181.5 591Q170 602 170 622ZM63 241Q63 371 122 432Q181 493 291 493Q405 493 461.5 432.5Q518 372 518 241Q518 112 460.5 50.5Q403 -11 291 -11Q179 -11 121 49.5Q63 110 63 241ZM462 240Q462 350 420.5 398.5Q379 447 291 447Q202 447 160.5 398.5Q119 350 119 240Q119 132 161 83.5Q203 35 291 35Q379 35 420.5 83.5Q462 132 462 240Z" glyph-name="odieresis" horiz-adv-x="581" unicode="&#246;" /><glyph d="M63 241Q63 371 122 432Q181 493 291 493Q367 493 416.5 465.5Q466 438 491 380Q543 493 686 493Q789 493 839.5 429.5Q890 366 890 257Q890 248 889.5 239Q889 230 889 225H518Q521 124 564 79.5Q607 35 688 35Q748 35 786 56Q824 77 846 128L888 106Q862 45 810.5 17Q759 -11 687 -11Q615 -11 565.5 16.5Q516 44 490 102Q465 45 415 17Q365 -11 291 -11Q179 -11 121 49.5Q63 110 63 241ZM518 270H836Q832 362 793.5 405Q755 448 683 448Q607 448 565 405Q523 362 518 270ZM291 35Q379 35 420 83.5Q461 132 461 240Q461 350 420 398.5Q379 447 291 447Q202 447 160.5 398.5Q119 350 119 240Q119 132 161 83.5Q203 35 291 35Z" glyph-name="oe" horiz-adv-x="944" unicode="&#339;" /><glyph d="M308 -204Q288 -204 269 -199.5Q250 -195 236 -184.5Q222 -174 213.5 -156Q205 -138 205 -112Q205 -79 218 -54Q231 -29 251 -11.5Q271 6 296 15.5Q321 25 344 26L346 0Q304 -5 276 -35Q248 -65 248 -105Q248 -138 265.5 -151Q283 -164 312 -164Q349 -164 377 -146L387 -182Q352 -204 308 -204Z" glyph-name="ogonek" horiz-adv-x="600" unicode="&#731;" /><glyph d="M63 0ZM63 241Q63 371 122 432Q181 493 291 493Q405 493 461.5 432.5Q518 372 518 241Q518 112 460.5 50.5Q403 -11 291 -11Q179 -11 121 49.5Q63 110 63 241ZM462 240Q462 350 420.5 398.5Q379 447 291 447Q202 447 160.5 398.5Q119 350 119 240Q119 132 161 83.5Q203 35 291 35Q379 35 420.5 83.5Q462 132 462 240ZM272 568 165 675V680H239L320 571V568Z" glyph-name="ograve" horiz-adv-x="581" unicode="&#242;" /><glyph d="M63 0ZM469 675 359 568H313V571L394 680H469ZM339 675 246 568H200V571L271 680H339ZM63 241Q63 371 122 432Q181 493 291 493Q405 493 461.5 432.5Q518 372 518 241Q518 112 460.5 50.5Q403 -11 291 -11Q179 -11 121 49.5Q63 110 63 241ZM462 240Q462 350 420.5 398.5Q379 447 291 447Q202 447 160.5 398.5Q119 350 119 240Q119 132 161 83.5Q203 35 291 35Q379 35 420.5 83.5Q462 132 462 240Z" glyph-name="ohungarumlaut" horiz-adv-x="581" unicode="&#337;" /><glyph d="M63 0ZM410 641V602H171V641ZM63 241Q63 371 122 432Q181 493 291 493Q405 493 461.5 432.5Q518 372 518 241Q518 112 460.5 50.5Q403 -11 291 -11Q179 -11 121 49.5Q63 110 63 241ZM462 240Q462 350 420.5 398.5Q379 447 291 447Q202 447 160.5 398.5Q119 350 119 240Q119 132 161 83.5Q203 35 291 35Q379 35 420.5 83.5Q462 132 462 240Z" glyph-name="omacron" horiz-adv-x="581" unicode="&#333;" /><glyph d="M97 0V51H278V627L178 550L152 594L298 700H334V51H527V0Z" glyph-name="one" horiz-adv-x="625" unicode="1" /><glyph d="M196 0H139V627L39 550L13 594L158 700H196Z" glyph-name="one.LP" horiz-adv-x="309" /><glyph d="M188 0H133V527L37 450L13 494L153 600H188Z" glyph-name="one.OP" horiz-adv-x="282" /><glyph d="M110 0V51H280V527L185 450L160 494L300 600H336V51H515V0Z" glyph-name="one.OT" horiz-adv-x="625" /><glyph d="M13 0ZM135 -200H87V149L31 108L13 146L104 208H135Z" glyph-name="one.inf" horiz-adv-x="203" /><glyph d="M13 0ZM468 0V40L618 182Q640 203 655 220Q670 237 679 251.5Q688 266 692 278.5Q696 291 696 304Q696 341 674 358Q652 375 610 375Q567 375 542.5 358.5Q518 342 500 307L467 332Q490 375 524.5 395.5Q559 416 614 416Q677 416 710.5 388.5Q744 361 744 310Q744 274 723 239.5Q702 205 651 157L534 42L764 44V0ZM135 293H87V642L31 601L13 639L104 701H135ZM526 701 192 0H138L474 701Z" glyph-name="onehalf" horiz-adv-x="796" unicode="&#189;" /><glyph d="M13 0ZM135 293H87V642L31 601L13 639L104 701H135ZM526 701 192 0H138L474 701ZM466 104V139L605 407H653L516 146H696V333H740V146H804V104H740V0H696V104Z" glyph-name="onequarter" horiz-adv-x="824" unicode="&#188;" /><glyph d="M13 295ZM135 295H87V644L31 603L13 641L104 703H135Z" glyph-name="onesuperior" horiz-adv-x="203" unicode="&#185;" /><glyph d="M327 273V227H50V273Z" glyph-name="onethirdemdash" horiz-adv-x="375" /><glyph d="M177 390Q232 390 264 425.5Q296 461 296 526V534H200Q90 534 90 459Q90 427 112 408.5Q134 390 177 390ZM165 355Q112 355 79.5 381Q47 407 47 458Q47 509 84.5 537.5Q122 566 200 566H296V568Q296 629 271 651.5Q246 674 195 674Q154 674 129 661Q104 648 87 626L63 655Q102 711 200 711Q267 711 304 680Q341 649 341 573V363H302L298 433Q282 395 248.5 375Q215 355 165 355Z" glyph-name="ordfeminine" horiz-adv-x="403" unicode="&#170;" /><glyph d="M318 535Q318 607 286 641Q254 675 205 675Q92 675 92 532Q92 391 204 391Q255 391 286.5 425.5Q318 460 318 535ZM322 363 319 433Q302 393 269.5 374Q237 355 192 355Q122 355 84.5 399.5Q47 444 47 532Q47 620 86 665.5Q125 711 198 711Q240 711 271.5 692Q303 673 320 634L325 702H362V363Z" glyph-name="ordfeminine.school" horiz-adv-x="433" /><glyph d="M47 533Q47 625 89.5 668Q132 711 210 711Q290 711 331 668.5Q372 626 372 533Q372 442 330.5 398.5Q289 355 210 355Q131 355 89 397.5Q47 440 47 533ZM328 533Q328 608 299 641.5Q270 675 210 675Q149 675 120.5 641.5Q92 608 92 533Q92 458 120.5 424.5Q149 391 210 391Q270 391 299 424.5Q328 458 328 533Z" glyph-name="ordmasculine" horiz-adv-x="419" unicode="&#186;" /><glyph d="M559 482 483 404Q520 345 520 241Q520 112 462.5 50.5Q405 -11 293 -11Q189 -11 133 42L92 0H34L105 74Q65 133 65 241Q65 371 124 432Q183 493 293 493Q399 493 457 437L500 482ZM144 115 420 400Q400 425 368 436Q336 447 293 447Q204 447 162.5 398.5Q121 350 121 240Q121 163 144 115ZM464 240Q464 315 443 362L168 78Q189 55 220 45Q251 35 293 35Q381 35 422.5 83.5Q464 132 464 240Z" glyph-name="oslash" horiz-adv-x="587" unicode="&#248;" /><glyph d="M63 0ZM63 241Q63 371 122 432Q181 493 291 493Q405 493 461.5 432.5Q518 372 518 241Q518 112 460.5 50.5Q403 -11 291 -11Q179 -11 121 49.5Q63 110 63 241ZM462 240Q462 350 420.5 398.5Q379 447 291 447Q202 447 160.5 398.5Q119 350 119 240Q119 132 161 83.5Q203 35 291 35Q379 35 420.5 83.5Q462 132 462 240ZM385 669H429Q430 643 423 626Q416 609 405 599.5Q394 590 380 586Q366 582 353 582Q332 582 315.5 589.5Q299 597 285 606.5Q271 616 257.5 623.5Q244 631 228 631Q212 631 202.5 620Q193 609 193 586H149Q148 611 154.5 628Q161 645 172 655Q183 665 196.5 669Q210 673 223 673Q245 673 261.5 665.5Q278 658 292.5 648.5Q307 639 320.5 631.5Q334 624 350 624Q385 624 385 669Z" glyph-name="otilde" horiz-adv-x="581" unicode="&#245;" /><glyph d="M154 238Q154 185 166.5 146.5Q179 108 201.5 83.5Q224 59 254.5 47Q285 35 321 35Q405 35 446 87.5Q487 140 487 242Q487 447 328 447Q290 447 258.5 434.5Q227 422 203.5 396.5Q180 371 167 331.5Q154 292 154 238ZM98 482H147L152 376Q176 435 225.5 464Q275 493 342 493Q441 493 492 429Q543 365 543 242Q543 120 487.5 54.5Q432 -11 328 -11Q270 -11 225 13.5Q180 38 154 89V-186H98Z" glyph-name="p" horiz-adv-x="606" unicode="p" /><glyph d="M137 482Q137 394 182.5 351Q228 308 308 308H363V651H311Q222 651 179.5 610Q137 569 137 482ZM496 651H419V308H496ZM552 700V0H496V258H419V0H363V258H320Q197 258 138.5 319Q80 380 80 484Q80 590 137.5 645Q195 700 319 700Z" glyph-name="paragraph" horiz-adv-x="640" unicode="&#182;" /><glyph d="M288 -33 284 -75Q172 -60 114.5 40Q57 140 57 322Q57 504 114.5 604Q172 704 284 719L288 677Q202 661 155.5 576Q109 491 109 322Q109 153 155.5 68Q202 -17 288 -33Z" glyph-name="parenleft" horiz-adv-x="344" unicode="(" /><glyph d="M36 0ZM180 -216 176 -255Q36 -237 36 -17Q36 91 71 151Q106 211 176 219L180 181Q130 173 103.5 126.5Q77 80 77 -17Q77 -115 103.5 -161.5Q130 -208 180 -216Z" glyph-name="parenleft.inf" horiz-adv-x="214" /><glyph d="M56 -33Q141 -17 188 68Q235 153 235 322Q235 491 188 576Q141 661 56 677L60 719Q172 704 229.5 604Q287 504 287 322Q287 140 229.5 40Q172 -60 60 -75Z" glyph-name="parenright" horiz-adv-x="344" unicode=")" /><glyph d="M34 0ZM38 -255 34 -216Q84 -208 110.5 -161.5Q137 -115 137 -17Q137 80 110.5 126.5Q84 173 34 181L39 219Q108 211 143.5 151Q179 91 179 -17Q179 -237 38 -255Z" glyph-name="parenright.inf" horiz-adv-x="214" /><glyph d="M46 0ZM646 204Q646 317 686.5 366.5Q727 416 810 416Q892 416 932 366.5Q972 317 972 204Q972 92 931.5 42Q891 -8 810 -8Q727 -8 686.5 41.5Q646 91 646 204ZM924 204Q924 252 916.5 285Q909 318 894 338.5Q879 359 858 367.5Q837 376 810 376Q782 376 760.5 367.5Q739 359 724 339Q709 319 701.5 286Q694 253 694 204Q694 155 701.5 122Q709 89 724 69Q739 49 760.5 40.5Q782 32 809 32Q836 32 857.5 40.5Q879 49 894 69Q909 89 916.5 122Q924 155 924 204ZM46 497Q46 610 86.5 659.5Q127 709 210 709Q292 709 332 659.5Q372 610 372 497Q372 385 331.5 335Q291 285 210 285Q127 285 86.5 334.5Q46 384 46 497ZM324 497Q324 545 316.5 578Q309 611 294 631.5Q279 652 258 660.5Q237 669 210 669Q182 669 160.5 660.5Q139 652 124 632Q109 612 101.5 579Q94 546 94 497Q94 448 101.5 415Q109 382 124 362Q139 342 160.5 333.5Q182 325 209 325Q236 325 257.5 333.5Q279 342 294 362Q309 382 316.5 415Q324 448 324 497ZM700 701 366 0H312L648 701Z" glyph-name="percent" horiz-adv-x="1022" unicode="%" /><glyph d="M63 37Q63 57 75 68Q87 79 107 79Q127 79 138.5 68Q150 57 150 37Q150 17 138.5 5.5Q127 -6 107 -6Q87 -6 75 5.5Q63 17 63 37Z" glyph-name="period" horiz-adv-x="213" unicode="." /><glyph d="M63 293ZM63 336Q63 356 75 367Q87 378 107 378Q127 378 138.5 367Q150 356 150 336Q150 316 138.5 304.5Q127 293 107 293Q87 293 75 304.5Q63 316 63 336Z" glyph-name="periodcentered" horiz-adv-x="213" unicode="&#183;" /><glyph d="M46 0ZM646 204Q646 317 686.5 366.5Q727 416 810 416Q892 416 932 366.5Q972 317 972 204Q972 92 931.5 42Q891 -8 810 -8Q727 -8 686.5 41.5Q646 91 646 204ZM924 204Q924 252 916.5 285Q909 318 894 338.5Q879 359 858 367.5Q837 376 810 376Q782 376 760.5 367.5Q739 359 724 339Q709 319 701.5 286Q694 253 694 204Q694 155 701.5 122Q709 89 724 69Q739 49 760.5 40.5Q782 32 809 32Q836 32 857.5 40.5Q879 49 894 69Q909 89 916.5 122Q924 155 924 204ZM46 497Q46 610 86.5 659.5Q127 709 210 709Q292 709 332 659.5Q372 610 372 497Q372 385 331.5 335Q291 285 210 285Q127 285 86.5 334.5Q46 384 46 497ZM324 497Q324 545 316.5 578Q309 611 294 631.5Q279 652 258 660.5Q237 669 210 669Q182 669 160.5 660.5Q139 652 124 632Q109 612 101.5 579Q94 546 94 497Q94 448 101.5 415Q109 382 124 362Q139 342 160.5 333.5Q182 325 209 325Q236 325 257.5 333.5Q279 342 294 362Q309 382 316.5 415Q324 448 324 497ZM1065 204Q1065 317 1105.5 366.5Q1146 416 1229 416Q1311 416 1351 366.5Q1391 317 1391 204Q1391 92 1350.5 42Q1310 -8 1229 -8Q1146 -8 1105.5 41.5Q1065 91 1065 204ZM1343 204Q1343 252 1335.5 285Q1328 318 1313 338.5Q1298 359 1277 367.5Q1256 376 1229 376Q1201 376 1179.5 367.5Q1158 359 1143 339Q1128 319 1120.5 286Q1113 253 1113 204Q1113 155 1120.5 122Q1128 89 1143 69Q1158 49 1179.5 40.5Q1201 32 1228 32Q1255 32 1276.5 40.5Q1298 49 1313 69Q1328 89 1335.5 122Q1343 155 1343 204ZM700 701 366 0H312L648 701Z" glyph-name="perthousand" horiz-adv-x="1441" unicode="&#8240;" /><glyph d="M273 111H224V284H50V330H224V508H273V330H446V284H273Z" glyph-name="plus" horiz-adv-x="496" unicode="+" /><glyph d="M38 0ZM174 -136H136V-38H38V-3H136V97H174V-3H272V-38H174Z" glyph-name="plus.inf" horiz-adv-x="309" /><glyph d="M273 127H224V292H50V337H224V508H273V337H446V292H273ZM446 46V0H50V46Z" glyph-name="plusminus" horiz-adv-x="496" unicode="&#177;" /><glyph glyph-name="punctuationspace" horiz-adv-x="213" unicode="&#8200;" /><glyph d="M507 -186H452V100Q427 44 379.5 16.5Q332 -11 268 -11Q168 -11 115.5 52.5Q63 116 63 241Q63 362 118 427.5Q173 493 277 493Q337 493 382 466.5Q427 440 452 386L459 482H507ZM452 245Q452 297 439 335.5Q426 374 403.5 398.5Q381 423 350.5 435Q320 447 284 447Q119 447 119 241Q119 35 283 35Q320 35 351 47.5Q382 60 404.5 85.5Q427 111 439.5 150.5Q452 190 452 245Z" glyph-name="q" horiz-adv-x="606" unicode="q" /><glyph d="M207 181V323H238Q330 323 377.5 368.5Q425 414 425 497Q425 578 375 620Q325 662 237 662Q168 662 122.5 635Q77 608 45 541L3 570Q38 645 96.5 678Q155 711 243 711Q297 711 341.5 696.5Q386 682 417 655Q448 628 465 589Q482 550 482 501Q482 404 425.5 347.5Q369 291 263 287V181ZM192 37Q192 57 203.5 68Q215 79 235 79Q278 79 278 37Q278 17 266.5 5.5Q255 -6 235 -6Q215 -6 203.5 5.5Q192 17 192 37Z" glyph-name="question" horiz-adv-x="503" unicode="?" /><glyph d="M277 321V179H246Q154 179 106.5 133.5Q59 88 59 5Q59 -76 109 -118Q159 -160 247 -160Q316 -160 361.5 -133Q407 -106 439 -39L481 -68Q446 -143 387.5 -176Q329 -209 241 -209Q187 -209 142.5 -194.5Q98 -180 67 -153Q36 -126 19 -87Q2 -48 2 1Q2 98 58.5 154.5Q115 211 221 215V321ZM292 465Q292 445 280.5 434Q269 423 249 423Q206 423 206 465Q206 485 217.5 496.5Q229 508 249 508Q269 508 280.5 496.5Q292 485 292 465Z" glyph-name="questiondown" horiz-adv-x="498" unicode="&#191;" /><glyph d="M272 522V380H241Q149 380 101.5 334.5Q54 289 54 206Q54 125 104 83Q154 41 242 41Q311 41 356.5 68Q402 95 434 162L476 133Q441 58 382.5 25Q324 -8 236 -8Q182 -8 137.5 6.5Q93 21 62 48Q31 75 14 114Q-3 153 -3 202Q-3 299 53.5 355.5Q110 412 216 416V522ZM287 666Q287 646 275.5 635Q264 624 244 624Q201 624 201 666Q201 686 212.5 697.5Q224 709 244 709Q264 709 275.5 697.5Q287 686 287 666Z" glyph-name="questiondown.cap" horiz-adv-x="495" /><glyph d="M168 526 163 711H218L213 526ZM110 526H64L60 711H114Z" glyph-name="quotedbl" horiz-adv-x="275" unicode="&quot;" /><glyph d="M72 -114 60 -88Q84 -77 97.5 -54Q111 -31 113 -2Q88 -8 75 5Q62 18 62 38Q62 58 73.5 68Q85 78 104 78Q124 78 136 64.5Q148 51 148 17Q148 -27 129.5 -63.5Q111 -100 72 -114ZM198 -114 186 -88Q210 -77 223.5 -54Q237 -31 239 -2Q214 -8 201 5Q188 18 188 38Q188 58 199.5 68Q211 78 230 78Q250 78 262 64.5Q274 51 274 17Q274 -27 255.5 -63.5Q237 -100 198 -114Z" glyph-name="quotedblbase" horiz-adv-x="336" unicode="&#8222;" /><glyph d="M139 727 151 701Q127 690 113.5 666.5Q100 643 98 614Q123 620 136 607Q149 594 149 574Q149 554 137.5 543.5Q126 533 107 533Q86 533 74 546.5Q62 560 62 595Q62 640 80.5 676.5Q99 713 139 727ZM264 727 276 701Q252 690 238.5 666.5Q225 643 223 614Q248 620 261 607Q274 594 274 574Q274 554 262.5 543.5Q251 533 232 533Q211 533 199 546.5Q187 560 187 595Q187 640 205.5 676.5Q224 713 264 727Z" glyph-name="quotedblleft" horiz-adv-x="337" unicode="&#8220;" /><glyph d="M60 525ZM72 525 60 551Q84 562 97.5 585.5Q111 609 113 638Q88 632 75 645Q62 658 62 678Q62 698 73.5 708.5Q85 719 104 719Q125 719 137 705.5Q149 692 149 657Q149 612 130.5 575.5Q112 539 72 525ZM199 525 187 551Q211 562 224.5 585.5Q238 609 240 638Q215 632 202 645Q189 658 189 678Q189 698 200.5 708.5Q212 719 231 719Q252 719 264 705.5Q276 692 276 657Q276 612 257.5 575.5Q239 539 199 525Z" glyph-name="quotedblright" horiz-adv-x="337" unicode="&#8221;" /><glyph d="M139 727 151 701Q127 690 113.5 666.5Q100 643 98 614Q123 620 136 607Q149 594 149 574Q149 554 137.5 543.5Q126 533 107 533Q86 533 74 546.5Q62 560 62 595Q62 640 80.5 676.5Q99 713 139 727Z" glyph-name="quoteleft" horiz-adv-x="211" unicode="&#8216;" /><glyph d="M62 525ZM74 525 62 551Q86 562 99.5 585.5Q113 609 115 638Q90 632 77 645Q64 658 64 678Q64 698 75.5 708.5Q87 719 106 719Q127 719 139 705.5Q151 692 151 657Q151 612 132.5 575.5Q114 539 74 525Z" glyph-name="quoteright" horiz-adv-x="211" unicode="&#8217;" /><glyph d="M73 -114 61 -88Q85 -77 98.5 -54Q112 -31 114 -2Q89 -8 76 5Q63 18 63 38Q63 58 74.5 68Q86 78 105 78Q125 78 137 64.5Q149 51 149 17Q149 -27 130.5 -63.5Q112 -100 73 -114Z" glyph-name="quotesinglbase" horiz-adv-x="210" unicode="&#8218;" /><glyph d="M64 526 60 711H114L110 526Z" glyph-name="quotesingle" horiz-adv-x="170" unicode="'" /><glyph d="M98 0V482H147L152 362Q176 426 225 458Q274 490 337 487V434Q253 439 206 389.5Q159 340 154 243V0Z" glyph-name="r" horiz-adv-x="354" unicode="r" /><glyph d="M98 0ZM327 675 220 568H173V571L253 680H327ZM98 0V482H147L152 362Q176 426 225 458Q274 490 337 487V434Q253 439 206 389.5Q159 340 154 243V0Z" glyph-name="racute" horiz-adv-x="354" unicode="&#341;" /><glyph d="M71 0ZM217 603 301 680H363V678L243 568H191L71 678V680H135ZM98 0V482H147L152 362Q176 426 225 458Q274 490 337 487V434Q253 439 206 389.5Q159 340 154 243V0Z" glyph-name="rcaron" horiz-adv-x="354" unicode="&#345;" /><glyph d="M83 0ZM95 -255 83 -229Q107 -219 120 -197.5Q133 -176 135 -148Q109 -152 96.5 -139Q84 -126 84 -108Q84 -88 95 -78Q106 -68 125 -68Q146 -68 158.5 -82Q171 -96 171 -129Q171 -172 152.5 -207.5Q134 -243 95 -255ZM98 0V482H147L152 362Q176 426 225 458Q274 490 337 487V434Q253 439 206 389.5Q159 340 154 243V0Z" glyph-name="rcommaaccent" horiz-adv-x="354" unicode="&#343;" /><glyph d="M53 528Q53 611 101 661Q149 711 237 711Q324 711 372 661Q420 611 420 528Q420 487 407.5 453.5Q395 420 371.5 396Q348 372 314 359Q280 346 237 346Q150 346 101.5 396.5Q53 447 53 528ZM76 528Q76 450 119.5 407.5Q163 365 237 365Q310 365 353.5 407.5Q397 450 397 528Q397 606 353.5 648.5Q310 691 237 691Q163 691 119.5 648.5Q76 606 76 528ZM244 602H193V526H240Q257 526 269.5 534.5Q282 543 282 565Q282 602 244 602ZM169 441V623H244Q275 623 291.5 607.5Q308 592 308 566Q308 544 297.5 530Q287 516 270 510L306 441H278L244 506H193V441Z" glyph-name="registered" horiz-adv-x="473" unicode="&#174;" /><glyph d="M138 525Q98 539 79.5 575.5Q61 612 61 657Q61 692 73 705.5Q85 719 106 719Q125 719 136.5 708.5Q148 698 148 678Q148 658 135 645Q122 632 97 638Q99 609 112.5 585.5Q126 562 150 551ZM264 525Q224 539 205.5 575.5Q187 612 187 657Q187 692 199 705.5Q211 719 232 719Q251 719 262.5 708.5Q274 698 274 678Q274 658 261 645Q248 632 223 638Q225 609 238.5 585.5Q252 562 276 551Z" glyph-name="reversequotedblleft" horiz-adv-x="337" /><glyph d="M139 525Q99 539 80.5 575.5Q62 612 62 657Q62 692 74 705.5Q86 719 107 719Q126 719 137.5 708.5Q149 698 149 678Q149 658 136 645Q123 632 98 638Q100 609 113.5 585.5Q127 562 151 551Z" glyph-name="reversequoteleft" horiz-adv-x="211" /><glyph d="M213 634Q213 675 238.5 699.5Q264 724 304 724Q342 724 367 699.5Q392 675 392 634Q392 594 366.5 569.5Q341 545 302 545Q264 545 238.5 569.5Q213 594 213 634ZM245 634Q245 608 261.5 590.5Q278 573 302 573Q327 573 343.5 590.5Q360 608 360 634Q360 661 343.5 678Q327 695 304 695Q278 695 261.5 678Q245 661 245 634Z" glyph-name="ring" horiz-adv-x="600" unicode="&#730;" /><glyph d="M252 32Q323 32 353 57.5Q383 83 383 121Q383 159 358 179Q333 199 269 213L224 223Q145 240 108 271.5Q71 303 71 355Q71 385 81.5 410Q92 435 113.5 453.5Q135 472 168.5 482.5Q202 493 247 493Q306 493 346.5 475.5Q387 458 419 417L382 383Q354 418 323 433.5Q292 449 244 449Q182 449 153 425Q124 401 124 361Q124 329 146.5 308.5Q169 288 231 274L282 262Q328 252 358 238.5Q388 225 405 208Q422 191 429 171Q436 151 436 128Q436 100 426.5 74.5Q417 49 395 30Q373 11 337.5 0Q302 -11 250 -11Q182 -11 132 10Q82 31 47 82L88 113Q117 70 155.5 51Q194 32 252 32Z" glyph-name="s" horiz-adv-x="506" unicode="s" /><glyph d="M47 0ZM370 675 263 568H216V571L296 680H370ZM252 32Q323 32 353 57.5Q383 83 383 121Q383 159 358 179Q333 199 269 213L224 223Q145 240 108 271.5Q71 303 71 355Q71 385 81.5 410Q92 435 113.5 453.5Q135 472 168.5 482.5Q202 493 247 493Q306 493 346.5 475.5Q387 458 419 417L382 383Q354 418 323 433.5Q292 449 244 449Q182 449 153 425Q124 401 124 361Q124 329 146.5 308.5Q169 288 231 274L282 262Q328 252 358 238.5Q388 225 405 208Q422 191 429 171Q436 151 436 128Q436 100 426.5 74.5Q417 49 395 30Q373 11 337.5 0Q302 -11 250 -11Q182 -11 132 10Q82 31 47 82L88 113Q117 70 155.5 51Q194 32 252 32Z" glyph-name="sacute" horiz-adv-x="506" unicode="&#347;" /><glyph d="M47 0ZM243 603 327 680H389V678L269 568H217L97 678V680H161ZM252 32Q323 32 353 57.5Q383 83 383 121Q383 159 358 179Q333 199 269 213L224 223Q145 240 108 271.5Q71 303 71 355Q71 385 81.5 410Q92 435 113.5 453.5Q135 472 168.5 482.5Q202 493 247 493Q306 493 346.5 475.5Q387 458 419 417L382 383Q354 418 323 433.5Q292 449 244 449Q182 449 153 425Q124 401 124 361Q124 329 146.5 308.5Q169 288 231 274L282 262Q328 252 358 238.5Q388 225 405 208Q422 191 429 171Q436 151 436 128Q436 100 426.5 74.5Q417 49 395 30Q373 11 337.5 0Q302 -11 250 -11Q182 -11 132 10Q82 31 47 82L88 113Q117 70 155.5 51Q194 32 252 32Z" glyph-name="scaron" horiz-adv-x="506" unicode="&#353;" /><glyph d="M239 -228Q204 -228 177.5 -215.5Q151 -203 133 -175L162 -149Q176 -172 192.5 -182.5Q209 -193 237 -193Q268 -193 285.5 -181Q303 -169 303 -146Q303 -122 286.5 -111.5Q270 -101 246 -101H234Q229 -101 222 -103L208 -92L228 -10Q168 -7 123.5 14Q79 35 47 82L88 113Q117 70 155.5 51Q194 32 252 32Q323 32 353 57.5Q383 83 383 121Q383 159 358 179Q333 199 269 213L224 223Q145 240 108 271.5Q71 303 71 355Q71 385 81.5 410Q92 435 113.5 453.5Q135 472 168.5 482.5Q202 493 247 493Q306 493 346.5 475.5Q387 458 419 417L382 383Q354 418 323 433.5Q292 449 244 449Q182 449 153 425Q124 401 124 361Q124 329 146.5 308.5Q169 288 231 274L282 262Q328 252 358 238.5Q388 225 405 208Q422 191 429 171Q436 151 436 128Q436 101 427.5 76.5Q419 52 399 33.5Q379 15 346.5 3Q314 -9 267 -11L253 -72H265Q296 -72 321 -89.5Q346 -107 346 -146Q346 -187 316 -207.5Q286 -228 239 -228Z" glyph-name="scedilla" horiz-adv-x="506" unicode="&#351;" /><glyph d="M47 0ZM244 646 161 568H99V570L219 680H271L391 570V568H326ZM252 32Q323 32 353 57.5Q383 83 383 121Q383 159 358 179Q333 199 269 213L224 223Q145 240 108 271.5Q71 303 71 355Q71 385 81.5 410Q92 435 113.5 453.5Q135 472 168.5 482.5Q202 493 247 493Q306 493 346.5 475.5Q387 458 419 417L382 383Q354 418 323 433.5Q292 449 244 449Q182 449 153 425Q124 401 124 361Q124 329 146.5 308.5Q169 288 231 274L282 262Q328 252 358 238.5Q388 225 405 208Q422 191 429 171Q436 151 436 128Q436 100 426.5 74.5Q417 49 395 30Q373 11 337.5 0Q302 -11 250 -11Q182 -11 132 10Q82 31 47 82L88 113Q117 70 155.5 51Q194 32 252 32Z" glyph-name="scircumflex" horiz-adv-x="506" unicode="&#349;" /><glyph d="M47 0ZM223 -255 211 -229Q235 -219 248 -197.5Q261 -176 263 -148Q237 -152 224.5 -139Q212 -126 212 -108Q212 -88 223 -78Q234 -68 253 -68Q274 -68 286.5 -82Q299 -96 299 -129Q299 -172 280.5 -207.5Q262 -243 223 -255ZM252 32Q323 32 353 57.5Q383 83 383 121Q383 159 358 179Q333 199 269 213L224 223Q145 240 108 271.5Q71 303 71 355Q71 385 81.5 410Q92 435 113.5 453.5Q135 472 168.5 482.5Q202 493 247 493Q306 493 346.5 475.5Q387 458 419 417L382 383Q354 418 323 433.5Q292 449 244 449Q182 449 153 425Q124 401 124 361Q124 329 146.5 308.5Q169 288 231 274L282 262Q328 252 358 238.5Q388 225 405 208Q422 191 429 171Q436 151 436 128Q436 100 426.5 74.5Q417 49 395 30Q373 11 337.5 0Q302 -11 250 -11Q182 -11 132 10Q82 31 47 82L88 113Q117 70 155.5 51Q194 32 252 32Z" glyph-name="scommaaccent" horiz-adv-x="506" unicode="&#537;" /><glyph d="M407 334Q408 367 383.5 391.5Q359 416 293 430L257 437Q234 441 212 437.5Q190 434 173 423Q156 412 145.5 394.5Q135 377 135 354Q134 324 157 298.5Q180 273 238 261L274 253Q297 248 321 250.5Q345 253 364 262.5Q383 272 395 289.5Q407 307 407 334ZM263 -22Q198 -22 150.5 -2.5Q103 17 68 68L108 96Q136 55 172 37.5Q208 20 264 20Q334 20 362 45Q390 70 390 108Q390 143 366.5 165.5Q343 188 277 204L231 214Q156 232 120.5 266Q85 300 85 353Q85 391 108.5 423Q132 455 186 465Q101 503 101 582Q101 609 109.5 632.5Q118 656 137.5 673.5Q157 691 187.5 701Q218 711 263 711Q319 711 357 694.5Q395 678 426 641L391 608Q364 641 334.5 655Q305 669 262 669Q203 669 177 646.5Q151 624 151 584Q151 553 174.5 527Q198 501 255 487L306 475Q352 464 382 450Q412 436 429 419Q446 402 453 382Q460 362 460 339Q460 299 436 267.5Q412 236 359 225Q408 204 425.5 176Q443 148 443 110Q443 84 434 60Q425 36 404 18Q383 0 348.5 -11Q314 -22 263 -22Z" glyph-name="section" horiz-adv-x="519" unicode="&#167;" /><glyph d="M61 0ZM73 -115 61 -89Q85 -78 98.5 -54.5Q112 -31 114 -2Q89 -8 76 5Q63 18 63 38Q63 58 74.5 68.5Q86 79 105 79Q126 79 138 65.5Q150 52 150 17Q150 -28 131.5 -64.5Q113 -101 73 -115ZM63 424Q63 444 75 455Q87 466 107 466Q127 466 138.5 455Q150 444 150 424Q150 404 138.5 392.5Q127 381 107 381Q87 381 75 392.5Q63 404 63 424Z" glyph-name="semicolon" horiz-adv-x="213" unicode=";" /><glyph d="M208 0Q208 87 226 179Q244 271 277 358Q310 445 357.5 521Q405 597 466 651H83V700H542V651Q479 612 428.5 542.5Q378 473 342 385Q306 297 286 197.5Q266 98 265 0Z" glyph-name="seven" horiz-adv-x="625" unicode="7" /><glyph d="M165 0Q165 87 182.5 179Q200 271 233 358Q266 445 314 521Q362 597 422 651H39V700H498V651Q435 612 384.5 542.5Q334 473 298 385Q262 297 242 197.5Q222 98 221 0Z" glyph-name="seven.LP" horiz-adv-x="494" /><glyph d="M157 -100Q157 -13 173.5 79Q190 171 221.5 258Q253 345 298.5 421Q344 497 402 551H38V600H474V551Q414 512 366 442.5Q318 373 283.5 285Q249 197 230 97.5Q211 -2 210 -100Z" glyph-name="seven.OP" horiz-adv-x="470" /><glyph d="M208 -100Q208 -13 226 79Q244 171 277 258Q310 345 357.5 421Q405 497 466 551H83V600H542V551Q479 512 428.5 442.5Q378 373 342 285Q306 197 286 97.5Q266 -2 265 -100Z" glyph-name="seven.OT" horiz-adv-x="625" /><glyph d="M26 0ZM148 -200H98Q98 -149 108 -97.5Q118 -46 137 2Q156 50 183.5 92Q211 134 245 165L26 164V207H301V169Q266 145 238 105.5Q210 66 190 17.5Q170 -31 159 -87Q148 -143 148 -200Z" glyph-name="seven.inf" horiz-adv-x="305" /><glyph d="M332 -11Q272 -11 222 9Q172 29 135.5 72Q99 115 78.5 182.5Q58 250 58 345Q58 441 77.5 510.5Q97 580 133 624.5Q169 669 220.5 690Q272 711 336 711Q411 711 465.5 684.5Q520 658 549 601L506 571Q478 622 433.5 643Q389 664 333 664Q286 664 245.5 647.5Q205 631 176 593Q147 555 130.5 493Q114 431 114 340Q114 329 115 308.5Q116 288 118 274Q125 311 143.5 341Q162 371 190 392.5Q218 414 254.5 425.5Q291 437 335 437Q442 437 505 381.5Q568 326 568 218Q568 166 553 124Q538 82 508 52Q478 22 434 5.5Q390 -11 332 -11ZM139 207Q139 174 151 143Q163 112 187 88Q211 64 246.5 49.5Q282 35 329 35Q411 35 461 79.5Q511 124 511 214Q511 298 464 344Q417 390 326 390Q284 390 249.5 377Q215 364 190.5 340.5Q166 317 152.5 283Q139 249 139 207Z" glyph-name="six" horiz-adv-x="625" unicode="6" /><glyph d="M357 -11Q297 -11 247 9Q197 29 160.5 72Q124 115 103.5 182.5Q83 250 83 345Q83 441 102.5 510.5Q122 580 158 624.5Q194 669 245.5 690Q297 711 361 711Q436 711 490.5 684.5Q545 658 574 601L532 571Q504 622 459 643Q414 664 358 664Q311 664 270.5 647.5Q230 631 201 593Q172 555 155.5 493Q139 431 139 340Q139 329 140 308.5Q141 288 143 274Q150 311 168.5 341Q187 371 215.5 392.5Q244 414 280.5 425.5Q317 437 360 437Q467 437 530 381.5Q593 326 593 218Q593 166 578 124Q563 82 533 52Q503 22 459 5.5Q415 -11 357 -11ZM164 207Q164 174 176 143Q188 112 212 88Q236 64 271.5 49.5Q307 35 354 35Q436 35 486 79.5Q536 124 536 214Q536 298 489 344Q442 390 351 390Q309 390 274.5 377Q240 364 215.5 340.5Q191 317 177.5 283Q164 249 164 207Z" glyph-name="six.LP" horiz-adv-x="652" /><glyph d="M341 -11Q284 -11 235.5 9Q187 29 152 72.5Q117 116 97.5 183Q78 250 78 345Q78 441 96.5 510.5Q115 580 150 624.5Q185 669 234 690Q283 711 345 711Q417 711 468.5 684.5Q520 658 549 601L506 571Q479 622 437 643Q395 664 342 664Q297 664 259 647.5Q221 631 193.5 593Q166 555 150 493Q134 431 134 340Q134 329 135 308.5Q136 288 138 272Q150 345 204.5 391Q259 437 344 437Q447 437 506.5 381.5Q566 326 566 218Q566 166 551.5 124Q537 82 509 52Q481 22 438.5 5.5Q396 -11 341 -11ZM158 207Q158 174 170 143Q182 112 204.5 88Q227 64 260.5 49.5Q294 35 338 35Q416 35 463 79.5Q510 124 510 214Q510 298 466 344Q422 390 336 390Q296 390 263.5 377Q231 364 207.5 340.5Q184 317 171 283Q158 249 158 207Z" glyph-name="six.OP" horiz-adv-x="620" /><glyph d="M331 -11Q271 -11 221 9Q171 29 134.5 72Q98 115 77.5 182.5Q57 250 57 345Q57 441 76.5 510.5Q96 580 132 624.5Q168 669 219.5 690Q271 711 335 711Q410 711 464.5 684.5Q519 658 549 601L506 571Q478 622 433 643Q388 664 332 664Q285 664 245 647.5Q205 631 176 593Q147 555 130.5 493Q114 431 114 340Q114 329 114.5 308.5Q115 288 117 274Q132 348 189.5 392.5Q247 437 335 437Q442 437 504.5 381.5Q567 326 567 218Q567 166 552 124Q537 82 507 52Q477 22 433 5.5Q389 -11 331 -11ZM138 207Q138 174 150 143Q162 112 186 88Q210 64 245.5 49.5Q281 35 329 35Q410 35 460 79.5Q510 124 510 214Q510 298 463.5 344Q417 390 326 390Q284 390 249 377Q214 364 189.5 340.5Q165 317 151.5 283Q138 249 138 207Z" glyph-name="six.OT" horiz-adv-x="625" /><glyph d="M46 0ZM212 -208Q175 -208 144.5 -196.5Q114 -185 92 -159.5Q70 -134 58 -94.5Q46 -55 46 1Q46 113 90 164.5Q134 216 214 216Q259 216 292.5 200Q326 184 344 150L311 125Q297 152 272 164Q247 176 214 176Q187 176 164.5 167Q142 158 126 137Q110 116 101.5 82.5Q93 49 93 0V-15Q93 -25 94 -33Q103 6 135.5 30Q168 54 218 54Q281 54 317 22Q353 -10 353 -73Q353 -134 317.5 -171Q282 -208 212 -208ZM107 -78Q107 -96 113.5 -112Q120 -128 132.5 -141Q145 -154 164 -161.5Q183 -169 208 -169Q253 -169 280 -145.5Q307 -122 307 -74Q307 -32 281.5 -8Q256 16 207 16Q160 16 133.5 -9Q107 -34 107 -78Z" glyph-name="six.inf" horiz-adv-x="395" /><glyph glyph-name="sixperemspace" horiz-adv-x="167" unicode="&#8198;" /><glyph d="M467 701 70 0H10L406 701Z" glyph-name="slash" horiz-adv-x="477" unicode="/" /><glyph glyph-name="space" horiz-adv-x="230" unicode=" " /><glyph d="M43 0V46H71Q110 46 123 74Q136 102 134 160L128 314H43V359H127L122 505Q119 606 169.5 658.5Q220 711 323 711Q397 711 442.5 680Q488 649 517 592L474 563Q450 612 414.5 638.5Q379 665 321 665Q248 665 212 626Q176 587 178 505L183 359H396V314H186L190 158Q193 70 158 46H369Q413 46 446.5 58Q480 70 509 106L542 74Q507 30 466 15Q425 0 370 0Z" glyph-name="sterling" horiz-adv-x="569" unicode="&#163;" /><glyph d="M23 482H114V628H169V482H324V438H169V165Q169 125 176 100.5Q183 76 195.5 62Q208 48 226 43Q244 38 266 38Q286 38 300 41Q314 44 330 49L339 3Q313 -6 295.5 -8.5Q278 -11 257 -11Q191 -11 152.5 27.5Q114 66 114 155V438H23Z" glyph-name="t" horiz-adv-x="355" unicode="t" /><glyph d="M324 482V438H169V325H324V286H169V165Q169 125 176 100.5Q183 76 195.5 62Q208 48 226 43Q244 38 266 38Q286 38 300 41Q314 44 330 49L339 3Q313 -6 295.5 -8.5Q278 -11 257 -11Q191 -11 152.5 27.5Q114 66 114 155V286H23V325H114V438H23V482H114V628H169V482Z" glyph-name="tbar" horiz-adv-x="349" unicode="&#359;" /><glyph d="M280 554H241L248 735H305ZM23 482H114V628H169V482H324V438H169V165Q169 125 176 100.5Q183 76 195.5 62Q208 48 226 43Q244 38 266 38Q286 38 300 41Q314 44 330 49L339 3Q313 -6 295.5 -8.5Q278 -11 257 -11Q191 -11 152.5 27.5Q114 66 114 155V438H23Z" glyph-name="tcaron" horiz-adv-x="355" unicode="&#357;" /><glyph d="M23 0ZM221 -255 209 -229Q233 -219 246 -197.5Q259 -176 261 -148Q235 -152 222.5 -139Q210 -126 210 -108Q210 -88 221 -78Q232 -68 251 -68Q272 -68 284.5 -82Q297 -96 297 -129Q297 -172 278.5 -207.5Q260 -243 221 -255ZM23 482H114V628H169V482H324V438H169V165Q169 125 176 100.5Q183 76 195.5 62Q208 48 226 43Q244 38 266 38Q286 38 300 41Q314 44 330 49L339 3Q313 -6 295.5 -8.5Q278 -11 257 -11Q191 -11 152.5 27.5Q114 66 114 155V438H23Z" glyph-name="tcommaaccent" horiz-adv-x="349" unicode="&#355;" /><glyph glyph-name="thinspace" horiz-adv-x="200" unicode="&#8201;" /><glyph d="M155 238Q155 185 167.5 146.5Q180 108 202 83.5Q224 59 254.5 47Q285 35 321 35Q405 35 446 87.5Q487 140 487 242Q487 447 328 447Q290 447 258.5 434.5Q227 422 204 396.5Q181 371 168 331.5Q155 292 155 238ZM155 700V377Q178 435 227 464Q276 493 342 493Q441 493 492 429Q543 365 543 242Q543 120 488 54.5Q433 -11 329 -11Q270 -11 224.5 14Q179 39 155 91V-186H99V700Z" glyph-name="thorn" horiz-adv-x="607" unicode="&#254;" /><glyph d="M307 -11Q219 -11 161.5 17Q104 45 67 107L108 139Q140 85 187.5 60.5Q235 36 306 36Q404 36 452 78Q500 120 500 198Q500 229 491.5 255.5Q483 282 464.5 301.5Q446 321 415.5 332Q385 343 342 343H237V392H340Q400 392 439.5 428.5Q479 465 479 531Q479 598 435.5 631Q392 664 310 664Q241 664 198 638Q155 612 123 554L82 585Q118 649 172.5 680Q227 711 314 711Q422 711 479 665.5Q536 620 536 532Q536 476 507.5 433.5Q479 391 427 370Q463 362 488 345Q513 328 528.5 305.5Q544 283 551 256.5Q558 230 558 203Q558 155 542.5 115.5Q527 76 496 48Q465 20 418 4.5Q371 -11 307 -11Z" glyph-name="three" horiz-adv-x="625" unicode="3" /><glyph d="M287 -11Q200 -11 142 17Q84 45 48 107L89 139Q121 85 168.5 60.5Q216 36 286 36Q385 36 433 78Q481 120 481 198Q481 229 472.5 255.5Q464 282 445 301.5Q426 321 395.5 332Q365 343 322 343H217V392H320Q381 392 420 428.5Q459 465 459 531Q459 598 416 631Q373 664 291 664Q223 664 179 638Q135 612 103 554L63 585Q99 649 153.5 680Q208 711 295 711Q403 711 459.5 665.5Q516 620 516 532Q516 476 488 433.5Q460 391 408 370Q444 362 469 345Q494 328 509.5 305.5Q525 283 531.5 256.5Q538 230 538 203Q538 155 523 115.5Q508 76 477 48Q446 20 398.5 4.5Q351 -11 287 -11Z" glyph-name="three.LP" horiz-adv-x="608" /><glyph d="M270 -111Q188 -111 133 -83Q78 -55 44 7L85 38Q115 -16 159 -41Q203 -66 269 -66Q363 -66 410 -23Q457 20 457 97Q457 128 449 154.5Q441 181 422.5 200.5Q404 220 375 231Q346 242 304 242H204V292H303Q360 292 397.5 328Q435 364 435 430Q435 497 393.5 531Q352 565 273 565Q209 565 169 538.5Q129 512 99 454L58 485Q93 549 143.5 580Q194 611 278 611Q381 611 436 565Q491 519 491 431Q491 375 464 332.5Q437 290 386 269Q421 261 445.5 244Q470 227 485 205Q500 183 506.5 156.5Q513 130 513 102Q513 6 453.5 -52.5Q394 -111 270 -111Z" glyph-name="three.OP" horiz-adv-x="577" /><glyph d="M307 -111Q219 -111 161.5 -83Q104 -55 67 7L108 39Q140 -15 187.5 -39.5Q235 -64 306 -64Q404 -64 452 -22Q500 20 500 98Q500 129 491.5 155.5Q483 182 464.5 201.5Q446 221 415.5 232Q385 243 342 243H237V292H340Q400 292 439.5 328.5Q479 365 479 431Q479 498 435.5 531Q392 564 310 564Q241 564 198 538Q155 512 123 454L82 485Q118 549 172.5 580Q227 611 314 611Q422 611 479 565.5Q536 520 536 432Q536 376 507.5 333.5Q479 291 427 270Q463 262 488 245Q513 228 528.5 205.5Q544 183 551 156.5Q558 130 558 103Q558 55 542.5 15.5Q527 -24 496 -52Q465 -80 418 -95.5Q371 -111 307 -111Z" glyph-name="three.OT" horiz-adv-x="625" /><glyph d="M29 0ZM175 -208Q122 -208 87 -191Q52 -174 29 -137L63 -111Q82 -141 107.5 -154.5Q133 -168 171 -168Q225 -168 250.5 -146Q276 -124 276 -84Q276 -52 256.5 -30Q237 -8 189 -8H131V32H189Q222 32 243 50.5Q264 69 264 104Q264 176 174 176Q136 176 113 162Q90 148 71 116L38 139Q60 179 93 197.5Q126 216 178 216Q243 216 277.5 188Q312 160 312 108Q312 75 295.5 50.5Q279 26 250 14Q290 3 306.5 -23Q323 -49 323 -83Q323 -140 286.5 -174Q250 -208 175 -208Z" glyph-name="three.inf" horiz-adv-x="367" /><glyph glyph-name="threeperemspace" horiz-adv-x="333" unicode="&#8196;" /><glyph d="M646 273V227H50V273Z" glyph-name="threequarteremdash" horiz-adv-x="694" /><glyph d="M29 0ZM175 285Q122 285 87 302Q52 319 29 356L63 382Q82 352 107.5 338.5Q133 325 171 325Q225 325 250.5 347Q276 369 276 409Q276 441 256.5 463Q237 485 189 485H131V525H189Q222 525 243 543.5Q264 562 264 597Q264 669 174 669Q136 669 113 655Q90 641 71 609L38 632Q60 672 93 690.5Q126 709 178 709Q243 709 277.5 681Q312 653 312 601Q312 568 295.5 543.5Q279 519 250 507Q290 496 306.5 470Q323 444 323 410Q323 353 286.5 319Q250 285 175 285ZM661 701 327 0H273L609 701ZM586 104V139L725 407H773L636 146H816V333H860V146H924V104H860V0H816V104Z" glyph-name="threequarters" horiz-adv-x="944" unicode="&#190;" /><glyph d="M29 287ZM175 287Q122 287 87 304Q52 321 29 358L63 384Q82 354 107.5 340.5Q133 327 171 327Q225 327 250.5 349Q276 371 276 411Q276 443 256.5 465Q237 487 189 487H131V527H189Q222 527 243 545.5Q264 564 264 599Q264 671 174 671Q136 671 113 657Q90 643 71 611L38 634Q60 674 93 692.5Q126 711 178 711Q243 711 277.5 683Q312 655 312 603Q312 570 295.5 545.5Q279 521 250 509Q290 498 306.5 472Q323 446 323 412Q323 355 286.5 321Q250 287 175 287Z" glyph-name="threesuperior" horiz-adv-x="367" unicode="&#179;" /><glyph d="M403 669H447Q448 643 441 626Q434 609 423 599.5Q412 590 398 586Q384 582 371 582Q350 582 333.5 589.5Q317 597 303 606.5Q289 616 275.5 623.5Q262 631 246 631Q230 631 220.5 620Q211 609 211 586H167Q166 611 172.5 628Q179 645 190 655Q201 665 214.5 669Q228 673 241 673Q263 673 279.5 665.5Q296 658 310.5 648.5Q325 639 338.5 631.5Q352 624 368 624Q403 624 403 669Z" glyph-name="tilde" horiz-adv-x="600" unicode="&#732;" /><glyph d="M28 700H273V668H169V406H133V668H28ZM310 406V700H352L465 445L580 700H621V406H585V638L481 406H450L345 635L346 406Z" glyph-name="trademark" horiz-adv-x="686" unicode="&#8482;" /><glyph d="M65 0V54L328 308Q369 347 396 379Q423 411 438.5 438Q454 465 460.5 488Q467 511 467 533Q468 598 427 631Q386 664 309 664Q232 664 186.5 633Q141 602 109 540L67 570Q86 605 109 631.5Q132 658 161.5 675.5Q191 693 228.5 702Q266 711 313 711Q420 711 472 664Q524 617 524 536Q524 507 515.5 478Q507 449 487.5 417.5Q468 386 437.5 350Q407 314 362 271L135 47L562 48V0Z" glyph-name="two" horiz-adv-x="625" unicode="2" /><glyph d="M47 0V54L309 308Q350 347 377 379Q404 411 420 438Q436 465 442.5 488Q449 511 449 533Q450 598 408.5 631Q367 664 291 664Q213 664 167.5 633Q122 602 91 540L49 570Q68 605 91 631.5Q114 658 143.5 675.5Q173 693 210.5 702Q248 711 295 711Q402 711 454 664Q506 617 506 536Q506 507 497.5 478Q489 449 469.5 417.5Q450 386 419 350Q388 314 343 271L115 47L544 48V0Z" glyph-name="two.LP" horiz-adv-x="584" /><glyph d="M53 0V46L278 263Q314 298 337.5 326.5Q361 355 374.5 378Q388 401 393 421Q398 441 398 460Q399 514 364.5 539.5Q330 565 267 565Q204 565 165.5 538Q127 511 101 458L59 487Q91 547 140 579Q189 611 271 611Q364 611 409 571.5Q454 532 454 465Q454 439 446.5 413.5Q439 388 422.5 360Q406 332 379 300Q352 268 313 230L123 45L476 46V0Z" glyph-name="two.OP" horiz-adv-x="515" /><glyph d="M91 0V53L324 261Q364 297 390 325Q416 353 431 375.5Q446 398 452 417.5Q458 437 458 457Q459 511 422.5 537.5Q386 564 317 564Q248 564 207 537Q166 510 138 455L97 484Q131 546 182.5 578.5Q234 611 320 611Q420 611 467.5 571Q515 531 515 461Q515 434 507.5 409.5Q500 385 482.5 357.5Q465 330 435.5 298.5Q406 267 362 227L162 47L548 48V0Z" glyph-name="two.OT" horiz-adv-x="625" /><glyph d="M30 0ZM31 -200V-160L181 -18Q203 3 218 20Q233 37 242 51.5Q251 66 255 78.5Q259 91 259 104Q259 141 237 158Q215 175 173 175Q130 175 105.5 158.5Q81 142 63 107L30 132Q53 175 87.5 195.5Q122 216 177 216Q240 216 273.5 188.5Q307 161 307 110Q307 74 286 39.5Q265 5 214 -43L97 -158L327 -156V-200Z" glyph-name="two.inf" horiz-adv-x="359" /><glyph d="M30 295ZM31 295V335L181 477Q203 498 218 515Q233 532 242 546.5Q251 561 255 573.5Q259 586 259 599Q259 636 237 653Q215 670 173 670Q130 670 105.5 653.5Q81 637 63 602L30 627Q53 670 87.5 690.5Q122 711 177 711Q240 711 273.5 683.5Q307 656 307 605Q307 569 286 534.5Q265 500 214 452L97 337L327 339V295Z" glyph-name="twosuperior" horiz-adv-x="359" unicode="&#178;" /><glyph d="M467 0 462 106Q436 46 386.5 17.5Q337 -11 273 -11Q182 -11 136.5 39Q91 89 91 186V482H147V195Q147 110 183.5 73Q220 36 286 36Q368 36 411.5 86Q455 136 460 223V482H516V0Z" glyph-name="u" horiz-adv-x="614" unicode="u" /><glyph d="M91 0ZM430 675 323 568H276V571L356 680H430ZM467 0 462 106Q436 46 386.5 17.5Q337 -11 273 -11Q182 -11 136.5 39Q91 89 91 186V482H147V195Q147 110 183.5 73Q220 36 286 36Q368 36 411.5 86Q455 136 460 223V482H516V0Z" glyph-name="uacute" horiz-adv-x="614" unicode="&#250;" /><glyph d="M91 0ZM467 0 462 106Q436 46 386.5 17.5Q337 -11 273 -11Q182 -11 136.5 39Q91 89 91 186V482H147V195Q147 110 183.5 73Q220 36 286 36Q368 36 411.5 86Q455 136 460 223V482H516V0ZM388 679H432Q432 647 423 625Q414 603 397.5 590Q381 577 356.5 571.5Q332 566 302 566Q272 566 248 571.5Q224 577 207.5 590Q191 603 182 625Q173 647 173 679H216Q216 635 238 619Q260 603 302 603Q344 603 366 619Q388 635 388 679Z" glyph-name="ubreve" horiz-adv-x="614" unicode="&#365;" /><glyph d="M91 0ZM303 646 220 568H158V570L278 680H330L450 570V568H385ZM467 0 462 106Q436 46 386.5 17.5Q337 -11 273 -11Q182 -11 136.5 39Q91 89 91 186V482H147V195Q147 110 183.5 73Q220 36 286 36Q368 36 411.5 86Q455 136 460 223V482H516V0Z" glyph-name="ucircumflex" horiz-adv-x="614" unicode="&#251;" /><glyph d="M91 0ZM335 622Q335 642 347 653Q359 664 379 664Q399 664 411 653Q423 642 423 622Q423 602 411 591Q399 580 379 580Q359 580 347 591Q335 602 335 622ZM183 622Q183 642 194.5 653Q206 664 226 664Q246 664 258 653Q270 642 270 622Q270 602 258 591Q246 580 226 580Q206 580 194.5 591Q183 602 183 622ZM467 0 462 106Q436 46 386.5 17.5Q337 -11 273 -11Q182 -11 136.5 39Q91 89 91 186V482H147V195Q147 110 183.5 73Q220 36 286 36Q368 36 411.5 86Q455 136 460 223V482H516V0Z" glyph-name="udieresis" horiz-adv-x="614" unicode="&#252;" /><glyph d="M91 0ZM467 0 462 106Q436 46 386.5 17.5Q337 -11 273 -11Q182 -11 136.5 39Q91 89 91 186V482H147V195Q147 110 183.5 73Q220 36 286 36Q368 36 411.5 86Q455 136 460 223V482H516V0ZM285 568 178 675V680H252L333 571V568Z" glyph-name="ugrave" horiz-adv-x="614" unicode="&#249;" /><glyph d="M91 0ZM467 0 462 106Q436 46 386.5 17.5Q337 -11 273 -11Q182 -11 136.5 39Q91 89 91 186V482H147V195Q147 110 183.5 73Q220 36 286 36Q368 36 411.5 86Q455 136 460 223V482H516V0ZM478 675 368 568H322V571L403 680H478ZM348 675 255 568H209V571L280 680H348Z" glyph-name="uhungarumlaut" horiz-adv-x="614" unicode="&#369;" /><glyph d="M91 0ZM467 0 462 106Q436 46 386.5 17.5Q337 -11 273 -11Q182 -11 136.5 39Q91 89 91 186V482H147V195Q147 110 183.5 73Q220 36 286 36Q368 36 411.5 86Q455 136 460 223V482H516V0ZM423 641V602H184V641Z" glyph-name="umacron" horiz-adv-x="614" unicode="&#363;" /><glyph d="M484 0V-44H-5V0Z" glyph-name="underscore" horiz-adv-x="479" unicode="_" /><glyph glyph-name="uni00A0" horiz-adv-x="176" unicode="&#160;" /><glyph d="M353 273V227H50V273Z" glyph-name="uni00AD" horiz-adv-x="401" unicode="&#173;" /><glyph d="M1038 273V227H50V273Z" glyph-name="uni2015" horiz-adv-x="1086" unicode="&#8213;" /><glyph d="M46 287ZM46 499Q46 612 86.5 661.5Q127 711 210 711Q292 711 332 661.5Q372 612 372 499Q372 387 331.5 337Q291 287 210 287Q127 287 86.5 336.5Q46 386 46 499ZM324 499Q324 547 316.5 580Q309 613 294 633.5Q279 654 258 662.5Q237 671 210 671Q182 671 160.5 662.5Q139 654 124 634Q109 614 101.5 581Q94 548 94 499Q94 450 101.5 417Q109 384 124 364Q139 344 160.5 335.5Q182 327 209 327Q236 327 257.5 335.5Q279 344 294 364Q309 384 316.5 417Q324 450 324 499Z" glyph-name="uni2070" horiz-adv-x="421" unicode="&#8304;" /><glyph d="M29 295ZM29 399V434L168 702H216L79 441H259V628H303V441H367V399H303V295H259V399Z" glyph-name="uni2074" horiz-adv-x="387" unicode="&#8308;" /><glyph d="M33 287ZM108 662 93 522Q116 538 140.5 544Q165 550 192 550Q222 550 247 543Q272 536 290.5 521Q309 506 319.5 482Q330 458 330 425Q330 363 291 325Q252 287 177 287Q129 287 92 303Q55 319 33 356L66 382Q83 355 109.5 341Q136 327 176 327Q229 327 255.5 354Q282 381 282 424Q282 514 179 514Q148 514 123.5 505Q99 496 77 479L49 492L70 702H309V662Z" glyph-name="uni2075" horiz-adv-x="358" unicode="&#8309;" /><glyph d="M46 287ZM212 287Q175 287 144.5 298.5Q114 310 92 335.5Q70 361 58 400.5Q46 440 46 496Q46 608 90 659.5Q134 711 214 711Q259 711 292.5 695Q326 679 344 645L311 620Q297 647 272 659Q247 671 214 671Q187 671 164.5 662Q142 653 126 632Q110 611 101.5 577.5Q93 544 93 495V480Q93 470 94 462Q103 501 135.5 525Q168 549 218 549Q281 549 317 517Q353 485 353 422Q353 361 317.5 324Q282 287 212 287ZM107 417Q107 399 113.5 383Q120 367 132.5 354Q145 341 164 333.5Q183 326 208 326Q253 326 280 349.5Q307 373 307 421Q307 463 281.5 487Q256 511 207 511Q160 511 133.5 486Q107 461 107 417Z" glyph-name="uni2076" horiz-adv-x="395" unicode="&#8310;" /><glyph d="M26 295ZM148 295H98Q98 346 108 397.5Q118 449 137 497Q156 545 183.5 587Q211 629 245 660L26 659V702H301V664Q266 640 238 600.5Q210 561 190 512.5Q170 464 159 408Q148 352 148 295Z" glyph-name="uni2077" horiz-adv-x="305" unicode="&#8311;" /><glyph d="M44 287ZM193 287Q121 287 82.5 318Q44 349 44 406Q44 449 67.5 475Q91 501 129 510Q97 521 79 544.5Q61 568 61 603Q61 711 193 711Q325 711 325 604Q325 568 307 544.5Q289 521 257 510Q295 501 318 474.5Q341 448 341 406Q341 349 303 318Q265 287 193 287ZM282 602Q282 672 193 672Q104 672 104 602Q104 568 126 548.5Q148 529 193 529Q237 529 259.5 548.5Q282 568 282 602ZM294 407Q294 445 267.5 467Q241 489 193 489Q145 489 118.5 467Q92 445 92 407Q92 369 117.5 346.5Q143 324 193 324Q243 324 268.5 346.5Q294 369 294 407Z" glyph-name="uni2078" horiz-adv-x="388" unicode="&#8312;" /><glyph d="M37 287ZM176 287Q131 287 97 302.5Q63 318 45 350L78 376Q93 350 118.5 338.5Q144 327 176 327Q238 327 268 371.5Q298 416 297 502V515Q297 524 296 531Q285 493 253.5 469.5Q222 446 172 446Q110 446 73.5 479Q37 512 37 575Q37 637 73 674Q109 711 180 711Q216 711 246.5 699.5Q277 688 299 662.5Q321 637 333 597.5Q345 558 345 502Q345 390 300.5 338.5Q256 287 176 287ZM283 579Q283 616 257.5 643.5Q232 671 181 671Q137 671 110.5 647Q84 623 84 577Q84 533 108.5 508.5Q133 484 182 484Q229 484 256 509Q283 534 283 579Z" glyph-name="uni2079" horiz-adv-x="395" unicode="&#8313;" /><glyph d="M38 360ZM174 360H136V458H38V493H136V593H174V493H272V458H174Z" glyph-name="uni207A" horiz-adv-x="309" unicode="&#8314;" /><glyph d="M38 458ZM272 493V458H38V493Z" glyph-name="uni207B" horiz-adv-x="309" unicode="&#8315;" /><glyph d="M38 420ZM272 532V496H38V532ZM272 456V420H38V456Z" glyph-name="uni207C" horiz-adv-x="309" unicode="&#8316;" /><glyph d="M36 241ZM180 280 176 241Q36 259 36 479Q36 587 71 647Q106 707 176 715L180 677Q130 669 103.5 622.5Q77 576 77 479Q77 381 103.5 334.5Q130 288 180 280Z" glyph-name="uni207D" horiz-adv-x="215" unicode="&#8317;" /><glyph d="M34 241ZM38 241 34 280Q84 288 110.5 334.5Q137 381 137 479Q137 576 110.5 622.5Q84 669 34 677L39 715Q108 707 143.5 647Q179 587 179 479Q179 259 38 241Z" glyph-name="uni207E" horiz-adv-x="215" unicode="&#8318;" /><glyph d="M46 204Q46 317 86.5 366.5Q127 416 210 416Q292 416 332 366.5Q372 317 372 204Q372 92 331.5 42Q291 -8 210 -8Q127 -8 86.5 41.5Q46 91 46 204ZM324 204Q324 252 316.5 285Q309 318 294 338.5Q279 359 258 367.5Q237 376 210 376Q182 376 160.5 367.5Q139 359 124 339Q109 319 101.5 286Q94 253 94 204Q94 155 101.5 122Q109 89 124 69Q139 49 160.5 40.5Q182 32 209 32Q236 32 257.5 40.5Q279 49 294 69Q309 89 316.5 122Q324 155 324 204Z" glyph-name="uni2080" horiz-adv-x="421" unicode="&#8320;" /><glyph d="M135 0H87V349L31 308L13 346L104 408H135Z" glyph-name="uni2081" horiz-adv-x="203" unicode="&#8321;" /><glyph d="M31 0V40L181 182Q203 203 218 220Q233 237 242 251.5Q251 266 255 278.5Q259 291 259 304Q259 341 237 358Q215 375 173 375Q130 375 105.5 358.5Q81 342 63 307L30 332Q53 375 87.5 395.5Q122 416 177 416Q240 416 273.5 388.5Q307 361 307 310Q307 274 286 239.5Q265 205 214 157L97 42L327 44V0Z" glyph-name="uni2082" horiz-adv-x="359" unicode="&#8322;" /><glyph d="M175 -8Q122 -8 87 9Q52 26 29 63L63 89Q82 59 107.5 45.5Q133 32 171 32Q225 32 250.5 54Q276 76 276 116Q276 148 256.5 170Q237 192 189 192H131V232H189Q222 232 243 250.5Q264 269 264 304Q264 376 174 376Q136 376 113 362Q90 348 71 316L38 339Q60 379 93 397.5Q126 416 178 416Q243 416 277.5 388Q312 360 312 308Q312 275 295.5 250.5Q279 226 250 214Q290 203 306.5 177Q323 151 323 117Q323 60 286.5 26Q250 -8 175 -8Z" glyph-name="uni2083" horiz-adv-x="367" unicode="&#8323;" /><glyph d="M29 104V139L168 407H216L79 146H259V333H303V146H367V104H303V0H259V104Z" glyph-name="uni2084" horiz-adv-x="387" unicode="&#8324;" /><glyph d="M108 367 93 227Q116 243 140.5 249Q165 255 192 255Q222 255 247 248Q272 241 290.5 226Q309 211 319.5 187Q330 163 330 130Q330 68 291 30Q252 -8 177 -8Q129 -8 92 8Q55 24 33 61L66 87Q83 60 109.5 46Q136 32 176 32Q229 32 255.5 59Q282 86 282 129Q282 219 179 219Q148 219 123.5 210Q99 201 77 184L49 197L70 407H309V367Z" glyph-name="uni2085" horiz-adv-x="358" unicode="&#8325;" /><glyph d="M212 -8Q175 -8 144.5 3.5Q114 15 92 40.5Q70 66 58 105.5Q46 145 46 201Q46 313 90 364.5Q134 416 214 416Q259 416 292.5 400Q326 384 344 350L311 325Q297 352 272 364Q247 376 214 376Q187 376 164.5 367Q142 358 126 337Q110 316 101.5 282.5Q93 249 93 200V185Q93 175 94 167Q103 206 135.5 230Q168 254 218 254Q281 254 317 222Q353 190 353 127Q353 66 317.5 29Q282 -8 212 -8ZM107 122Q107 104 113.5 88Q120 72 132.5 59Q145 46 164 38.5Q183 31 208 31Q253 31 280 54.5Q307 78 307 126Q307 168 281.5 192Q256 216 207 216Q160 216 133.5 191Q107 166 107 122Z" glyph-name="uni2086" horiz-adv-x="395" unicode="&#8326;" /><glyph d="M148 0H98Q98 51 108 102.5Q118 154 137 202Q156 250 183.5 292Q211 334 245 365L26 364V407H301V369Q266 345 238 305.5Q210 266 190 217.5Q170 169 159 113Q148 57 148 0Z" glyph-name="uni2087" horiz-adv-x="305" unicode="&#8327;" /><glyph d="M193 -8Q121 -8 82.5 23Q44 54 44 111Q44 154 67.5 180Q91 206 129 215Q97 226 79 249.5Q61 273 61 308Q61 416 193 416Q325 416 325 309Q325 273 307 249.5Q289 226 257 215Q295 206 318 179.5Q341 153 341 111Q341 54 303 23Q265 -8 193 -8ZM282 307Q282 377 193 377Q104 377 104 307Q104 273 126 253.5Q148 234 193 234Q237 234 259.5 253.5Q282 273 282 307ZM294 112Q294 150 267.5 172Q241 194 193 194Q145 194 118.5 172Q92 150 92 112Q92 74 117.5 51.5Q143 29 193 29Q243 29 268.5 51.5Q294 74 294 112Z" glyph-name="uni2088" horiz-adv-x="388" unicode="&#8328;" /><glyph d="M176 -8Q131 -8 97 7.5Q63 23 45 55L78 81Q93 55 118.5 43.5Q144 32 176 32Q238 32 268 76.5Q298 121 297 207V220Q297 229 296 236Q285 198 253.5 174.5Q222 151 172 151Q110 151 73.5 184Q37 217 37 280Q37 342 73 379Q109 416 180 416Q216 416 246.5 404.5Q277 393 299 367.5Q321 342 333 302.5Q345 263 345 207Q345 95 300.5 43.5Q256 -8 176 -8ZM283 284Q283 321 257.5 348.5Q232 376 181 376Q137 376 110.5 352Q84 328 84 282Q84 238 108.5 213.5Q133 189 182 189Q229 189 256 214Q283 239 283 284Z" glyph-name="uni2089" horiz-adv-x="395" unicode="&#8329;" /><glyph d="M174 64H136V162H38V197H136V297H174V197H272V162H174Z" glyph-name="uni208A" horiz-adv-x="309" unicode="&#8330;" /><glyph d="M272 197V162H38V197Z" glyph-name="uni208B" horiz-adv-x="309" unicode="&#8331;" /><glyph d="M272 236V200H38V236ZM272 160V124H38V160Z" glyph-name="uni208C" horiz-adv-x="309" unicode="&#8332;" /><glyph d="M180 -16 176 -55Q36 -37 36 183Q36 291 71 351Q106 411 176 419L180 381Q130 373 103.5 326.5Q77 280 77 183Q77 85 103.5 38.5Q130 -8 180 -16Z" glyph-name="uni208D" horiz-adv-x="214" unicode="&#8333;" /><glyph d="M38 -55 34 -16Q84 -8 110.5 38.5Q137 85 137 183Q137 280 110.5 326.5Q84 373 34 381L39 419Q108 411 143.5 351Q179 291 179 183Q179 -37 38 -55Z" glyph-name="uni208E" horiz-adv-x="214" unicode="&#8334;" /><glyph d="M13 0ZM612 -8Q559 -8 524 9Q489 26 466 63L500 89Q519 59 544.5 45.5Q570 32 608 32Q662 32 687.5 54Q713 76 713 116Q713 148 693.5 170Q674 192 626 192H568V232H626Q659 232 680 250.5Q701 269 701 304Q701 376 611 376Q573 376 550 362Q527 348 508 316L475 339Q497 379 530 397.5Q563 416 615 416Q680 416 714.5 388Q749 360 749 308Q749 275 732.5 250.5Q716 226 687 214Q727 203 743.5 177Q760 151 760 117Q760 60 723.5 26Q687 -8 612 -8ZM135 293H87V642L31 601L13 639L104 701H135ZM526 701 192 0H138L474 701Z" glyph-name="uni2153" horiz-adv-x="804" unicode="&#8531;" /><glyph d="M30 0ZM743 -8Q690 -8 655 9Q620 26 597 63L631 89Q650 59 675.5 45.5Q701 32 739 32Q793 32 818.5 54Q844 76 844 116Q844 148 824.5 170Q805 192 757 192H699V232H757Q790 232 811 250.5Q832 269 832 304Q832 376 742 376Q704 376 681 362Q658 348 639 316L606 339Q628 379 661 397.5Q694 416 746 416Q811 416 845.5 388Q880 360 880 308Q880 275 863.5 250.5Q847 226 818 214Q858 203 874.5 177Q891 151 891 117Q891 60 854.5 26Q818 -8 743 -8ZM31 293V333L181 475Q203 496 218 513Q233 530 242 544.5Q251 559 255 571.5Q259 584 259 597Q259 634 237 651Q215 668 173 668Q130 668 105.5 651.5Q81 635 63 600L30 625Q53 668 87.5 688.5Q122 709 177 709Q240 709 273.5 681.5Q307 654 307 603Q307 567 286 532.5Q265 498 214 450L97 335L327 337V293ZM657 701 323 0H269L605 701Z" glyph-name="uni2154" horiz-adv-x="935" unicode="&#8532;" /><glyph d="M13 0ZM135 293H87V642L31 601L13 639L104 701H135ZM555 367 540 227Q563 243 587.5 249Q612 255 639 255Q669 255 694 248Q719 241 737.5 226Q756 211 766.5 187Q777 163 777 130Q777 68 738 30Q699 -8 624 -8Q576 -8 539 8Q502 24 480 61L513 87Q530 60 556.5 46Q583 32 623 32Q676 32 702.5 59Q729 86 729 129Q729 219 626 219Q595 219 570.5 210Q546 201 524 184L496 197L517 407H756V367ZM526 701 192 0H138L474 701Z" glyph-name="uni2155" horiz-adv-x="804" unicode="&#8533;" /><glyph d="M30 0ZM31 293V333L181 475Q203 496 218 513Q233 530 242 544.5Q251 559 255 571.5Q259 584 259 597Q259 634 237 651Q215 668 173 668Q130 668 105.5 651.5Q81 635 63 600L30 625Q53 668 87.5 688.5Q122 709 177 709Q240 709 273.5 681.5Q307 654 307 603Q307 567 286 532.5Q265 498 214 450L97 335L327 337V293ZM690 367 675 227Q698 243 722.5 249Q747 255 774 255Q804 255 829 248Q854 241 872.5 226Q891 211 901.5 187Q912 163 912 130Q912 68 873 30Q834 -8 759 -8Q711 -8 674 8Q637 24 615 61L648 87Q665 60 691.5 46Q718 32 758 32Q811 32 837.5 59Q864 86 864 129Q864 219 761 219Q730 219 705.5 210Q681 201 659 184L631 197L652 407H891V367ZM661 701 327 0H273L609 701Z" glyph-name="uni2156" horiz-adv-x="940" unicode="&#8534;" /><glyph d="M29 0ZM175 285Q122 285 87 302Q52 319 29 356L63 382Q82 352 107.5 338.5Q133 325 171 325Q225 325 250.5 347Q276 369 276 409Q276 441 256.5 463Q237 485 189 485H131V525H189Q222 525 243 543.5Q264 562 264 597Q264 669 174 669Q136 669 113 655Q90 641 71 609L38 632Q60 672 93 690.5Q126 709 178 709Q243 709 277.5 681Q312 653 312 601Q312 568 295.5 543.5Q279 519 250 507Q290 496 306.5 470Q323 444 323 410Q323 353 286.5 319Q250 285 175 285ZM690 367 675 227Q698 243 722.5 249Q747 255 774 255Q804 255 829 248Q854 241 872.5 226Q891 211 901.5 187Q912 163 912 130Q912 68 873 30Q834 -8 759 -8Q711 -8 674 8Q637 24 615 61L648 87Q665 60 691.5 46Q718 32 758 32Q811 32 837.5 59Q864 86 864 129Q864 219 761 219Q730 219 705.5 210Q681 201 659 184L631 197L652 407H891V367ZM661 701 327 0H273L609 701Z" glyph-name="uni2157" horiz-adv-x="940" unicode="&#8535;" /><glyph d="M29 0ZM715 367 700 227Q723 243 747.5 249Q772 255 799 255Q829 255 854 248Q879 241 897.5 226Q916 211 926.5 187Q937 163 937 130Q937 68 898 30Q859 -8 784 -8Q736 -8 699 8Q662 24 640 61L673 87Q690 60 716.5 46Q743 32 783 32Q836 32 862.5 59Q889 86 889 129Q889 219 786 219Q755 219 730.5 210Q706 201 684 184L656 197L677 407H916V367ZM686 701 352 0H298L634 701ZM29 397V432L168 700H216L79 439H259V626H303V439H367V397H303V293H259V397Z" glyph-name="uni2158" horiz-adv-x="965" unicode="&#8536;" /><glyph d="M13 0ZM135 293H87V642L31 601L13 639L104 701H135ZM659 -8Q622 -8 591.5 3.5Q561 15 539 40.5Q517 66 505 105.5Q493 145 493 201Q493 313 537 364.5Q581 416 661 416Q706 416 739.5 400Q773 384 791 350L758 325Q744 352 719 364Q694 376 661 376Q634 376 611.5 367Q589 358 573 337Q557 316 548.5 282.5Q540 249 540 200V185Q540 175 541 167Q550 206 582.5 230Q615 254 665 254Q728 254 764 222Q800 190 800 127Q800 66 764.5 29Q729 -8 659 -8ZM554 122Q554 104 560.5 88Q567 72 579.5 59Q592 46 611 38.5Q630 31 655 31Q700 31 727 54.5Q754 78 754 126Q754 168 728.5 192Q703 216 654 216Q607 216 580.5 191Q554 166 554 122ZM526 701 192 0H138L474 701Z" glyph-name="uni2159" horiz-adv-x="842" unicode="&#8537;" /><glyph d="M33 0ZM108 660 93 520Q116 536 140.5 542Q165 548 192 548Q222 548 247 541Q272 534 290.5 519Q309 504 319.5 480Q330 456 330 423Q330 361 291 323Q252 285 177 285Q129 285 92 301Q55 317 33 354L66 380Q83 353 109.5 339Q136 325 176 325Q229 325 255.5 352Q282 379 282 422Q282 512 179 512Q148 512 123.5 503Q99 494 77 477L49 490L70 700H309V660ZM784 -8Q747 -8 716.5 3.5Q686 15 664 40.5Q642 66 630 105.5Q618 145 618 201Q618 313 662 364.5Q706 416 786 416Q831 416 864.5 400Q898 384 916 350L883 325Q869 352 844 364Q819 376 786 376Q759 376 736.5 367Q714 358 698 337Q682 316 673.5 282.5Q665 249 665 200V185Q665 175 666 167Q675 206 707.5 230Q740 254 790 254Q853 254 889 222Q925 190 925 127Q925 66 889.5 29Q854 -8 784 -8ZM679 122Q679 104 685.5 88Q692 72 704.5 59Q717 46 736 38.5Q755 31 780 31Q825 31 852 54.5Q879 78 879 126Q879 168 853.5 192Q828 216 779 216Q732 216 705.5 191Q679 166 679 122ZM661 701 327 0H273L609 701Z" glyph-name="uni215A" horiz-adv-x="967" unicode="&#8538;" /><glyph d="M13 0ZM135 293H87V642L31 601L13 639L104 701H135ZM640 -8Q568 -8 529.5 23Q491 54 491 111Q491 154 514.5 180Q538 206 576 215Q544 226 526 249.5Q508 273 508 308Q508 416 640 416Q772 416 772 309Q772 273 754 249.5Q736 226 704 215Q742 206 765 179.5Q788 153 788 111Q788 54 750 23Q712 -8 640 -8ZM729 307Q729 377 640 377Q551 377 551 307Q551 273 573 253.5Q595 234 640 234Q684 234 706.5 253.5Q729 273 729 307ZM741 112Q741 150 714.5 172Q688 194 640 194Q592 194 565.5 172Q539 150 539 112Q539 74 564.5 51.5Q590 29 640 29Q690 29 715.5 51.5Q741 74 741 112ZM526 701 192 0H138L474 701Z" glyph-name="uni215B" horiz-adv-x="835" unicode="&#8539;" /><glyph d="M29 0ZM175 285Q122 285 87 302Q52 319 29 356L63 382Q82 352 107.5 338.5Q133 325 171 325Q225 325 250.5 347Q276 369 276 409Q276 441 256.5 463Q237 485 189 485H131V525H189Q222 525 243 543.5Q264 562 264 597Q264 669 174 669Q136 669 113 655Q90 641 71 609L38 632Q60 672 93 690.5Q126 709 178 709Q243 709 277.5 681Q312 653 312 601Q312 568 295.5 543.5Q279 519 250 507Q290 496 306.5 470Q323 444 323 410Q323 353 286.5 319Q250 285 175 285ZM775 -8Q703 -8 664.5 23Q626 54 626 111Q626 154 649.5 180Q673 206 711 215Q679 226 661 249.5Q643 273 643 308Q643 416 775 416Q907 416 907 309Q907 273 889 249.5Q871 226 839 215Q877 206 900 179.5Q923 153 923 111Q923 54 885 23Q847 -8 775 -8ZM864 307Q864 377 775 377Q686 377 686 307Q686 273 708 253.5Q730 234 775 234Q819 234 841.5 253.5Q864 273 864 307ZM876 112Q876 150 849.5 172Q823 194 775 194Q727 194 700.5 172Q674 150 674 112Q674 74 699.5 51.5Q725 29 775 29Q825 29 850.5 51.5Q876 74 876 112ZM661 701 327 0H273L609 701Z" glyph-name="uni215C" horiz-adv-x="970" unicode="&#8540;" /><glyph d="M33 0ZM775 -8Q703 -8 664.5 23Q626 54 626 111Q626 154 649.5 180Q673 206 711 215Q679 226 661 249.5Q643 273 643 308Q643 416 775 416Q907 416 907 309Q907 273 889 249.5Q871 226 839 215Q877 206 900 179.5Q923 153 923 111Q923 54 885 23Q847 -8 775 -8ZM864 307Q864 377 775 377Q686 377 686 307Q686 273 708 253.5Q730 234 775 234Q819 234 841.5 253.5Q864 273 864 307ZM876 112Q876 150 849.5 172Q823 194 775 194Q727 194 700.5 172Q674 150 674 112Q674 74 699.5 51.5Q725 29 775 29Q825 29 850.5 51.5Q876 74 876 112ZM108 660 93 520Q116 536 140.5 542Q165 548 192 548Q222 548 247 541Q272 534 290.5 519Q309 504 319.5 480Q330 456 330 423Q330 361 291 323Q252 285 177 285Q129 285 92 301Q55 317 33 354L66 380Q83 353 109.5 339Q136 325 176 325Q229 325 255.5 352Q282 379 282 422Q282 512 179 512Q148 512 123.5 503Q99 494 77 477L49 490L70 700H309V660ZM661 701 327 0H273L609 701Z" glyph-name="uni215D" horiz-adv-x="970" unicode="&#8541;" /><glyph d="M26 0ZM705 -8Q633 -8 594.5 23Q556 54 556 111Q556 154 579.5 180Q603 206 641 215Q609 226 591 249.5Q573 273 573 308Q573 416 705 416Q837 416 837 309Q837 273 819 249.5Q801 226 769 215Q807 206 830 179.5Q853 153 853 111Q853 54 815 23Q777 -8 705 -8ZM794 307Q794 377 705 377Q616 377 616 307Q616 273 638 253.5Q660 234 705 234Q749 234 771.5 253.5Q794 273 794 307ZM806 112Q806 150 779.5 172Q753 194 705 194Q657 194 630.5 172Q604 150 604 112Q604 74 629.5 51.5Q655 29 705 29Q755 29 780.5 51.5Q806 74 806 112ZM148 293H98Q98 344 108 395.5Q118 447 137 495Q156 543 183.5 585Q211 627 245 658L26 657V700H301V662Q266 638 238 598.5Q210 559 190 510.5Q170 462 159 406Q148 350 148 293ZM591 701 257 0H203L539 701Z" glyph-name="uni215E" horiz-adv-x="900" unicode="&#8542;" /><glyph d="M13 0ZM135 293H87V642L31 601L13 639L104 701H135ZM526 701 192 0H138L474 701Z" glyph-name="uni215F" horiz-adv-x="831" unicode="&#8543;" /><glyph d="M476 -204Q456 -204 437.5 -199.5Q419 -195 405 -184.5Q391 -174 382 -156Q373 -138 373 -112Q373 -87 381 -66.5Q389 -46 402 -30Q415 -14 431.5 -2.5Q448 9 466 15L462 107Q437 47 387 18Q337 -11 273 -11Q182 -11 136.5 39Q91 89 91 186V482H147V195Q147 110 183.5 73Q220 36 286 36Q368 36 411.5 86Q455 136 460 223V482H516V0Q474 -5 445 -35Q416 -65 416 -105Q416 -138 434 -151Q452 -164 481 -164Q498 -164 514 -160Q530 -156 546 -146L556 -182Q521 -204 476 -204Z" glyph-name="uogonek" horiz-adv-x="614" unicode="&#371;" /><glyph d="M91 0ZM214 634Q214 675 239.5 699.5Q265 724 305 724Q343 724 368 699.5Q393 675 393 634Q393 594 367.5 569.5Q342 545 303 545Q265 545 239.5 569.5Q214 594 214 634ZM246 634Q246 608 262.5 590.5Q279 573 303 573Q328 573 344.5 590.5Q361 608 361 634Q361 661 344.5 678Q328 695 305 695Q279 695 262.5 678Q246 661 246 634ZM467 0 462 106Q436 46 386.5 17.5Q337 -11 273 -11Q182 -11 136.5 39Q91 89 91 186V482H147V195Q147 110 183.5 73Q220 36 286 36Q368 36 411.5 86Q455 136 460 223V482H516V0Z" glyph-name="uring" horiz-adv-x="614" unicode="&#367;" /><glyph d="M91 0ZM467 0 462 106Q436 46 386.5 17.5Q337 -11 273 -11Q182 -11 136.5 39Q91 89 91 186V482H147V195Q147 110 183.5 73Q220 36 286 36Q368 36 411.5 86Q455 136 460 223V482H516V0ZM398 669H442Q443 643 436 626Q429 609 418 599.5Q407 590 393 586Q379 582 366 582Q345 582 328.5 589.5Q312 597 298 606.5Q284 616 270.5 623.5Q257 631 241 631Q225 631 215.5 620Q206 609 206 586H162Q161 611 167.5 628Q174 645 185 655Q196 665 209.5 669Q223 673 236 673Q258 673 274.5 665.5Q291 658 305.5 648.5Q320 639 333.5 631.5Q347 624 363 624Q398 624 398 669Z" glyph-name="utilde" horiz-adv-x="614" unicode="&#361;" /><glyph d="M10 482H70L242 54L415 482H472L272 0H211Z" glyph-name="v" horiz-adv-x="482" unicode="v" /><glyph d="M329 475H387L515 63L648 482H703L544 0H483L356 409L230 0H170L10 482H66L201 64Z" glyph-name="w" horiz-adv-x="712" unicode="w" /><glyph d="M10 0ZM483 675 376 568H329V571L409 680H483ZM329 475H387L515 63L648 482H703L544 0H483L356 409L230 0H170L10 482H66L201 64Z" glyph-name="wacute" horiz-adv-x="712" unicode="&#7811;" /><glyph d="M10 0ZM357 646 274 568H212V570L332 680H384L504 570V568H439ZM329 475H387L515 63L648 482H703L544 0H483L356 409L230 0H170L10 482H66L201 64Z" glyph-name="wcircumflex" horiz-adv-x="712" unicode="&#373;" /><glyph d="M10 0ZM389 622Q389 642 401 653Q413 664 433 664Q453 664 465 653Q477 642 477 622Q477 602 465 591Q453 580 433 580Q413 580 401 591Q389 602 389 622ZM237 622Q237 642 248.5 653Q260 664 280 664Q300 664 312 653Q324 642 324 622Q324 602 312 591Q300 580 280 580Q260 580 248.5 591Q237 602 237 622ZM329 475H387L515 63L648 482H703L544 0H483L356 409L230 0H170L10 482H66L201 64Z" glyph-name="wdieresis" horiz-adv-x="712" unicode="&#7813;" /><glyph d="M10 0ZM329 475H387L515 63L648 482H703L544 0H483L356 409L230 0H170L10 482H66L201 64ZM338 569 231 676V681H305L386 572V569Z" glyph-name="wgrave" horiz-adv-x="712" unicode="&#7809;" /><glyph d="M30 482H96L248 286L398 482H463L279 248L477 0H410L245 210L81 0H16L214 249Z" glyph-name="x" horiz-adv-x="493" unicode="x" /><glyph d="M193 -56 211 -5 9 482H68L241 53L414 482H472L240 -75Q223 -116 203.5 -142.5Q184 -169 162 -184Q140 -199 116 -204.5Q92 -210 66 -210Q47 -210 29.5 -207.5Q12 -205 -9 -197L0 -150Q17 -156 31.5 -159Q46 -162 66 -162Q82 -162 98 -158.5Q114 -155 130 -144Q146 -133 162 -112Q178 -91 193 -56Z" glyph-name="y" horiz-adv-x="482" unicode="y" /><glyph d="M274 -210Q208 -210 156 -186.5Q104 -163 73 -100L114 -71Q140 -124 180 -144Q220 -164 274 -164Q313 -164 345 -155Q377 -146 400.5 -126Q424 -106 436.5 -74Q449 -42 449 4V102Q424 49 377.5 23.5Q331 -2 271 -2Q180 -2 136 48Q92 98 92 195V482H148V204Q148 118 183.5 81Q219 44 282 44Q361 44 403 93.5Q445 143 449 229V482H505V5Q505 -51 488 -92Q471 -133 440.5 -159Q410 -185 367.5 -197.5Q325 -210 274 -210Z" glyph-name="y.school" horiz-adv-x="604" /><glyph d="M0 0ZM193 -56 211 -5 9 482H68L241 53L414 482H472L240 -75Q223 -116 203.5 -142.5Q184 -169 162 -184Q140 -199 116 -204.5Q92 -210 66 -210Q47 -210 29.5 -207.5Q12 -205 -9 -197L0 -150Q17 -156 31.5 -159Q46 -162 66 -162Q82 -162 98 -158.5Q114 -155 130 -144Q146 -133 162 -112Q178 -91 193 -56ZM367 675 260 568H213V571L293 680H367Z" glyph-name="yacute" horiz-adv-x="482" unicode="&#253;" /><glyph d="M73 0ZM274 -210Q208 -210 156 -186.5Q104 -163 73 -100L114 -71Q140 -124 180 -144Q220 -164 274 -164Q313 -164 345 -155Q377 -146 400.5 -126Q424 -106 436.5 -74Q449 -42 449 4V102Q424 49 377.5 23.5Q331 -2 271 -2Q180 -2 136 48Q92 98 92 195V482H148V204Q148 118 183.5 81Q219 44 282 44Q361 44 403 93.5Q445 143 449 229V482H505V5Q505 -51 488 -92Q471 -133 440.5 -159Q410 -185 367.5 -197.5Q325 -210 274 -210ZM401 675 294 568H247V571L327 680H401Z" glyph-name="yacute.school" horiz-adv-x="604" /><glyph d="M0 0ZM193 -56 211 -5 9 482H68L241 53L414 482H472L240 -75Q223 -116 203.5 -142.5Q184 -169 162 -184Q140 -199 116 -204.5Q92 -210 66 -210Q47 -210 29.5 -207.5Q12 -205 -9 -197L0 -150Q17 -156 31.5 -159Q46 -162 66 -162Q82 -162 98 -158.5Q114 -155 130 -144Q146 -133 162 -112Q178 -91 193 -56ZM241 646 158 568H96V570L216 680H268L388 570V568H323Z" glyph-name="ycircumflex" horiz-adv-x="482" unicode="&#375;" /><glyph d="M73 0ZM304 646 221 568H159V570L279 680H331L451 570V568H386ZM274 -210Q208 -210 156 -186.5Q104 -163 73 -100L114 -71Q140 -124 180 -144Q220 -164 274 -164Q313 -164 345 -155Q377 -146 400.5 -126Q424 -106 436.5 -74Q449 -42 449 4V102Q424 49 377.5 23.5Q331 -2 271 -2Q180 -2 136 48Q92 98 92 195V482H148V204Q148 118 183.5 81Q219 44 282 44Q361 44 403 93.5Q445 143 449 229V482H505V5Q505 -51 488 -92Q471 -133 440.5 -159Q410 -185 367.5 -197.5Q325 -210 274 -210Z" glyph-name="ycircumflex.school" horiz-adv-x="604" /><glyph d="M0 0ZM193 -56 211 -5 9 482H68L241 53L414 482H472L240 -75Q223 -116 203.5 -142.5Q184 -169 162 -184Q140 -199 116 -204.5Q92 -210 66 -210Q47 -210 29.5 -207.5Q12 -205 -9 -197L0 -150Q17 -156 31.5 -159Q46 -162 66 -162Q82 -162 98 -158.5Q114 -155 130 -144Q146 -133 162 -112Q178 -91 193 -56ZM272 622Q272 642 284 653Q296 664 316 664Q336 664 348 653Q360 642 360 622Q360 602 348 591Q336 580 316 580Q296 580 284 591Q272 602 272 622ZM120 622Q120 642 131.5 653Q143 664 163 664Q183 664 195 653Q207 642 207 622Q207 602 195 591Q183 580 163 580Q143 580 131.5 591Q120 602 120 622Z" glyph-name="ydieresis" horiz-adv-x="482" unicode="&#255;" /><glyph d="M73 0ZM338 622Q338 642 350 653Q362 664 382 664Q402 664 414 653Q426 642 426 622Q426 602 414 591Q402 580 382 580Q362 580 350 591Q338 602 338 622ZM186 622Q186 642 197.5 653Q209 664 229 664Q249 664 261 653Q273 642 273 622Q273 602 261 591Q249 580 229 580Q209 580 197.5 591Q186 602 186 622ZM274 -210Q208 -210 156 -186.5Q104 -163 73 -100L114 -71Q140 -124 180 -144Q220 -164 274 -164Q313 -164 345 -155Q377 -146 400.5 -126Q424 -106 436.5 -74Q449 -42 449 4V102Q424 49 377.5 23.5Q331 -2 271 -2Q180 -2 136 48Q92 98 92 195V482H148V204Q148 118 183.5 81Q219 44 282 44Q361 44 403 93.5Q445 143 449 229V482H505V5Q505 -51 488 -92Q471 -133 440.5 -159Q410 -185 367.5 -197.5Q325 -210 274 -210Z" glyph-name="ydieresis.school" horiz-adv-x="604" /><glyph d="M533 288V243H329V0H271V243H66V288H268L232 345H66V390H206L16 700H79L300 333L522 700H583L393 390H533V345H366L331 288Z" glyph-name="yen" horiz-adv-x="599" unicode="&#165;" /><glyph d="M40 0V42L362 437H47V482H428V439L105 45H435V0Z" glyph-name="z" horiz-adv-x="478" unicode="z" /><glyph d="M40 0ZM364 675 257 568H210V571L290 680H364ZM40 0V42L362 437H47V482H428V439L105 45H435V0Z" glyph-name="zacute" horiz-adv-x="478" unicode="&#378;" /><glyph d="M40 0ZM237 603 321 680H383V678L263 568H211L91 678V680H155ZM40 0V42L362 437H47V482H428V439L105 45H435V0Z" glyph-name="zcaron" horiz-adv-x="478" unicode="&#382;" /><glyph d="M40 0ZM40 0V42L362 437H47V482H428V439L105 45H435V0ZM195 622Q195 642 207 653Q219 664 240 664Q283 664 283 622Q283 580 240 580Q219 580 207 591Q195 602 195 622Z" glyph-name="zdotaccent" horiz-adv-x="478" unicode="&#380;" /><glyph d="M42 350Q42 447 59 515.5Q76 584 109.5 627.5Q143 671 193.5 691Q244 711 312 711Q379 711 430 691Q481 671 514.5 627.5Q548 584 565 515.5Q582 447 582 350Q582 254 565 185.5Q548 117 514.5 73.5Q481 30 430 9.5Q379 -11 312 -11Q244 -11 193.5 9Q143 29 109.5 72.5Q76 116 59 184.5Q42 253 42 350ZM524 350Q524 438 510 498Q496 558 469 595Q442 632 402.5 648Q363 664 312 664Q261 664 221.5 648.5Q182 633 155 596Q128 559 114 499Q100 439 100 350Q100 260 114 200Q128 140 155 103.5Q182 67 221.5 51.5Q261 36 312 36Q363 36 402.5 51.5Q442 67 469 103.5Q496 140 510 200Q524 260 524 350Z" glyph-name="zero" horiz-adv-x="625" unicode="0" /><glyph d="M82 350Q82 447 99 515.5Q116 584 149.5 627.5Q183 671 233.5 691Q284 711 352 711Q420 711 470.5 691Q521 671 555 627.5Q589 584 605.5 515.5Q622 447 622 350Q622 254 605 185.5Q588 117 554.5 73.5Q521 30 470 9.5Q419 -11 352 -11Q284 -11 233.5 9Q183 29 149.5 72.5Q116 116 99 184.5Q82 253 82 350ZM565 350Q565 438 550.5 498Q536 558 509 595Q482 632 442.5 648Q403 664 352 664Q302 664 262.5 648.5Q223 633 196 596Q169 559 154.5 499Q140 439 140 350Q140 260 154.5 200Q169 140 196 103.5Q223 67 262.5 51.5Q302 36 352 36Q403 36 442.5 51.5Q482 67 509 103.5Q536 140 550.5 200Q565 260 565 350Z" glyph-name="zero.LP" horiz-adv-x="705" /><glyph d="M69 300Q69 384 85.5 443Q102 502 133.5 539.5Q165 577 211 594Q257 611 317 611Q377 611 423 594Q469 577 500.5 539.5Q532 502 548 443Q564 384 564 300Q564 217 548 158Q532 99 500.5 61.5Q469 24 423 6.5Q377 -11 317 -11Q257 -11 211 6.5Q165 24 133.5 61.5Q102 99 85.5 158Q69 217 69 300ZM508 300Q508 375 495 425.5Q482 476 457.5 507Q433 538 397.5 551Q362 564 317 564Q272 564 236.5 551Q201 538 176.5 507.5Q152 477 139 426.5Q126 376 126 300Q126 225 139 174Q152 123 176.5 92.5Q201 62 236.5 49Q272 36 317 36Q362 36 397.5 49Q433 62 457.5 92.5Q482 123 495 173.5Q508 224 508 300Z" glyph-name="zero.OP" horiz-adv-x="634" /><glyph d="M49 300Q49 384 66.5 443Q84 502 117.5 539.5Q151 577 200 594Q249 611 312 611Q375 611 424 594Q473 577 506.5 539.5Q540 502 557.5 443Q575 384 575 300Q575 217 557.5 158Q540 99 506.5 61.5Q473 24 424 6.5Q375 -11 312 -11Q249 -11 200 6.5Q151 24 117.5 61.5Q84 99 66.5 158Q49 217 49 300ZM519 300Q519 375 505 425.5Q491 476 465 507Q439 538 400 551Q361 564 312 564Q263 564 224.5 551Q186 538 159.5 507.5Q133 477 119 426.5Q105 376 105 300Q105 225 119 174Q133 123 159.5 92.5Q186 62 224.5 49Q263 36 312 36Q361 36 400 49Q439 62 465 92.5Q491 123 505 173.5Q519 224 519 300Z" glyph-name="zero.OT" horiz-adv-x="625" /><glyph d="M46 0ZM46 4Q46 117 86.5 166.5Q127 216 210 216Q292 216 332 166.5Q372 117 372 4Q372 -108 331.5 -158Q291 -208 210 -208Q127 -208 86.5 -158.5Q46 -109 46 4ZM324 4Q324 52 316.5 85Q309 118 294 138.5Q279 159 258 167.5Q237 176 210 176Q182 176 160.5 167.5Q139 159 124 139Q109 119 101.5 86Q94 53 94 4Q94 -45 101.5 -78Q109 -111 124 -131Q139 -151 160.5 -159.5Q182 -168 209 -168Q236 -168 257.5 -159.5Q279 -151 294 -131Q309 -111 316.5 -78Q324 -45 324 4Z" glyph-name="zero.inf" horiz-adv-x="421" /><glyph glyph-name="zerowidthspace" horiz-adv-x="0" unicode="&#8203;" /></font>
</defs>
</svg>
