<?xml version="1.0" standalone="no"?><!DOCTYPE svg PUBLIC "-//W3C//DTD SVG 1.1//EN" "http://www.w3.org/Graphics/SVG/1.1/DTD/svg11.dtd" ><svg version="1.1" xmlns="http://www.w3.org/2000/svg"><defs><font horiz-adv-x="0" id="font"><font-face ascent="972" bbox="-149 -355 1463 965" cap-height="700" descent="-226" font-family="Honeywell Sans" font-stretch="normal" font-style="italic" font-weight="900" units-per-em="1000" x-height="502" /><missing-glyph d="M110 0V700H804V0ZM521 345 707 132V558ZM293 87H620L455 276ZM459 414 631 613H285ZM395 345 207 558V129Z" horiz-adv-x="914" /><glyph d="M0 0Z" glyph-name=".ttfautohint" horiz-adv-x="724" /><glyph d="M395 502 277 244H432ZM463 0 450 94H210L168 0H-28L311 700H547L664 0Z" glyph-name="A" horiz-adv-x="713" unicode="A" /><glyph d="M397 493 278 244H434ZM469 0 455 94H208L163 0H-30L324 700H1042L1017 544H583L601 432H949L925 275H628L647 156H965L941 0Z" glyph-name="AE" horiz-adv-x="1029" unicode="&#198;" /><glyph d="M0 0ZM395 502 277 244H432ZM463 0 450 94H210L168 0H-28L311 700H547L664 0ZM455 910H650L649 903L495 769H349L350 774Z" glyph-name="Aacute" horiz-adv-x="713" unicode="&#193;" /><glyph d="M0 0ZM395 502 277 244H432ZM463 0 450 94H210L168 0H-28L311 700H547L664 0ZM524 908H635Q629 866 613 837.5Q597 809 571.5 791.5Q546 774 511 767Q476 760 433 760Q390 760 357 767Q324 774 303 791.5Q282 809 273.5 837.5Q265 866 271 908H380Q375 873 390 861Q405 849 442 849Q479 849 498.5 861Q518 873 524 908Z" glyph-name="Abreve" horiz-adv-x="713" unicode="&#258;" /><glyph d="M0 0ZM395 502 277 244H432ZM463 0 450 94H210L168 0H-28L311 700H547L664 0ZM440 820 375 768H232L233 772L377 909H529L629 772L628 768H488Z" glyph-name="Acircumflex" horiz-adv-x="713" unicode="&#194;" /><glyph d="M0 0ZM395 502 277 244H432ZM463 0 450 94H210L168 0H-28L311 700H547L664 0ZM546 764Q504 764 483.5 780Q463 796 463 832Q463 883 491 907Q519 931 567 931Q608 931 629.5 914.5Q651 898 651 863Q651 811 622.5 787.5Q594 764 546 764ZM320 764Q278 764 257.5 780.5Q237 797 237 833Q237 884 265 907.5Q293 931 341 931Q424 931 424 864Q424 811 396 787.5Q368 764 320 764Z" glyph-name="Adieresis" horiz-adv-x="713" unicode="&#196;" /><glyph d="M0 0ZM395 502 277 244H432ZM463 0 450 94H210L168 0H-28L311 700H547L664 0ZM366 768 253 902 254 909H455L513 773V768Z" glyph-name="Agrave" horiz-adv-x="713" unicode="&#192;" /><glyph d="M0 0ZM395 502 277 244H432ZM463 0 450 94H210L168 0H-28L311 700H547L664 0ZM603 883 586 782H285L301 883Z" glyph-name="Amacron" horiz-adv-x="713" unicode="&#256;" /><glyph d="M506 -238Q480 -238 454.5 -232Q429 -226 409.5 -212.5Q390 -199 378 -176.5Q366 -154 366 -121Q366 -68 391.5 -29.5Q417 9 458 32L450 94H210L168 0H-28L311 700H547L664 0H571Q522 -4 497.5 -31Q473 -58 473 -87Q473 -116 490 -126Q507 -136 530 -136Q567 -136 600 -119L615 -209Q566 -238 506 -238ZM395 502 277 244H432Z" glyph-name="Aogonek" horiz-adv-x="713" unicode="&#260;" /><glyph d="M0 0ZM395 502 277 244H432ZM463 0 450 94H210L168 0H-28L311 700H547L664 0ZM432 748Q387 748 354.5 771Q322 794 322 842Q322 871 332 894Q342 917 360 932.5Q378 948 402.5 956.5Q427 965 455 965Q506 965 535.5 940.5Q565 916 565 872Q565 813 527.5 780.5Q490 748 432 748ZM450 898Q429 898 415 885Q401 872 401 848Q401 831 410.5 822.5Q420 814 437 814Q457 814 471.5 827Q486 840 486 865Q486 881 476.5 889.5Q467 898 450 898Z" glyph-name="Aring" horiz-adv-x="713" unicode="&#197;" /><glyph d="M0 0ZM395 502 277 244H432ZM463 0 450 94H210L168 0H-28L311 700H547L664 0ZM535 906H640Q638 868 626 842.5Q614 817 596 801.5Q578 786 557 779.5Q536 773 516 773Q493 773 474 778Q455 783 439.5 788.5Q424 794 409.5 799Q395 804 381 804Q364 804 357.5 793.5Q351 783 349 772H242Q244 810 256 835.5Q268 861 285.5 876.5Q303 892 324.5 898.5Q346 905 366 905Q389 905 408 900Q427 895 443.5 889.5Q460 884 474.5 879Q489 874 504 874Q521 874 527 883.5Q533 893 535 906Z" glyph-name="Atilde" horiz-adv-x="713" unicode="&#195;" /><glyph d="M41 0 152 700H517Q611 700 654.5 657Q698 614 698 545Q698 487 671 439.5Q644 392 587 364Q629 350 647 314.5Q665 279 665 235Q665 118 595 59Q525 0 405 0ZM449 553H320L299 420H427Q464 420 483 444Q502 468 502 502Q502 526 488 539.5Q474 553 449 553ZM418 279H277L256 144H390Q430 144 451.5 165.5Q473 187 473 227Q473 250 460 264.5Q447 279 418 279Z" glyph-name="B" horiz-adv-x="712" unicode="B" /><glyph d="M347 -15Q192 -15 119 53.5Q46 122 46 263Q46 303 52 351Q77 540 175.5 627.5Q274 715 446 715Q565 715 630.5 665.5Q696 616 716 522L547 460Q531 512 502 530.5Q473 549 427 549Q395 549 367 539.5Q339 530 316.5 507Q294 484 277.5 445Q261 406 252 347Q249 327 247 309Q245 291 245 274Q245 203 278 174.5Q311 146 369 146Q414 146 452 164.5Q490 183 515 229L663 139Q617 58 538 21.5Q459 -15 347 -15Z" glyph-name="C" horiz-adv-x="693" unicode="C" /><glyph glyph-name="CR" horiz-adv-x="176" unicode="" /><glyph d="M46 0ZM486 910H681L680 903L526 769H380L381 774ZM347 -15Q192 -15 119 53.5Q46 122 46 263Q46 303 52 351Q77 540 175.5 627.5Q274 715 446 715Q565 715 630.5 665.5Q696 616 716 522L547 460Q531 512 502 530.5Q473 549 427 549Q395 549 367 539.5Q339 530 316.5 507Q294 484 277.5 445Q261 406 252 347Q249 327 247 309Q245 291 245 274Q245 203 278 174.5Q311 146 369 146Q414 146 452 164.5Q490 183 515 229L663 139Q617 58 538 21.5Q459 -15 347 -15Z" glyph-name="Cacute" horiz-adv-x="693" unicode="&#262;" /><glyph d="M46 0ZM387 769 287 907 288 910H429L476 858L541 910H684L683 907L539 769ZM347 -15Q192 -15 119 53.5Q46 122 46 263Q46 303 52 351Q77 540 175.5 627.5Q274 715 446 715Q565 715 630.5 665.5Q696 616 716 522L547 460Q531 512 502 530.5Q473 549 427 549Q395 549 367 539.5Q339 530 316.5 507Q294 484 277.5 445Q261 406 252 347Q249 327 247 309Q245 291 245 274Q245 203 278 174.5Q311 146 369 146Q414 146 452 164.5Q490 183 515 229L663 139Q617 58 538 21.5Q459 -15 347 -15Z" glyph-name="Ccaron" horiz-adv-x="693" unicode="&#268;" /><glyph d="M301 -257Q253 -257 215 -238.5Q177 -220 159 -182L227 -121Q240 -144 258 -156.5Q276 -169 306 -169Q326 -169 341 -160.5Q356 -152 356 -133Q356 -121 349.5 -114Q343 -107 333.5 -104Q324 -101 312 -101Q300 -101 289 -102L264 -89L303 -13Q170 -4 108 64Q46 132 46 263Q46 303 52 351Q77 540 175.5 627.5Q274 715 446 715Q565 715 630.5 665.5Q696 616 716 522L547 460Q531 512 502 530.5Q473 549 427 549Q395 549 367 539.5Q339 530 316.5 507Q294 484 277.5 445Q261 406 252 347Q249 327 247 309Q245 291 245 274Q245 203 278 174.5Q311 146 369 146Q414 146 452 164.5Q490 183 515 229L663 139Q621 66 553.5 29.5Q486 -7 391 -14L372 -45Q409 -50 436.5 -72.5Q464 -95 464 -138Q464 -167 451.5 -189.5Q439 -212 417 -227Q395 -242 365 -249.5Q335 -257 301 -257Z" glyph-name="Ccedilla" horiz-adv-x="693" unicode="&#199;" /><glyph d="M46 0ZM472 820 407 768H264L265 772L409 909H561L661 772L660 768H520ZM347 -15Q192 -15 119 53.5Q46 122 46 263Q46 303 52 351Q77 540 175.5 627.5Q274 715 446 715Q565 715 630.5 665.5Q696 616 716 522L547 460Q531 512 502 530.5Q473 549 427 549Q395 549 367 539.5Q339 530 316.5 507Q294 484 277.5 445Q261 406 252 347Q249 327 247 309Q245 291 245 274Q245 203 278 174.5Q311 146 369 146Q414 146 452 164.5Q490 183 515 229L663 139Q617 58 538 21.5Q459 -15 347 -15Z" glyph-name="Ccircumflex" horiz-adv-x="693" unicode="&#264;" /><glyph d="M46 0ZM347 -15Q192 -15 119 53.5Q46 122 46 263Q46 303 52 351Q77 540 175.5 627.5Q274 715 446 715Q565 715 630.5 665.5Q696 616 716 522L547 460Q531 512 502 530.5Q473 549 427 549Q395 549 367 539.5Q339 530 316.5 507Q294 484 277.5 445Q261 406 252 347Q249 327 247 309Q245 291 245 274Q245 203 278 174.5Q311 146 369 146Q414 146 452 164.5Q490 183 515 229L663 139Q617 58 538 21.5Q459 -15 347 -15ZM465 763Q376 763 376 832Q376 885 406.5 908.5Q437 932 486 932Q529 932 552 915Q575 898 575 861Q575 810 545 786.5Q515 763 465 763Z" glyph-name="Cdotaccent" horiz-adv-x="693" unicode="&#266;" /><glyph d="M347 0H41L152 700H455Q599 700 666.5 637Q734 574 734 443Q734 424 732.5 401Q731 378 728 355Q705 179 611.5 89.5Q518 0 347 0ZM264 160H348Q382 160 411.5 170Q441 180 464.5 202.5Q488 225 504.5 261.5Q521 298 530 351Q532 367 533.5 384Q535 401 535 415Q535 540 425 540H325Z" glyph-name="D" horiz-adv-x="755" unicode="D" /><glyph d="M41 0ZM391 769 291 907 292 910H433L480 858L545 910H688L687 907L543 769ZM347 0H41L152 700H455Q599 700 666.5 637Q734 574 734 443Q734 424 732.5 401Q731 378 728 355Q705 179 611.5 89.5Q518 0 347 0ZM264 160H348Q382 160 411.5 170Q441 180 464.5 202.5Q488 225 504.5 261.5Q521 298 530 351Q532 367 533.5 384Q535 401 535 415Q535 540 425 540H325Z" glyph-name="Dcaron" horiz-adv-x="755" unicode="&#270;" /><glyph d="M359 0H51L94 270H25L49 418H117L162 700H463Q606 700 673.5 636.5Q741 573 741 442Q741 422 739 398Q737 374 735 353Q712 177 620.5 88.5Q529 0 359 0ZM274 160H358Q392 160 421.5 169.5Q451 179 474 201Q497 223 513.5 258.5Q530 294 538 345Q540 362 542 380Q544 398 544 412Q544 540 435 540H335L315 418H416L392 270H291Z" glyph-name="Dcroat" horiz-adv-x="765" unicode="&#272;" /><glyph d="M41 0 152 700H694L669 545H320L302 432H602L578 275H278L259 156H617L592 0Z" glyph-name="E" horiz-adv-x="681" unicode="E" /><glyph d="M41 0ZM454 910H649L648 903L494 769H348L349 774ZM41 0 152 700H694L669 545H320L302 432H602L578 275H278L259 156H617L592 0Z" glyph-name="Eacute" horiz-adv-x="681" unicode="&#201;" /><glyph d="M41 0ZM41 0 152 700H694L669 545H320L302 432H602L578 275H278L259 156H617L592 0ZM523 908H634Q628 866 612 837.5Q596 809 570.5 791.5Q545 774 510 767Q475 760 432 760Q389 760 356 767Q323 774 302 791.5Q281 809 272.5 837.5Q264 866 270 908H379Q374 873 389 861Q404 849 441 849Q478 849 497.5 861Q517 873 523 908Z" glyph-name="Ebreve" horiz-adv-x="681" unicode="&#276;" /><glyph d="M41 0ZM355 769 255 907 256 910H397L444 858L509 910H652L651 907L507 769ZM41 0 152 700H694L669 545H320L302 432H602L578 275H278L259 156H617L592 0Z" glyph-name="Ecaron" horiz-adv-x="681" unicode="&#282;" /><glyph d="M41 0ZM440 820 375 768H232L233 772L377 909H529L629 772L628 768H488ZM41 0 152 700H694L669 545H320L302 432H602L578 275H278L259 156H617L592 0Z" glyph-name="Ecircumflex" horiz-adv-x="681" unicode="&#202;" /><glyph d="M41 0ZM545 764Q503 764 482.5 780Q462 796 462 832Q462 883 490 907Q518 931 566 931Q607 931 628.5 914.5Q650 898 650 863Q650 811 621.5 787.5Q593 764 545 764ZM319 764Q277 764 256.5 780.5Q236 797 236 833Q236 884 264 907.5Q292 931 340 931Q423 931 423 864Q423 811 395 787.5Q367 764 319 764ZM41 0 152 700H694L669 545H320L302 432H602L578 275H278L259 156H617L592 0Z" glyph-name="Edieresis" horiz-adv-x="681" unicode="&#203;" /><glyph d="M41 0ZM41 0 152 700H694L669 545H320L302 432H602L578 275H278L259 156H617L592 0ZM433 763Q344 763 344 832Q344 885 374.5 908.5Q405 932 454 932Q497 932 520 915Q543 898 543 861Q543 810 513 786.5Q483 763 433 763Z" glyph-name="Edotaccent" horiz-adv-x="681" unicode="&#278;" /><glyph d="M41 0ZM41 0 152 700H694L669 545H320L302 432H602L578 275H278L259 156H617L592 0ZM367 768 254 902 255 909H456L514 773V768Z" glyph-name="Egrave" horiz-adv-x="681" unicode="&#200;" /><glyph d="M41 0ZM41 0 152 700H694L669 545H320L302 432H602L578 275H278L259 156H617L592 0ZM604 883 587 782H286L302 883Z" glyph-name="Emacron" horiz-adv-x="681" unicode="&#274;" /><glyph d="M491 -14 497 25 283 383 227 0H41L152 700H298L544 284L605 700H792L678 -23Q670 -74 649.5 -112Q629 -150 598.5 -174.5Q568 -199 528.5 -211.5Q489 -224 443 -224Q415 -224 383.5 -218Q352 -212 327 -198L372 -76Q383 -81 394 -84Q405 -87 419 -87Q451 -87 468 -70.5Q485 -54 491 -14Z" glyph-name="Eng" horiz-adv-x="806" unicode="&#330;" /><glyph d="M41 0 152 700H694L669 546H321L303 432H602L577 275H278L259 156H617L593 0Q544 -4 519.5 -31Q495 -58 495 -87Q495 -116 512 -126Q529 -136 552 -136Q589 -136 622 -119L637 -209Q588 -238 528 -238Q501 -238 476 -232Q451 -226 431.5 -212.5Q412 -199 400 -176.5Q388 -154 388 -121Q388 -83 402 -53Q416 -23 439 0Z" glyph-name="Eogonek" horiz-adv-x="681" unicode="&#280;" /><glyph d="M359 0H51L94 270H25L49 418H117L162 700H463Q606 700 673.5 636.5Q741 573 741 442Q741 422 739 398Q737 374 735 353Q712 177 620.5 88.5Q529 0 359 0ZM274 160H358Q392 160 421.5 169.5Q451 179 474 201Q497 223 513.5 258.5Q530 294 538 345Q540 362 542 380Q544 398 544 412Q544 540 435 540H335L315 418H416L392 270H291Z" glyph-name="Eth" horiz-adv-x="765" unicode="&#208;" /><glyph d="M449 316 412 228H271Q279 180 308 161.5Q337 143 385 143Q428 143 460.5 160.5Q493 178 517 220L665 131Q620 53 546 19Q472 -15 363 -15Q223 -15 152.5 44Q82 103 74 228H4L18 316H74L79 356H24L37 444H97Q135 584 225 649.5Q315 715 459 715Q573 715 636 668.5Q699 622 719 533L549 471Q535 520 510 538.5Q485 557 443 557Q395 557 356.5 533Q318 509 294 444H505L467 356H270Q268 348 267 337Q266 326 265 316Z" glyph-name="Euro" horiz-adv-x="716" unicode="&#8364;" /><glyph d="M41 0 152 700H683L658 539H324L305 415H590L563 250H278L239 0Z" glyph-name="F" horiz-adv-x="622" unicode="F" /><glyph d="M315 -15Q188 -15 117 55Q46 125 46 268Q46 306 52 351Q76 538 174 626.5Q272 715 446 715Q560 715 623.5 671.5Q687 628 707 543L540 477Q527 516 501 532.5Q475 549 429 549Q395 549 366.5 539Q338 529 315.5 505.5Q293 482 277 443.5Q261 405 252 349Q248 328 246.5 309.5Q245 291 245 275Q245 238 253.5 213Q262 188 278 173Q294 158 317 151.5Q340 145 370 145Q392 145 412.5 149.5Q433 154 451 165Q469 176 483 195Q497 214 505 243H385L408 391H706L644 0H509L510 79Q477 34 430.5 9.5Q384 -15 315 -15Z" glyph-name="G" horiz-adv-x="731" unicode="G" /><glyph d="M335 -15Q193 -15 119.5 55Q46 125 46 268Q46 306 52 351Q76 538 174 626.5Q272 715 446 715Q560 715 623.5 671.5Q687 628 707 543L540 477Q527 516 501 532.5Q475 549 429 549Q395 549 366.5 539Q338 529 315.5 505.5Q293 482 277 443.5Q261 405 252 349Q248 328 246.5 309.5Q245 291 245 275Q245 238 253.5 213Q262 188 278 173Q294 158 317 151.5Q340 145 370 145Q419 145 455 166.5Q491 188 504 243H385L409 391H707L691 287Q666 130 579 57.5Q492 -15 335 -15Z" glyph-name="G.alt" horiz-adv-x="725" /><glyph d="M46 0ZM315 -15Q188 -15 117 55Q46 125 46 268Q46 306 52 351Q76 538 174 626.5Q272 715 446 715Q560 715 623.5 671.5Q687 628 707 543L540 477Q527 516 501 532.5Q475 549 429 549Q395 549 366.5 539Q338 529 315.5 505.5Q293 482 277 443.5Q261 405 252 349Q248 328 246.5 309.5Q245 291 245 275Q245 238 253.5 213Q262 188 278 173Q294 158 317 151.5Q340 145 370 145Q392 145 412.5 149.5Q433 154 451 165Q469 176 483 195Q497 214 505 243H385L408 391H706L644 0H509L510 79Q477 34 430.5 9.5Q384 -15 315 -15ZM547 908H658Q652 866 636 837.5Q620 809 594.5 791.5Q569 774 534 767Q499 760 456 760Q413 760 380 767Q347 774 326 791.5Q305 809 296.5 837.5Q288 866 294 908H403Q398 873 413 861Q428 849 465 849Q502 849 521.5 861Q541 873 547 908Z" glyph-name="Gbreve" horiz-adv-x="731" unicode="&#286;" /><glyph d="M46 0ZM335 -15Q193 -15 119.5 55Q46 125 46 268Q46 306 52 351Q76 538 174 626.5Q272 715 446 715Q560 715 623.5 671.5Q687 628 707 543L540 477Q527 516 501 532.5Q475 549 429 549Q395 549 366.5 539Q338 529 315.5 505.5Q293 482 277 443.5Q261 405 252 349Q248 328 246.5 309.5Q245 291 245 275Q245 238 253.5 213Q262 188 278 173Q294 158 317 151.5Q340 145 370 145Q419 145 455 166.5Q491 188 504 243H385L409 391H707L691 287Q666 130 579 57.5Q492 -15 335 -15ZM551 908H662Q656 866 640 837.5Q624 809 598.5 791.5Q573 774 538 767Q503 760 460 760Q417 760 384 767Q351 774 330 791.5Q309 809 300.5 837.5Q292 866 298 908H407Q402 873 417 861Q432 849 469 849Q506 849 525.5 861Q545 873 551 908Z" glyph-name="Gbreve.alt" horiz-adv-x="725" /><glyph d="M46 0ZM464 820 399 768H256L257 772L401 909H553L653 772L652 768H512ZM315 -15Q188 -15 117 55Q46 125 46 268Q46 306 52 351Q76 538 174 626.5Q272 715 446 715Q560 715 623.5 671.5Q687 628 707 543L540 477Q527 516 501 532.5Q475 549 429 549Q395 549 366.5 539Q338 529 315.5 505.5Q293 482 277 443.5Q261 405 252 349Q248 328 246.5 309.5Q245 291 245 275Q245 238 253.5 213Q262 188 278 173Q294 158 317 151.5Q340 145 370 145Q392 145 412.5 149.5Q433 154 451 165Q469 176 483 195Q497 214 505 243H385L408 391H706L644 0H509L510 79Q477 34 430.5 9.5Q384 -15 315 -15Z" glyph-name="Gcircumflex" horiz-adv-x="731" unicode="&#284;" /><glyph d="M46 0ZM468 820 403 768H260L261 772L405 909H557L657 772L656 768H516ZM335 -15Q193 -15 119.5 55Q46 125 46 268Q46 306 52 351Q76 538 174 626.5Q272 715 446 715Q560 715 623.5 671.5Q687 628 707 543L540 477Q527 516 501 532.5Q475 549 429 549Q395 549 366.5 539Q338 529 315.5 505.5Q293 482 277 443.5Q261 405 252 349Q248 328 246.5 309.5Q245 291 245 275Q245 238 253.5 213Q262 188 278 173Q294 158 317 151.5Q340 145 370 145Q419 145 455 166.5Q491 188 504 243H385L409 391H707L691 287Q666 130 579 57.5Q492 -15 335 -15Z" glyph-name="Gcircumflex.alt" horiz-adv-x="725" /><glyph d="M46 0ZM230 -351 209 -285Q240 -277 265.5 -259.5Q291 -242 302 -216Q263 -215 241.5 -197.5Q220 -180 220 -148Q220 -99 249.5 -74.5Q279 -50 327 -50Q368 -50 391 -71Q414 -92 414 -134Q414 -176 399 -213.5Q384 -251 358.5 -279.5Q333 -308 300 -327Q267 -346 230 -351ZM315 -15Q188 -15 117 55Q46 125 46 268Q46 306 52 351Q76 538 174 626.5Q272 715 446 715Q560 715 623.5 671.5Q687 628 707 543L540 477Q527 516 501 532.5Q475 549 429 549Q395 549 366.5 539Q338 529 315.5 505.5Q293 482 277 443.5Q261 405 252 349Q248 328 246.5 309.5Q245 291 245 275Q245 238 253.5 213Q262 188 278 173Q294 158 317 151.5Q340 145 370 145Q392 145 412.5 149.5Q433 154 451 165Q469 176 483 195Q497 214 505 243H385L408 391H706L644 0H509L510 79Q477 34 430.5 9.5Q384 -15 315 -15Z" glyph-name="Gcommaaccent" horiz-adv-x="731" unicode="&#290;" /><glyph d="M46 0ZM233 -351 212 -285Q243 -277 268.5 -259.5Q294 -242 305 -216Q266 -215 244.5 -197.5Q223 -180 223 -148Q223 -99 252.5 -74.5Q282 -50 330 -50Q371 -50 394 -71Q417 -92 417 -134Q417 -176 402 -213.5Q387 -251 361.5 -279.5Q336 -308 303 -327Q270 -346 233 -351ZM335 -15Q193 -15 119.5 55Q46 125 46 268Q46 306 52 351Q76 538 174 626.5Q272 715 446 715Q560 715 623.5 671.5Q687 628 707 543L540 477Q527 516 501 532.5Q475 549 429 549Q395 549 366.5 539Q338 529 315.5 505.5Q293 482 277 443.5Q261 405 252 349Q248 328 246.5 309.5Q245 291 245 275Q245 238 253.5 213Q262 188 278 173Q294 158 317 151.5Q340 145 370 145Q419 145 455 166.5Q491 188 504 243H385L409 391H707L691 287Q666 130 579 57.5Q492 -15 335 -15Z" glyph-name="Gcommaaccent.alt" horiz-adv-x="725" /><glyph d="M46 0ZM315 -15Q188 -15 117 55Q46 125 46 268Q46 306 52 351Q76 538 174 626.5Q272 715 446 715Q560 715 623.5 671.5Q687 628 707 543L540 477Q527 516 501 532.5Q475 549 429 549Q395 549 366.5 539Q338 529 315.5 505.5Q293 482 277 443.5Q261 405 252 349Q248 328 246.5 309.5Q245 291 245 275Q245 238 253.5 213Q262 188 278 173Q294 158 317 151.5Q340 145 370 145Q392 145 412.5 149.5Q433 154 451 165Q469 176 483 195Q497 214 505 243H385L408 391H706L644 0H509L510 79Q477 34 430.5 9.5Q384 -15 315 -15ZM458 763Q369 763 369 832Q369 885 399.5 908.5Q430 932 479 932Q522 932 545 915Q568 898 568 861Q568 810 538 786.5Q508 763 458 763Z" glyph-name="Gdotaccent" horiz-adv-x="731" unicode="&#288;" /><glyph d="M46 0ZM335 -15Q193 -15 119.5 55Q46 125 46 268Q46 306 52 351Q76 538 174 626.5Q272 715 446 715Q560 715 623.5 671.5Q687 628 707 543L540 477Q527 516 501 532.5Q475 549 429 549Q395 549 366.5 539Q338 529 315.5 505.5Q293 482 277 443.5Q261 405 252 349Q248 328 246.5 309.5Q245 291 245 275Q245 238 253.5 213Q262 188 278 173Q294 158 317 151.5Q340 145 370 145Q419 145 455 166.5Q491 188 504 243H385L409 391H707L691 287Q666 130 579 57.5Q492 -15 335 -15ZM461 763Q372 763 372 832Q372 885 402.5 908.5Q433 932 482 932Q525 932 548 915Q571 898 571 861Q571 810 541 786.5Q511 763 461 763Z" glyph-name="Gdotaccent.alt" horiz-adv-x="725" /><glyph d="M486 0 528 263H280L239 0H41L152 700H350L308 434H555L597 700H795L684 0Z" glyph-name="H" horiz-adv-x="809" unicode="H" /><glyph d="M318 434H565L577 507H330ZM85 604H147L162 700H360L345 604H592L607 700H805L790 604H852L837 507H774L694 0H496L538 263H291L249 0H51L132 507H71Z" glyph-name="Hbar" horiz-adv-x="829" unicode="&#294;" /><glyph d="M41 0ZM501 820 436 768H293L294 772L438 909H590L690 772L689 768H549ZM486 0 528 263H280L239 0H41L152 700H350L308 434H555L597 700H795L684 0Z" glyph-name="Hcircumflex" horiz-adv-x="809" unicode="&#292;" /><glyph d="M41 0 152 700H350L239 0Z" glyph-name="I" horiz-adv-x="364" unicode="I" /><glyph d="M41 0ZM41 0 152 700H350L239 0ZM330 54 427 198Q448 176 477.5 164Q507 152 537 152Q582 152 613 178.5Q644 205 654 268L723 700H920L851 264Q839 187 810 134Q781 81 739 48Q697 15 644 0Q591 -15 530 -15Q474 -15 422.5 1.5Q371 18 330 54Z" glyph-name="IJ" horiz-adv-x="918" unicode="&#306;" /><glyph d="M41 0ZM41 0 152 700H350L239 0ZM282 910H477L476 903L322 769H176L177 774Z" glyph-name="Iacute" horiz-adv-x="364" unicode="&#205;" /><glyph d="M41 0ZM41 0 152 700H350L239 0ZM351 908H462Q456 866 440 837.5Q424 809 398.5 791.5Q373 774 338 767Q303 760 260 760Q217 760 184 767Q151 774 130 791.5Q109 809 100.5 837.5Q92 866 98 908H207Q202 873 217 861Q232 849 269 849Q306 849 325.5 861Q345 873 351 908Z" glyph-name="Ibreve" horiz-adv-x="364" unicode="&#300;" /><glyph d="M41 0ZM41 0 152 700H350L239 0ZM268 820 203 768H60L61 772L205 909H357L457 772L456 768H316Z" glyph-name="Icircumflex" horiz-adv-x="364" unicode="&#206;" /><glyph d="M41 0ZM41 0 152 700H350L239 0ZM373 764Q331 764 310.5 780Q290 796 290 832Q290 883 318 907Q346 931 394 931Q435 931 456.5 914.5Q478 898 478 863Q478 811 449.5 787.5Q421 764 373 764ZM147 764Q105 764 84.5 780.5Q64 797 64 833Q64 884 92 907.5Q120 931 168 931Q251 931 251 864Q251 811 223 787.5Q195 764 147 764Z" glyph-name="Idieresis" horiz-adv-x="364" unicode="&#207;" /><glyph d="M41 0ZM41 0 152 700H350L239 0ZM261 763Q172 763 172 832Q172 885 202.5 908.5Q233 932 282 932Q325 932 348 915Q371 898 371 861Q371 810 341 786.5Q311 763 261 763Z" glyph-name="Idotaccent" horiz-adv-x="364" unicode="&#304;" /><glyph d="M41 0ZM41 0 152 700H350L239 0ZM201 768 88 902 89 909H290L348 773V768Z" glyph-name="Igrave" horiz-adv-x="364" unicode="&#204;" /><glyph d="M41 0ZM41 0 152 700H350L239 0ZM431 883 414 782H113L129 883Z" glyph-name="Imacron" horiz-adv-x="364" unicode="&#298;" /><glyph d="M107 -238Q81 -238 55.5 -232Q30 -226 10.5 -212.5Q-9 -199 -21 -176.5Q-33 -154 -33 -121Q-33 -74 -11 -39Q11 -4 43 16L152 700H349L238 0H172Q123 -4 98.5 -31Q74 -58 74 -87Q74 -116 91.5 -126Q109 -136 132 -136Q168 -136 201 -119L216 -209Q167 -238 107 -238Z" glyph-name="Iogonek" horiz-adv-x="364" unicode="&#302;" /><glyph d="M41 0ZM41 0 152 700H350L239 0ZM363 906H468Q466 868 454 842.5Q442 817 424 801.5Q406 786 385 779.5Q364 773 344 773Q321 773 302 778Q283 783 267.5 788.5Q252 794 237.5 799Q223 804 209 804Q192 804 185.5 793.5Q179 783 177 772H70Q72 810 84 835.5Q96 861 113.5 876.5Q131 892 152.5 898.5Q174 905 194 905Q217 905 236 900Q255 895 271.5 889.5Q288 884 302.5 879Q317 874 332 874Q349 874 355 883.5Q361 893 363 906Z" glyph-name="Itilde" horiz-adv-x="364" unicode="&#296;" /><glyph d="M-34 54 63 198Q84 176 113.5 164Q143 152 173 152Q218 152 249 178.5Q280 205 290 268L359 700H556L487 264Q475 187 446 134Q417 81 375 48Q333 15 280 0Q227 -15 166 -15Q110 -15 58.5 1.5Q7 18 -34 54Z" glyph-name="J" horiz-adv-x="555" unicode="J" /><glyph d="M0 0ZM471 820 406 768H263L264 772L408 909H560L660 772L659 768H519ZM-34 54 63 198Q84 176 113.5 164Q143 152 173 152Q218 152 249 178.5Q280 205 290 268L359 700H556L487 264Q475 187 446 134Q417 81 375 48Q333 15 280 0Q227 -15 166 -15Q110 -15 58.5 1.5Q7 18 -34 54Z" glyph-name="Jcircumflex" horiz-adv-x="555" unicode="&#308;" /><glyph d="M41 0 152 700H350L302 404L574 700H808L506 389L690 0H452L346 243L265 164L239 0Z" glyph-name="K" horiz-adv-x="753" unicode="K" /><glyph d="M456 0 288 308 239 0H40L151 700H350L297 363L575 700H803L487 341L701 0Z" glyph-name="K.alt" horiz-adv-x="751" /><glyph d="M41 0ZM246 -351 225 -285Q256 -277 281.5 -259.5Q307 -242 318 -216Q279 -215 257.5 -197.5Q236 -180 236 -148Q236 -99 265.5 -74.5Q295 -50 343 -50Q384 -50 407 -71Q430 -92 430 -134Q430 -176 415 -213.5Q400 -251 374.5 -279.5Q349 -308 316 -327Q283 -346 246 -351ZM41 0 152 700H350L302 404L574 700H808L506 389L690 0H452L346 243L265 164L239 0Z" glyph-name="Kcommaaccent" horiz-adv-x="753" unicode="&#310;" /><glyph d="M40 0ZM246 -351 225 -285Q256 -277 281.5 -259.5Q307 -242 318 -216Q279 -215 257.5 -197.5Q236 -180 236 -148Q236 -99 265.5 -74.5Q295 -50 343 -50Q384 -50 407 -71Q430 -92 430 -134Q430 -176 415 -213.5Q400 -251 374.5 -279.5Q349 -308 316 -327Q283 -346 246 -351ZM456 0 288 308 239 0H40L151 700H350L297 363L575 700H803L487 341L701 0Z" glyph-name="Kcommaaccent.alt" horiz-adv-x="751" /><glyph d="M265 166H599L572 0H41L152 700H349Z" glyph-name="L" horiz-adv-x="638" unicode="L" /><glyph d="M41 0ZM240 910H435L434 903L280 769H134L135 774ZM265 166H599L572 0H41L152 700H349Z" glyph-name="Lacute" horiz-adv-x="645" unicode="&#313;" /><glyph d="M41 0ZM549 421H428L479 700H627ZM265 166H599L572 0H41L152 700H349Z" glyph-name="Lcaron" horiz-adv-x="645" unicode="&#317;" /><glyph d="M41 0ZM236 -351 215 -285Q246 -277 271.5 -259.5Q297 -242 308 -216Q269 -215 247.5 -197.5Q226 -180 226 -148Q226 -99 255.5 -74.5Q285 -50 333 -50Q374 -50 397 -71Q420 -92 420 -134Q420 -176 405 -213.5Q390 -251 364.5 -279.5Q339 -308 306 -327Q273 -346 236 -351ZM265 166H599L572 0H41L152 700H349Z" glyph-name="Lcommaaccent" horiz-adv-x="645" unicode="&#315;" /><glyph d="M41 0ZM265 166H599L572 0H41L152 700H349ZM496 277Q407 277 407 346Q407 399 437.5 422.5Q468 446 517 446Q560 446 583 429Q606 412 606 375Q606 324 576 300.5Q546 277 496 277Z" glyph-name="Ldot" horiz-adv-x="638" unicode="&#319;" /><glyph d="M279 166H612L586 0H54L85 201L2 159L24 310L109 351L165 700H363L323 448L492 528L468 377L299 297Z" glyph-name="Lslash" horiz-adv-x="651" unicode="&#321;" /><glyph d="M380 0 272 395 219 0H41L152 700H359L480 230L749 700H966L855 0H670L743 395L513 0Z" glyph-name="M" horiz-adv-x="981" unicode="M" /><glyph d="M514 0 282 384 227 0H41L152 700H298L544 284L605 700H791L680 0Z" glyph-name="N" horiz-adv-x="806" unicode="N" /><glyph glyph-name="NULL" horiz-adv-x="176" /><glyph d="M41 0ZM495 910H690L689 903L535 769H389L390 774ZM514 0 282 384 227 0H41L152 700H298L544 284L605 700H791L680 0Z" glyph-name="Nacute" horiz-adv-x="806" unicode="&#323;" /><glyph d="M41 0ZM396 769 296 907 297 910H438L485 858L550 910H693L692 907L548 769ZM514 0 282 384 227 0H41L152 700H298L544 284L605 700H791L680 0Z" glyph-name="Ncaron" horiz-adv-x="806" unicode="&#327;" /><glyph d="M41 0ZM262 -352 241 -286Q272 -278 297.5 -260.5Q323 -243 334 -217Q295 -216 273.5 -198.5Q252 -181 252 -149Q252 -100 281.5 -75.5Q311 -51 359 -51Q400 -51 423 -72Q446 -93 446 -135Q446 -177 431 -214.5Q416 -252 390.5 -280.5Q365 -309 332 -328Q299 -347 262 -352ZM514 0 282 384 227 0H41L152 700H298L544 284L605 700H791L680 0Z" glyph-name="Ncommaaccent" horiz-adv-x="806" unicode="&#325;" /><glyph d="M41 0ZM514 0 282 384 227 0H41L152 700H298L544 284L605 700H791L680 0ZM576 906H681Q679 868 667 842.5Q655 817 637 801.5Q619 786 598 779.5Q577 773 557 773Q534 773 515 778Q496 783 480.5 788.5Q465 794 450.5 799Q436 804 422 804Q405 804 398.5 793.5Q392 783 390 772H283Q285 810 297 835.5Q309 861 326.5 876.5Q344 892 365.5 898.5Q387 905 407 905Q430 905 449 900Q468 895 484.5 889.5Q501 884 515.5 879Q530 874 545 874Q562 874 568 883.5Q574 893 576 906Z" glyph-name="Ntilde" horiz-adv-x="806" unicode="&#209;" /><glyph d="M52 351Q75 534 171 624.5Q267 715 445 715Q605 715 677.5 645Q750 575 750 438Q750 396 744 350Q721 167 624.5 76Q528 -15 351 -15Q192 -15 119 55.5Q46 126 46 264Q46 304 52 351ZM548 422Q548 491 517.5 520.5Q487 550 428 550Q392 550 363 539.5Q334 529 312 505.5Q290 482 275 443.5Q260 405 251 349Q248 329 246 311Q244 293 244 277Q244 208 274.5 178.5Q305 149 364 149Q400 149 429 159.5Q458 170 480 194Q502 218 517.5 256.5Q533 295 542 351Q548 391 548 422Z" glyph-name="O" horiz-adv-x="776" unicode="O" /><glyph d="M429 700H1086L1061 545H714L696 432H994L969 275H671L652 156H1009L984 0H339Q193 0 119.5 66Q46 132 46 269Q46 306 52 348Q74 520 166 610Q258 700 429 700ZM242 282Q242 160 347 160H460L520 540H420Q351 540 308 497Q265 454 248 349Q246 332 244 314.5Q242 297 242 282Z" glyph-name="OE" horiz-adv-x="1073" unicode="&#338;" /><glyph d="M46 0ZM482 910H677L676 903L522 769H376L377 774ZM52 351Q75 534 171 624.5Q267 715 445 715Q605 715 677.5 645Q750 575 750 438Q750 396 744 350Q721 167 624.5 76Q528 -15 351 -15Q192 -15 119 55.5Q46 126 46 264Q46 304 52 351ZM548 422Q548 491 517.5 520.5Q487 550 428 550Q392 550 363 539.5Q334 529 312 505.5Q290 482 275 443.5Q260 405 251 349Q248 329 246 311Q244 293 244 277Q244 208 274.5 178.5Q305 149 364 149Q400 149 429 159.5Q458 170 480 194Q502 218 517.5 256.5Q533 295 542 351Q548 391 548 422Z" glyph-name="Oacute" horiz-adv-x="776" unicode="&#211;" /><glyph d="M46 0ZM52 351Q75 534 171 624.5Q267 715 445 715Q605 715 677.5 645Q750 575 750 438Q750 396 744 350Q721 167 624.5 76Q528 -15 351 -15Q192 -15 119 55.5Q46 126 46 264Q46 304 52 351ZM548 422Q548 491 517.5 520.5Q487 550 428 550Q392 550 363 539.5Q334 529 312 505.5Q290 482 275 443.5Q260 405 251 349Q248 329 246 311Q244 293 244 277Q244 208 274.5 178.5Q305 149 364 149Q400 149 429 159.5Q458 170 480 194Q502 218 517.5 256.5Q533 295 542 351Q548 391 548 422ZM551 908H662Q656 866 640 837.5Q624 809 598.5 791.5Q573 774 538 767Q503 760 460 760Q417 760 384 767Q351 774 330 791.5Q309 809 300.5 837.5Q292 866 298 908H407Q402 873 417 861Q432 849 469 849Q506 849 525.5 861Q545 873 551 908Z" glyph-name="Obreve" horiz-adv-x="776" unicode="&#334;" /><glyph d="M46 0ZM468 820 403 768H260L261 772L405 909H557L657 772L656 768H516ZM52 351Q75 534 171 624.5Q267 715 445 715Q605 715 677.5 645Q750 575 750 438Q750 396 744 350Q721 167 624.5 76Q528 -15 351 -15Q192 -15 119 55.5Q46 126 46 264Q46 304 52 351ZM548 422Q548 491 517.5 520.5Q487 550 428 550Q392 550 363 539.5Q334 529 312 505.5Q290 482 275 443.5Q260 405 251 349Q248 329 246 311Q244 293 244 277Q244 208 274.5 178.5Q305 149 364 149Q400 149 429 159.5Q458 170 480 194Q502 218 517.5 256.5Q533 295 542 351Q548 391 548 422Z" glyph-name="Ocircumflex" horiz-adv-x="776" unicode="&#212;" /><glyph d="M46 0ZM574 764Q532 764 511.5 780Q491 796 491 832Q491 883 519 907Q547 931 595 931Q636 931 657.5 914.5Q679 898 679 863Q679 811 650.5 787.5Q622 764 574 764ZM348 764Q306 764 285.5 780.5Q265 797 265 833Q265 884 293 907.5Q321 931 369 931Q452 931 452 864Q452 811 424 787.5Q396 764 348 764ZM52 351Q75 534 171 624.5Q267 715 445 715Q605 715 677.5 645Q750 575 750 438Q750 396 744 350Q721 167 624.5 76Q528 -15 351 -15Q192 -15 119 55.5Q46 126 46 264Q46 304 52 351ZM548 422Q548 491 517.5 520.5Q487 550 428 550Q392 550 363 539.5Q334 529 312 505.5Q290 482 275 443.5Q260 405 251 349Q248 329 246 311Q244 293 244 277Q244 208 274.5 178.5Q305 149 364 149Q400 149 429 159.5Q458 170 480 194Q502 218 517.5 256.5Q533 295 542 351Q548 391 548 422Z" glyph-name="Odieresis" horiz-adv-x="776" unicode="&#214;" /><glyph d="M46 0ZM52 351Q75 534 171 624.5Q267 715 445 715Q605 715 677.5 645Q750 575 750 438Q750 396 744 350Q721 167 624.5 76Q528 -15 351 -15Q192 -15 119 55.5Q46 126 46 264Q46 304 52 351ZM548 422Q548 491 517.5 520.5Q487 550 428 550Q392 550 363 539.5Q334 529 312 505.5Q290 482 275 443.5Q260 405 251 349Q248 329 246 311Q244 293 244 277Q244 208 274.5 178.5Q305 149 364 149Q400 149 429 159.5Q458 170 480 194Q502 218 517.5 256.5Q533 295 542 351Q548 391 548 422ZM395 768 282 902 283 909H484L542 773V768Z" glyph-name="Ograve" horiz-adv-x="776" unicode="&#210;" /><glyph d="M46 0ZM585 909H773L772 902L619 768H488V773ZM377 909H551L550 902L410 768H285L286 773ZM52 351Q75 534 171 624.5Q267 715 445 715Q605 715 677.5 645Q750 575 750 438Q750 396 744 350Q721 167 624.5 76Q528 -15 351 -15Q192 -15 119 55.5Q46 126 46 264Q46 304 52 351ZM548 422Q548 491 517.5 520.5Q487 550 428 550Q392 550 363 539.5Q334 529 312 505.5Q290 482 275 443.5Q260 405 251 349Q248 329 246 311Q244 293 244 277Q244 208 274.5 178.5Q305 149 364 149Q400 149 429 159.5Q458 170 480 194Q502 218 517.5 256.5Q533 295 542 351Q548 391 548 422Z" glyph-name="Ohungarumlaut" horiz-adv-x="776" unicode="&#336;" /><glyph d="M46 0ZM632 883 615 782H314L330 883ZM52 351Q75 534 171 624.5Q267 715 445 715Q605 715 677.5 645Q750 575 750 438Q750 396 744 350Q721 167 624.5 76Q528 -15 351 -15Q192 -15 119 55.5Q46 126 46 264Q46 304 52 351ZM548 422Q548 491 517.5 520.5Q487 550 428 550Q392 550 363 539.5Q334 529 312 505.5Q290 482 275 443.5Q260 405 251 349Q248 329 246 311Q244 293 244 277Q244 208 274.5 178.5Q305 149 364 149Q400 149 429 159.5Q458 170 480 194Q502 218 517.5 256.5Q533 295 542 351Q548 391 548 422Z" glyph-name="Omacron" horiz-adv-x="776" unicode="&#332;" /><glyph d="M-13 0 89 100Q50 164 50 265Q50 285 51.5 307Q53 329 56 350Q78 529 174.5 622Q271 715 450 715Q518 715 569 701.5Q620 688 657 662L696 700H821L716 597Q754 534 754 435Q754 416 752.5 394Q751 372 748 350Q724 168 629 76.5Q534 -15 359 -15Q221 -15 147 38L108 0ZM249 259 518 525Q489 550 433 550Q396 550 367 539.5Q338 529 316 505.5Q294 482 279 443.5Q264 405 255 350Q252 331 250.5 309.5Q249 288 249 259ZM369 149Q405 149 434 159Q463 169 485 193Q507 217 522 255.5Q537 294 546 351Q550 375 551 395.5Q552 416 552 436L284 173Q299 160 320.5 154.5Q342 149 369 149Z" glyph-name="Oslash" horiz-adv-x="783" unicode="&#216;" /><glyph d="M46 0ZM52 351Q75 534 171 624.5Q267 715 445 715Q605 715 677.5 645Q750 575 750 438Q750 396 744 350Q721 167 624.5 76Q528 -15 351 -15Q192 -15 119 55.5Q46 126 46 264Q46 304 52 351ZM548 422Q548 491 517.5 520.5Q487 550 428 550Q392 550 363 539.5Q334 529 312 505.5Q290 482 275 443.5Q260 405 251 349Q248 329 246 311Q244 293 244 277Q244 208 274.5 178.5Q305 149 364 149Q400 149 429 159.5Q458 170 480 194Q502 218 517.5 256.5Q533 295 542 351Q548 391 548 422ZM563 906H668Q666 868 654 842.5Q642 817 624 801.5Q606 786 585 779.5Q564 773 544 773Q521 773 502 778Q483 783 467.5 788.5Q452 794 437.5 799Q423 804 409 804Q392 804 385.5 793.5Q379 783 377 772H270Q272 810 284 835.5Q296 861 313.5 876.5Q331 892 352.5 898.5Q374 905 394 905Q417 905 436 900Q455 895 471.5 889.5Q488 884 502.5 879Q517 874 532 874Q549 874 555 883.5Q561 893 563 906Z" glyph-name="Otilde" horiz-adv-x="776" unicode="&#213;" /><glyph d="M41 0 152 700H499Q605 700 656.5 645Q708 590 708 498Q708 423 684.5 365Q661 307 619 267Q577 227 520 206.5Q463 186 396 186H268L239 0ZM438 531H323L294 348H409Q450 348 480 377Q510 406 510 460Q510 489 494 510Q478 531 438 531Z" glyph-name="P" horiz-adv-x="702" unicode="P" /><glyph d="M445 715Q605 715 677.5 645Q750 575 750 438Q750 396 744 350Q715 130 582 44L636 -86H470L438 -9Q397 -15 351 -15Q192 -15 119 55.5Q46 126 46 264Q46 304 52 351Q75 534 171 624.5Q267 715 445 715ZM430 555Q394 555 364.5 544Q335 533 313 508.5Q291 484 275.5 444.5Q260 405 251 347Q245 305 245 273Q245 203 275 173.5Q305 144 364 144H375L332 248H499L507 228Q530 275 542 349Q549 390 549 424Q549 496 518.5 525.5Q488 555 430 555Z" glyph-name="Q" horiz-adv-x="776" unicode="Q" /><glyph d="M453 536H321L295 371H424Q464 371 491 398Q518 425 518 474Q518 501 503 518.5Q488 536 453 536ZM377 213H270L237 0H41L152 700H510Q614 700 665 646.5Q716 593 716 505Q716 410 678 345.5Q640 281 574 249L645 0H429Z" glyph-name="R" horiz-adv-x="716" unicode="R" /><glyph d="M41 0ZM468 910H663L662 903L508 769H362L363 774ZM453 536H321L295 371H424Q464 371 491 398Q518 425 518 474Q518 501 503 518.5Q488 536 453 536ZM377 213H270L237 0H41L152 700H510Q614 700 665 646.5Q716 593 716 505Q716 410 678 345.5Q640 281 574 249L645 0H429Z" glyph-name="Racute" horiz-adv-x="716" unicode="&#340;" /><glyph d="M41 0ZM369 769 269 907 270 910H411L458 858L523 910H666L665 907L521 769ZM453 536H321L295 371H424Q464 371 491 398Q518 425 518 474Q518 501 503 518.5Q488 536 453 536ZM377 213H270L237 0H41L152 700H510Q614 700 665 646.5Q716 593 716 505Q716 410 678 345.5Q640 281 574 249L645 0H429Z" glyph-name="Rcaron" horiz-adv-x="716" unicode="&#344;" /><glyph d="M41 0ZM223 -351 202 -285Q233 -277 258.5 -259.5Q284 -242 295 -216Q256 -215 234.5 -197.5Q213 -180 213 -148Q213 -99 242.5 -74.5Q272 -50 320 -50Q361 -50 384 -71Q407 -92 407 -134Q407 -176 392 -213.5Q377 -251 351.5 -279.5Q326 -308 293 -327Q260 -346 223 -351ZM453 536H321L295 371H424Q464 371 491 398Q518 425 518 474Q518 501 503 518.5Q488 536 453 536ZM377 213H270L237 0H41L152 700H510Q614 700 665 646.5Q716 593 716 505Q716 410 678 345.5Q640 281 574 249L645 0H429Z" glyph-name="Rcommaaccent" horiz-adv-x="716" unicode="&#342;" /><glyph d="M621 573 481 493Q460 528 434 546.5Q408 565 357 565Q303 565 278.5 547.5Q254 530 254 503Q254 482 271 465Q288 448 338 434L389 420Q442 405 478 386Q514 367 536.5 343Q559 319 569 290Q579 261 579 226Q579 171 557 126.5Q535 82 494 50.5Q453 19 394.5 2Q336 -15 263 -15Q166 -15 98.5 19Q31 53 -4 129L137 213Q157 167 192 147.5Q227 128 284 128Q339 128 363.5 147.5Q388 167 388 193Q388 216 372 229Q356 242 319 253L266 269Q211 285 174.5 306.5Q138 328 116 354Q94 380 84.5 410Q75 440 75 474Q75 525 94 569Q113 613 150.5 645.5Q188 678 243.5 696.5Q299 715 371 715Q413 715 451.5 707.5Q490 700 522.5 683.5Q555 667 580 640Q605 613 621 573Z" glyph-name="S" horiz-adv-x="624" unicode="S" /><glyph d="M0 0ZM407 910H602L601 903L447 769H301L302 774ZM621 573 481 493Q460 528 434 546.5Q408 565 357 565Q303 565 278.5 547.5Q254 530 254 503Q254 482 271 465Q288 448 338 434L389 420Q442 405 478 386Q514 367 536.5 343Q559 319 569 290Q579 261 579 226Q579 171 557 126.5Q535 82 494 50.5Q453 19 394.5 2Q336 -15 263 -15Q166 -15 98.5 19Q31 53 -4 129L137 213Q157 167 192 147.5Q227 128 284 128Q339 128 363.5 147.5Q388 167 388 193Q388 216 372 229Q356 242 319 253L266 269Q211 285 174.5 306.5Q138 328 116 354Q94 380 84.5 410Q75 440 75 474Q75 525 94 569Q113 613 150.5 645.5Q188 678 243.5 696.5Q299 715 371 715Q413 715 451.5 707.5Q490 700 522.5 683.5Q555 667 580 640Q605 613 621 573Z" glyph-name="Sacute" horiz-adv-x="624" unicode="&#346;" /><glyph d="M0 0ZM308 769 208 907 209 910H350L397 858L462 910H605L604 907L460 769ZM621 573 481 493Q460 528 434 546.5Q408 565 357 565Q303 565 278.5 547.5Q254 530 254 503Q254 482 271 465Q288 448 338 434L389 420Q442 405 478 386Q514 367 536.5 343Q559 319 569 290Q579 261 579 226Q579 171 557 126.5Q535 82 494 50.5Q453 19 394.5 2Q336 -15 263 -15Q166 -15 98.5 19Q31 53 -4 129L137 213Q157 167 192 147.5Q227 128 284 128Q339 128 363.5 147.5Q388 167 388 193Q388 216 372 229Q356 242 319 253L266 269Q211 285 174.5 306.5Q138 328 116 354Q94 380 84.5 410Q75 440 75 474Q75 525 94 569Q113 613 150.5 645.5Q188 678 243.5 696.5Q299 715 371 715Q413 715 451.5 707.5Q490 700 522.5 683.5Q555 667 580 640Q605 613 621 573Z" glyph-name="Scaron" horiz-adv-x="624" unicode="&#352;" /><glyph d="M219 -257Q171 -257 133 -238.5Q95 -220 77 -182L145 -121Q158 -144 176 -156.5Q194 -169 224 -169Q244 -169 259 -160.5Q274 -152 274 -133Q274 -121 267.5 -114Q261 -107 251.5 -104Q242 -101 230 -101Q218 -101 207 -102L182 -89L221 -13Q141 -6 84.5 28Q28 62 -4 129L137 213Q157 167 192 147.5Q227 128 284 128Q339 128 363.5 147.5Q388 167 388 193Q388 216 372 229Q356 242 319 253L266 269Q211 285 174.5 306.5Q138 328 116 354Q94 380 84.5 410Q75 440 75 474Q75 525 94 569Q113 613 150.5 645.5Q188 678 243.5 696.5Q299 715 371 715Q413 715 451.5 707.5Q490 700 522.5 683.5Q555 667 580 640Q605 613 621 573L481 493Q460 528 434 546.5Q408 565 357 565Q303 565 278.5 547.5Q254 530 254 503Q254 482 271 465Q288 448 338 434L389 420Q442 405 478 386Q514 367 536.5 343Q559 319 569 290Q579 261 579 226Q579 176 560.5 134Q542 92 507 61.5Q472 31 422 11.5Q372 -8 309 -13L290 -45Q327 -50 354.5 -72.5Q382 -95 382 -138Q382 -167 369.5 -189.5Q357 -212 335 -227Q313 -242 283 -249.5Q253 -257 219 -257Z" glyph-name="Scedilla" horiz-adv-x="624" unicode="&#350;" /><glyph d="M0 0ZM392 820 327 768H184L185 772L329 909H481L581 772L580 768H440ZM621 573 481 493Q460 528 434 546.5Q408 565 357 565Q303 565 278.5 547.5Q254 530 254 503Q254 482 271 465Q288 448 338 434L389 420Q442 405 478 386Q514 367 536.5 343Q559 319 569 290Q579 261 579 226Q579 171 557 126.5Q535 82 494 50.5Q453 19 394.5 2Q336 -15 263 -15Q166 -15 98.5 19Q31 53 -4 129L137 213Q157 167 192 147.5Q227 128 284 128Q339 128 363.5 147.5Q388 167 388 193Q388 216 372 229Q356 242 319 253L266 269Q211 285 174.5 306.5Q138 328 116 354Q94 380 84.5 410Q75 440 75 474Q75 525 94 569Q113 613 150.5 645.5Q188 678 243.5 696.5Q299 715 371 715Q413 715 451.5 707.5Q490 700 522.5 683.5Q555 667 580 640Q605 613 621 573Z" glyph-name="Scircumflex" horiz-adv-x="624" unicode="&#348;" /><glyph d="M0 0ZM165 -351 144 -285Q175 -277 200.5 -259.5Q226 -242 237 -216Q198 -215 176.5 -197.5Q155 -180 155 -148Q155 -99 184.5 -74.5Q214 -50 262 -50Q303 -50 326 -71Q349 -92 349 -134Q349 -176 334 -213.5Q319 -251 293.5 -279.5Q268 -308 235 -327Q202 -346 165 -351ZM621 573 481 493Q460 528 434 546.5Q408 565 357 565Q303 565 278.5 547.5Q254 530 254 503Q254 482 271 465Q288 448 338 434L389 420Q442 405 478 386Q514 367 536.5 343Q559 319 569 290Q579 261 579 226Q579 171 557 126.5Q535 82 494 50.5Q453 19 394.5 2Q336 -15 263 -15Q166 -15 98.5 19Q31 53 -4 129L137 213Q157 167 192 147.5Q227 128 284 128Q339 128 363.5 147.5Q388 167 388 193Q388 216 372 229Q356 242 319 253L266 269Q211 285 174.5 306.5Q138 328 116 354Q94 380 84.5 410Q75 440 75 474Q75 525 94 569Q113 613 150.5 645.5Q188 678 243.5 696.5Q299 715 371 715Q413 715 451.5 707.5Q490 700 522.5 683.5Q555 667 580 640Q605 613 621 573Z" glyph-name="Scommaaccent" horiz-adv-x="624" unicode="&#536;" /><glyph d="M83 700H687L660 530H457L373 0H176L260 530H56Z" glyph-name="T" horiz-adv-x="634" unicode="T" /><glyph d="M87 402H240L260 530H57L84 700H688L661 530H458L438 402H592L570 262H416L374 0H177L218 262H65Z" glyph-name="Tbar" horiz-adv-x="642" unicode="&#358;" /><glyph d="M56 0ZM316 769 216 907 217 910H358L405 858L470 910H613L612 907L468 769ZM83 700H687L660 530H457L373 0H176L260 530H56Z" glyph-name="Tcaron" horiz-adv-x="634" unicode="&#356;" /><glyph d="M56 0ZM172 -351 151 -285Q182 -277 207.5 -259.5Q233 -242 244 -216Q205 -215 183.5 -197.5Q162 -180 162 -148Q162 -99 191.5 -74.5Q221 -50 269 -50Q310 -50 333 -71Q356 -92 356 -134Q356 -176 341 -213.5Q326 -251 300.5 -279.5Q275 -308 242 -327Q209 -346 172 -351ZM83 700H687L660 530H457L373 0H176L260 530H56Z" glyph-name="Tcommaaccent" horiz-adv-x="634" unicode="&#354;" /><glyph d="M255 100 240 0H41L152 700H351L335 604H475Q528 604 568 589Q608 574 634.5 546.5Q661 519 674.5 481Q688 443 688 397Q688 323 664.5 267Q641 211 600.5 174Q560 137 505.5 118.5Q451 100 389 100ZM281 262H393Q439 262 465 291.5Q491 321 491 366Q491 394 475.5 415Q460 436 420 436H309Z" glyph-name="Thorn" horiz-adv-x="703" unicode="&#222;" /><glyph d="M505 280 571 700H769L704 290Q691 207 662 149Q633 91 589 54.5Q545 18 485.5 1.5Q426 -15 352 -15Q284 -15 230.5 -2Q177 11 140.5 39Q104 67 85 110.5Q66 154 66 215Q66 234 67.5 251.5Q69 269 73 290L138 700H335L270 280Q267 262 267 246Q267 201 291.5 176Q316 151 367 151Q484 151 505 280Z" glyph-name="U" horiz-adv-x="767" unicode="U" /><glyph d="M66 0ZM484 910H679L678 903L524 769H378L379 774ZM505 280 571 700H769L704 290Q691 207 662 149Q633 91 589 54.5Q545 18 485.5 1.5Q426 -15 352 -15Q284 -15 230.5 -2Q177 11 140.5 39Q104 67 85 110.5Q66 154 66 215Q66 234 67.5 251.5Q69 269 73 290L138 700H335L270 280Q267 262 267 246Q267 201 291.5 176Q316 151 367 151Q484 151 505 280Z" glyph-name="Uacute" horiz-adv-x="767" unicode="&#218;" /><glyph d="M66 0ZM505 280 571 700H769L704 290Q691 207 662 149Q633 91 589 54.5Q545 18 485.5 1.5Q426 -15 352 -15Q284 -15 230.5 -2Q177 11 140.5 39Q104 67 85 110.5Q66 154 66 215Q66 234 67.5 251.5Q69 269 73 290L138 700H335L270 280Q267 262 267 246Q267 201 291.5 176Q316 151 367 151Q484 151 505 280ZM553 908H664Q658 866 642 837.5Q626 809 600.5 791.5Q575 774 540 767Q505 760 462 760Q419 760 386 767Q353 774 332 791.5Q311 809 302.5 837.5Q294 866 300 908H409Q404 873 419 861Q434 849 471 849Q508 849 527.5 861Q547 873 553 908Z" glyph-name="Ubreve" horiz-adv-x="767" unicode="&#364;" /><glyph d="M66 0ZM470 820 405 768H262L263 772L407 909H559L659 772L658 768H518ZM505 280 571 700H769L704 290Q691 207 662 149Q633 91 589 54.5Q545 18 485.5 1.5Q426 -15 352 -15Q284 -15 230.5 -2Q177 11 140.5 39Q104 67 85 110.5Q66 154 66 215Q66 234 67.5 251.5Q69 269 73 290L138 700H335L270 280Q267 262 267 246Q267 201 291.5 176Q316 151 367 151Q484 151 505 280Z" glyph-name="Ucircumflex" horiz-adv-x="767" unicode="&#219;" /><glyph d="M66 0ZM575 764Q533 764 512.5 780Q492 796 492 832Q492 883 520 907Q548 931 596 931Q637 931 658.5 914.5Q680 898 680 863Q680 811 651.5 787.5Q623 764 575 764ZM349 764Q307 764 286.5 780.5Q266 797 266 833Q266 884 294 907.5Q322 931 370 931Q453 931 453 864Q453 811 425 787.5Q397 764 349 764ZM505 280 571 700H769L704 290Q691 207 662 149Q633 91 589 54.5Q545 18 485.5 1.5Q426 -15 352 -15Q284 -15 230.5 -2Q177 11 140.5 39Q104 67 85 110.5Q66 154 66 215Q66 234 67.5 251.5Q69 269 73 290L138 700H335L270 280Q267 262 267 246Q267 201 291.5 176Q316 151 367 151Q484 151 505 280Z" glyph-name="Udieresis" horiz-adv-x="767" unicode="&#220;" /><glyph d="M66 0ZM505 280 571 700H769L704 290Q691 207 662 149Q633 91 589 54.5Q545 18 485.5 1.5Q426 -15 352 -15Q284 -15 230.5 -2Q177 11 140.5 39Q104 67 85 110.5Q66 154 66 215Q66 234 67.5 251.5Q69 269 73 290L138 700H335L270 280Q267 262 267 246Q267 201 291.5 176Q316 151 367 151Q484 151 505 280ZM396 768 283 902 284 909H485L543 773V768Z" glyph-name="Ugrave" horiz-adv-x="767" unicode="&#217;" /><glyph d="M66 0ZM505 280 571 700H769L704 290Q691 207 662 149Q633 91 589 54.5Q545 18 485.5 1.5Q426 -15 352 -15Q284 -15 230.5 -2Q177 11 140.5 39Q104 67 85 110.5Q66 154 66 215Q66 234 67.5 251.5Q69 269 73 290L138 700H335L270 280Q267 262 267 246Q267 201 291.5 176Q316 151 367 151Q484 151 505 280ZM587 909H775L774 902L621 768H490V773ZM379 909H553L552 902L412 768H287L288 773Z" glyph-name="Uhungarumlaut" horiz-adv-x="767" unicode="&#368;" /><glyph d="M66 0ZM505 280 571 700H769L704 290Q691 207 662 149Q633 91 589 54.5Q545 18 485.5 1.5Q426 -15 352 -15Q284 -15 230.5 -2Q177 11 140.5 39Q104 67 85 110.5Q66 154 66 215Q66 234 67.5 251.5Q69 269 73 290L138 700H335L270 280Q267 262 267 246Q267 201 291.5 176Q316 151 367 151Q484 151 505 280ZM633 883 616 782H315L331 883Z" glyph-name="Umacron" horiz-adv-x="767" unicode="&#362;" /><glyph d="M505 281 570 700H769L705 291Q685 164 628 95Q571 26 483 1Q466 -4 453.5 -14Q441 -24 432.5 -36Q424 -48 419.5 -60.5Q415 -73 415 -85Q415 -114 432 -125Q449 -136 472 -136Q508 -136 541 -119L556 -209Q507 -238 447 -238Q421 -238 395.5 -232Q370 -226 350.5 -212.5Q331 -199 319 -176Q307 -153 307 -120Q307 -91 316 -63Q325 -35 342 -15Q210 -13 138 42Q66 97 66 215Q66 250 73 291L137 700H337L271 281Q268 263 268 247Q268 202 292 177Q316 152 367 152Q484 152 505 281Z" glyph-name="Uogonek" horiz-adv-x="767" unicode="&#370;" /><glyph d="M66 0ZM462 748Q417 748 384.5 771Q352 794 352 842Q352 871 362 894Q372 917 390 932.5Q408 948 432.5 956.5Q457 965 485 965Q536 965 565.5 940.5Q595 916 595 872Q595 813 557.5 780.5Q520 748 462 748ZM480 898Q459 898 445 885Q431 872 431 848Q431 831 440.5 822.5Q450 814 467 814Q487 814 501.5 827Q516 840 516 865Q516 881 506.5 889.5Q497 898 480 898ZM505 280 571 700H769L704 290Q691 207 662 149Q633 91 589 54.5Q545 18 485.5 1.5Q426 -15 352 -15Q284 -15 230.5 -2Q177 11 140.5 39Q104 67 85 110.5Q66 154 66 215Q66 234 67.5 251.5Q69 269 73 290L138 700H335L270 280Q267 262 267 246Q267 201 291.5 176Q316 151 367 151Q484 151 505 280Z" glyph-name="Uring" horiz-adv-x="767" unicode="&#366;" /><glyph d="M66 0ZM505 280 571 700H769L704 290Q691 207 662 149Q633 91 589 54.5Q545 18 485.5 1.5Q426 -15 352 -15Q284 -15 230.5 -2Q177 11 140.5 39Q104 67 85 110.5Q66 154 66 215Q66 234 67.5 251.5Q69 269 73 290L138 700H335L270 280Q267 262 267 246Q267 201 291.5 176Q316 151 367 151Q484 151 505 280ZM565 906H670Q668 868 656 842.5Q644 817 626 801.5Q608 786 587 779.5Q566 773 546 773Q523 773 504 778Q485 783 469.5 788.5Q454 794 439.5 799Q425 804 411 804Q394 804 387.5 793.5Q381 783 379 772H272Q274 810 286 835.5Q298 861 315.5 876.5Q333 892 354.5 898.5Q376 905 396 905Q419 905 438 900Q457 895 473.5 889.5Q490 884 504.5 879Q519 874 534 874Q551 874 557 883.5Q563 893 565 906Z" glyph-name="Utilde" horiz-adv-x="767" unicode="&#360;" /><glyph d="M70 700H271L339 220L560 700H763L420 0H191Z" glyph-name="V" horiz-adv-x="702" unicode="V" /><glyph d="M472 699H640L676 274L842 700H1037L735 0H541L510 417L341 0H150L71 700H272L299 277Z" glyph-name="W" horiz-adv-x="979" unicode="W" /><glyph d="M71 0ZM586 909H781L780 902L626 768H480L481 773ZM472 699H640L676 274L842 700H1037L735 0H541L510 417L341 0H150L71 700H272L299 277Z" glyph-name="Wacute" horiz-adv-x="979" unicode="&#7810;" /><glyph d="M71 0ZM572 820 507 768H364L365 772L509 909H661L761 772L760 768H620ZM472 699H640L676 274L842 700H1037L735 0H541L510 417L341 0H150L71 700H272L299 277Z" glyph-name="Wcircumflex" horiz-adv-x="979" unicode="&#372;" /><glyph d="M71 0ZM677 763Q635 763 614.5 779Q594 795 594 831Q594 882 622 906Q650 930 698 930Q739 930 760.5 913.5Q782 897 782 862Q782 810 753.5 786.5Q725 763 677 763ZM451 763Q409 763 388.5 779.5Q368 796 368 832Q368 883 396 906.5Q424 930 472 930Q555 930 555 863Q555 810 527 786.5Q499 763 451 763ZM472 699H640L676 274L842 700H1037L735 0H541L510 417L341 0H150L71 700H272L299 277Z" glyph-name="Wdieresis" horiz-adv-x="979" unicode="&#7812;" /><glyph d="M71 0ZM472 699H640L676 274L842 700H1037L735 0H541L510 417L341 0H150L71 700H272L299 277ZM498 768 385 902 386 909H587L645 773V768Z" glyph-name="Wgrave" horiz-adv-x="979" unicode="&#7808;" /><glyph d="M433 0 340 215 180 0H-36L249 353L85 700H313L396 482L546 700H762L485 356L661 0Z" glyph-name="X" horiz-adv-x="712" unicode="X" /><glyph d="M238 251 62 700H278L367 426L541 700H753L433 245L395 0H198Z" glyph-name="Y" horiz-adv-x="686" unicode="Y" /><glyph d="M62 0ZM238 251 62 700H278L367 426L541 700H753L433 245L395 0H198ZM439 910H634L633 903L479 769H333L334 774Z" glyph-name="Yacute" horiz-adv-x="686" unicode="&#221;" /><glyph d="M62 0ZM238 251 62 700H278L367 426L541 700H753L433 245L395 0H198ZM425 820 360 768H217L218 772L362 909H514L614 772L613 768H473Z" glyph-name="Ycircumflex" horiz-adv-x="686" unicode="&#374;" /><glyph d="M62 0ZM238 251 62 700H278L367 426L541 700H753L433 245L395 0H198ZM530 764Q488 764 467.5 780Q447 796 447 832Q447 883 475 907Q503 931 551 931Q592 931 613.5 914.5Q635 898 635 863Q635 811 606.5 787.5Q578 764 530 764ZM304 764Q262 764 241.5 780.5Q221 797 221 833Q221 884 249 907.5Q277 931 325 931Q408 931 408 864Q408 811 380 787.5Q352 764 304 764Z" glyph-name="Ydieresis" horiz-adv-x="686" unicode="&#376;" /><glyph d="M-19 0 1 120 392 543 77 539 103 700H659L641 582L249 157L584 161L558 0Z" glyph-name="Z" horiz-adv-x="623" unicode="Z" /><glyph d="M0 0ZM409 910H604L603 903L449 769H303L304 774ZM-19 0 1 120 392 543 77 539 103 700H659L641 582L249 157L584 161L558 0Z" glyph-name="Zacute" horiz-adv-x="623" unicode="&#377;" /><glyph d="M0 0ZM310 769 210 907 211 910H352L399 858L464 910H607L606 907L462 769ZM-19 0 1 120 392 543 77 539 103 700H659L641 582L249 157L584 161L558 0Z" glyph-name="Zcaron" horiz-adv-x="623" unicode="&#381;" /><glyph d="M0 0ZM-19 0 1 120 392 543 77 539 103 700H659L641 582L249 157L584 161L558 0ZM388 763Q299 763 299 832Q299 885 329.5 908.5Q360 932 409 932Q452 932 475 915Q498 898 498 861Q498 810 468 786.5Q438 763 388 763Z" glyph-name="Zdotaccent" horiz-adv-x="623" unicode="&#379;" /><glyph d="M233 101Q271 101 297.5 126.5Q324 152 331 205H267Q229 205 205.5 189.5Q182 174 182 144Q182 122 195.5 111.5Q209 101 233 101ZM324 65Q295 28 252 7Q209 -14 153 -14Q87 -14 48.5 18.5Q10 51 10 111Q10 160 29.5 196.5Q49 233 82 257Q115 281 159.5 293Q204 305 254 305H347Q348 327 342.5 341Q337 355 325.5 362.5Q314 370 297.5 372.5Q281 375 260 375Q217 375 179 361Q141 347 113 321L55 428Q100 474 164.5 495Q229 516 307 516Q355 516 396.5 507Q438 498 469 477.5Q500 457 517.5 424.5Q535 392 535 345Q535 334 534 322.5Q533 311 531 297L484 0H325Z" glyph-name="a" horiz-adv-x="575" unicode="a" /><glyph d="M387 250Q389 261 390 272Q391 283 391 291Q391 337 371 356Q351 375 319 375Q281 375 254 346Q227 317 216 249Q214 238 213 227Q212 216 212 208Q212 128 280 128Q319 128 348.5 157.5Q378 187 387 250ZM210 -15Q127 -15 78.5 35Q30 85 30 185Q30 199 31 213Q32 227 34 243Q43 313 65 364.5Q87 416 120 450Q153 484 195 500Q237 516 285 516Q341 516 379.5 494.5Q418 473 435 428L461 502H614L534 0H376V67Q345 26 303 5.5Q261 -15 210 -15Z" glyph-name="a.school" horiz-adv-x="633" /><glyph d="M10 0ZM233 101Q271 101 297.5 126.5Q324 152 331 205H267Q229 205 205.5 189.5Q182 174 182 144Q182 122 195.5 111.5Q209 101 233 101ZM324 65Q295 28 252 7Q209 -14 153 -14Q87 -14 48.5 18.5Q10 51 10 111Q10 160 29.5 196.5Q49 233 82 257Q115 281 159.5 293Q204 305 254 305H347Q348 327 342.5 341Q337 355 325.5 362.5Q314 370 297.5 372.5Q281 375 260 375Q217 375 179 361Q141 347 113 321L55 428Q100 474 164.5 495Q229 516 307 516Q355 516 396.5 507Q438 498 469 477.5Q500 457 517.5 424.5Q535 392 535 345Q535 334 534 322.5Q533 311 531 297L484 0H325ZM350 711H545L544 704L390 570H244L245 575Z" glyph-name="aacute" horiz-adv-x="575" unicode="&#225;" /><glyph d="M30 0ZM387 250Q389 261 390 272Q391 283 391 291Q391 337 371 356Q351 375 319 375Q281 375 254 346Q227 317 216 249Q214 238 213 227Q212 216 212 208Q212 128 280 128Q319 128 348.5 157.5Q378 187 387 250ZM210 -15Q127 -15 78.5 35Q30 85 30 185Q30 199 31 213Q32 227 34 243Q43 313 65 364.5Q87 416 120 450Q153 484 195 500Q237 516 285 516Q341 516 379.5 494.5Q418 473 435 428L461 502H614L534 0H376V67Q345 26 303 5.5Q261 -15 210 -15ZM366 711H561L560 704L406 570H260L261 575Z" glyph-name="aacute.school" horiz-adv-x="633" /><glyph d="M10 0ZM233 101Q271 101 297.5 126.5Q324 152 331 205H267Q229 205 205.5 189.5Q182 174 182 144Q182 122 195.5 111.5Q209 101 233 101ZM324 65Q295 28 252 7Q209 -14 153 -14Q87 -14 48.5 18.5Q10 51 10 111Q10 160 29.5 196.5Q49 233 82 257Q115 281 159.5 293Q204 305 254 305H347Q348 327 342.5 341Q337 355 325.5 362.5Q314 370 297.5 372.5Q281 375 260 375Q217 375 179 361Q141 347 113 321L55 428Q100 474 164.5 495Q229 516 307 516Q355 516 396.5 507Q438 498 469 477.5Q500 457 517.5 424.5Q535 392 535 345Q535 334 534 322.5Q533 311 531 297L484 0H325ZM407 710H518Q512 668 496 639.5Q480 611 454.5 593.5Q429 576 394 569Q359 562 316 562Q273 562 240 569Q207 576 186 593.5Q165 611 156.5 639.5Q148 668 154 710H263Q258 675 273 663Q288 651 325 651Q362 651 381.5 663Q401 675 407 710Z" glyph-name="abreve" horiz-adv-x="575" unicode="&#259;" /><glyph d="M30 0ZM387 250Q389 261 390 272Q391 283 391 291Q391 337 371 356Q351 375 319 375Q281 375 254 346Q227 317 216 249Q214 238 213 227Q212 216 212 208Q212 128 280 128Q319 128 348.5 157.5Q378 187 387 250ZM210 -15Q127 -15 78.5 35Q30 85 30 185Q30 199 31 213Q32 227 34 243Q43 313 65 364.5Q87 416 120 450Q153 484 195 500Q237 516 285 516Q341 516 379.5 494.5Q418 473 435 428L461 502H614L534 0H376V67Q345 26 303 5.5Q261 -15 210 -15ZM435 710H546Q540 668 524 639.5Q508 611 482.5 593.5Q457 576 422 569Q387 562 344 562Q301 562 268 569Q235 576 214 593.5Q193 611 184.5 639.5Q176 668 182 710H291Q286 675 301 663Q316 651 353 651Q390 651 409.5 663Q429 675 435 710Z" glyph-name="abreve.school" horiz-adv-x="633" /><glyph d="M10 0ZM233 101Q271 101 297.5 126.5Q324 152 331 205H267Q229 205 205.5 189.5Q182 174 182 144Q182 122 195.5 111.5Q209 101 233 101ZM324 65Q295 28 252 7Q209 -14 153 -14Q87 -14 48.5 18.5Q10 51 10 111Q10 160 29.5 196.5Q49 233 82 257Q115 281 159.5 293Q204 305 254 305H347Q348 327 342.5 341Q337 355 325.5 362.5Q314 370 297.5 372.5Q281 375 260 375Q217 375 179 361Q141 347 113 321L55 428Q100 474 164.5 495Q229 516 307 516Q355 516 396.5 507Q438 498 469 477.5Q500 457 517.5 424.5Q535 392 535 345Q535 334 534 322.5Q533 311 531 297L484 0H325ZM322 622 257 570H114L115 574L259 711H411L511 574L510 570H370Z" glyph-name="acircumflex" horiz-adv-x="575" unicode="&#226;" /><glyph d="M30 0ZM352 622 287 570H144L145 574L289 711H441L541 574L540 570H400ZM387 250Q389 261 390 272Q391 283 391 291Q391 337 371 356Q351 375 319 375Q281 375 254 346Q227 317 216 249Q214 238 213 227Q212 216 212 208Q212 128 280 128Q319 128 348.5 157.5Q378 187 387 250ZM210 -15Q127 -15 78.5 35Q30 85 30 185Q30 199 31 213Q32 227 34 243Q43 313 65 364.5Q87 416 120 450Q153 484 195 500Q237 516 285 516Q341 516 379.5 494.5Q418 473 435 428L461 502H614L534 0H376V67Q345 26 303 5.5Q261 -15 210 -15Z" glyph-name="acircumflex.school" horiz-adv-x="633" /><glyph d="M277 711H472L471 704L317 570H171L172 575Z" glyph-name="acute" horiz-adv-x="600" unicode="&#180;" /><glyph d="M10 0ZM233 101Q271 101 297.5 126.5Q324 152 331 205H267Q229 205 205.5 189.5Q182 174 182 144Q182 122 195.5 111.5Q209 101 233 101ZM324 65Q295 28 252 7Q209 -14 153 -14Q87 -14 48.5 18.5Q10 51 10 111Q10 160 29.5 196.5Q49 233 82 257Q115 281 159.5 293Q204 305 254 305H347Q348 327 342.5 341Q337 355 325.5 362.5Q314 370 297.5 372.5Q281 375 260 375Q217 375 179 361Q141 347 113 321L55 428Q100 474 164.5 495Q229 516 307 516Q355 516 396.5 507Q438 498 469 477.5Q500 457 517.5 424.5Q535 392 535 345Q535 334 534 322.5Q533 311 531 297L484 0H325ZM426 565Q384 565 363.5 581Q343 597 343 633Q343 684 371 708Q399 732 447 732Q488 732 509.5 715.5Q531 699 531 664Q531 612 502.5 588.5Q474 565 426 565ZM200 565Q158 565 137.5 581.5Q117 598 117 634Q117 685 145 708.5Q173 732 221 732Q304 732 304 665Q304 612 276 588.5Q248 565 200 565Z" glyph-name="adieresis" horiz-adv-x="575" unicode="&#228;" /><glyph d="M30 0ZM457 565Q415 565 394.5 581Q374 597 374 633Q374 684 402 708Q430 732 478 732Q519 732 540.5 715.5Q562 699 562 664Q562 612 533.5 588.5Q505 565 457 565ZM231 565Q189 565 168.5 581.5Q148 598 148 634Q148 685 176 708.5Q204 732 252 732Q335 732 335 665Q335 612 307 588.5Q279 565 231 565ZM387 250Q389 261 390 272Q391 283 391 291Q391 337 371 356Q351 375 319 375Q281 375 254 346Q227 317 216 249Q214 238 213 227Q212 216 212 208Q212 128 280 128Q319 128 348.5 157.5Q378 187 387 250ZM210 -15Q127 -15 78.5 35Q30 85 30 185Q30 199 31 213Q32 227 34 243Q43 313 65 364.5Q87 416 120 450Q153 484 195 500Q237 516 285 516Q341 516 379.5 494.5Q418 473 435 428L461 502H614L534 0H376V67Q345 26 303 5.5Q261 -15 210 -15Z" glyph-name="adieresis.school" horiz-adv-x="633" /><glyph d="M579 -15Q510 -15 460.5 7.5Q411 30 384 76Q346 31 290 8.5Q234 -14 164 -14Q131 -14 103 -6Q75 2 54.5 18Q34 34 22.5 57.5Q11 81 11 111Q11 159 30 195Q49 231 82 255.5Q115 280 159 292Q203 304 253 304H346Q348 348 324 361.5Q300 375 259 375Q216 375 178 361Q140 347 112 321L55 428Q100 474 164 495Q228 516 306 516Q360 516 400 502Q440 488 464 458Q536 516 649 516Q702 516 740.5 500.5Q779 485 803.5 457Q828 429 840 391Q852 353 852 308Q852 282 849 257Q846 232 838 203H518Q517 155 540 133.5Q563 112 607 112Q643 112 666.5 124.5Q690 137 710 165L812 94Q774 40 718 12.5Q662 -15 579 -15ZM234 101Q272 101 296.5 125.5Q321 150 329 203H266Q228 203 205.5 188Q183 173 183 144Q183 101 234 101ZM629 385Q596 385 570.5 365.5Q545 346 534 304H690Q691 309 691 313V321Q691 351 675 368Q659 385 629 385Z" glyph-name="ae" horiz-adv-x="880" unicode="&#230;" /><glyph d="M10 0ZM233 101Q271 101 297.5 126.5Q324 152 331 205H267Q229 205 205.5 189.5Q182 174 182 144Q182 122 195.5 111.5Q209 101 233 101ZM324 65Q295 28 252 7Q209 -14 153 -14Q87 -14 48.5 18.5Q10 51 10 111Q10 160 29.5 196.5Q49 233 82 257Q115 281 159.5 293Q204 305 254 305H347Q348 327 342.5 341Q337 355 325.5 362.5Q314 370 297.5 372.5Q281 375 260 375Q217 375 179 361Q141 347 113 321L55 428Q100 474 164.5 495Q229 516 307 516Q355 516 396.5 507Q438 498 469 477.5Q500 457 517.5 424.5Q535 392 535 345Q535 334 534 322.5Q533 311 531 297L484 0H325ZM262 570 149 704 150 711H351L409 575V570Z" glyph-name="agrave" horiz-adv-x="575" unicode="&#224;" /><glyph d="M30 0ZM387 250Q389 261 390 272Q391 283 391 291Q391 337 371 356Q351 375 319 375Q281 375 254 346Q227 317 216 249Q214 238 213 227Q212 216 212 208Q212 128 280 128Q319 128 348.5 157.5Q378 187 387 250ZM210 -15Q127 -15 78.5 35Q30 85 30 185Q30 199 31 213Q32 227 34 243Q43 313 65 364.5Q87 416 120 450Q153 484 195 500Q237 516 285 516Q341 516 379.5 494.5Q418 473 435 428L461 502H614L534 0H376V67Q345 26 303 5.5Q261 -15 210 -15ZM278 570 165 704 166 711H367L425 575V570Z" glyph-name="agrave.school" horiz-adv-x="633" /><glyph d="M10 0ZM233 101Q271 101 297.5 126.5Q324 152 331 205H267Q229 205 205.5 189.5Q182 174 182 144Q182 122 195.5 111.5Q209 101 233 101ZM324 65Q295 28 252 7Q209 -14 153 -14Q87 -14 48.5 18.5Q10 51 10 111Q10 160 29.5 196.5Q49 233 82 257Q115 281 159.5 293Q204 305 254 305H347Q348 327 342.5 341Q337 355 325.5 362.5Q314 370 297.5 372.5Q281 375 260 375Q217 375 179 361Q141 347 113 321L55 428Q100 474 164.5 495Q229 516 307 516Q355 516 396.5 507Q438 498 469 477.5Q500 457 517.5 424.5Q535 392 535 345Q535 334 534 322.5Q533 311 531 297L484 0H325ZM499 685 482 584H181L197 685Z" glyph-name="amacron" horiz-adv-x="575" unicode="&#257;" /><glyph d="M30 0ZM387 250Q389 261 390 272Q391 283 391 291Q391 337 371 356Q351 375 319 375Q281 375 254 346Q227 317 216 249Q214 238 213 227Q212 216 212 208Q212 128 280 128Q319 128 348.5 157.5Q378 187 387 250ZM210 -15Q127 -15 78.5 35Q30 85 30 185Q30 199 31 213Q32 227 34 243Q43 313 65 364.5Q87 416 120 450Q153 484 195 500Q237 516 285 516Q341 516 379.5 494.5Q418 473 435 428L461 502H614L534 0H376V67Q345 26 303 5.5Q261 -15 210 -15ZM515 685 498 584H197L213 685Z" glyph-name="amacron.school" horiz-adv-x="633" /><glyph d="M583 487H732Q705 284 608 157Q625 144 644.5 131Q664 118 684 104L581 -23Q576 -20 561.5 -9.5Q547 1 530.5 12Q514 23 500 33L482 47Q383 -15 245 -15Q191 -15 147 -5Q103 5 72 26.5Q41 48 24 81.5Q7 115 7 162Q7 201 19.5 232.5Q32 264 52.5 289.5Q73 315 100.5 336.5Q128 358 158 376Q136 418 127 454Q118 490 118 523Q118 613 182.5 664Q247 715 362 715Q451 715 493.5 680.5Q536 646 536 577Q536 504 490.5 449Q445 394 370 349Q393 325 423 298Q453 271 493 240Q560 333 583 487ZM269 114Q320 114 364 140Q321 177 288.5 210Q256 243 230 275Q204 258 186 236.5Q168 215 168 185Q168 150 194.5 132Q221 114 269 114ZM266 521Q266 506 271 486.5Q276 467 290 444Q338 471 362 494.5Q386 518 386 548Q386 591 337 591Q302 591 284 572Q266 553 266 521Z" glyph-name="ampersand" horiz-adv-x="726" unicode="&amp;" /><glyph d="M512 -209Q463 -238 403 -238Q377 -238 351.5 -232Q326 -226 306.5 -212.5Q287 -199 275 -176.5Q263 -154 263 -121Q263 -79 279.5 -46Q296 -13 325 10L324 65Q295 28 252 7Q209 -14 153 -14Q87 -14 48.5 18.5Q10 51 10 111Q10 160 29.5 196.5Q49 233 82 257Q115 281 159.5 293Q204 305 254 305H347Q348 327 342.5 341Q337 355 325.5 362.5Q314 370 297.5 372.5Q281 375 260 375Q217 375 179 361Q141 347 113 321L55 428Q100 474 164.5 495Q229 516 307 516Q355 516 396.5 507Q438 498 469 477.5Q500 457 517.5 424.5Q535 392 535 345Q535 334 534 322.5Q533 311 531 297L484 0H468Q419 -4 395 -31Q371 -58 371 -87Q371 -116 388 -126Q405 -136 428 -136Q464 -136 497 -119ZM233 101Q271 101 297.5 126.5Q324 152 331 205H267Q229 205 205.5 189.5Q182 174 182 144Q182 122 195.5 111.5Q209 101 233 101Z" glyph-name="aogonek" horiz-adv-x="575" unicode="&#261;" /><glyph d="M450 -238Q422 -238 395.5 -231.5Q369 -225 349 -209.5Q329 -194 319 -168.5Q309 -143 314 -105Q318 -69 335 -41Q352 -13 376 6V67Q345 26 303 5.5Q261 -15 210 -15Q127 -15 78.5 35Q30 85 30 185Q30 199 31 213Q32 227 34 243Q43 313 65 364.5Q87 416 120 450Q153 484 195 500Q237 516 285 516Q341 516 379.5 494.5Q418 473 435 428L461 502H614L534 0H532Q503 -2 482.5 -10Q462 -18 449.5 -30Q437 -42 430.5 -57Q424 -72 422 -87Q419 -114 436.5 -125Q454 -136 477 -136Q494 -136 512 -132Q530 -128 547 -119L559 -209Q510 -238 450 -238ZM387 250Q389 261 390 272Q391 283 391 291Q391 337 371 356Q351 375 319 375Q281 375 254 346Q227 317 216 249Q214 238 213 227Q212 216 212 208Q212 128 280 128Q319 128 348.5 157.5Q378 187 387 250Z" glyph-name="aogonek.school" horiz-adv-x="633" /><glyph d="M365 415Q385 415 417.5 421Q450 427 478 444L462 340Q437 327 403.5 320.5Q370 314 341 314Q315 314 294 319.5Q273 325 254 331Q235 337 215 342.5Q195 348 171 348Q150 348 117.5 342.5Q85 337 55 320L71 424Q96 437 128.5 443Q161 449 190 449Q217 449 238.5 443.5Q260 438 279.5 432Q299 426 319.5 420.5Q340 415 365 415ZM341 262Q361 262 393.5 268Q426 274 454 291L438 188Q413 175 379.5 168.5Q346 162 317 162Q291 162 270.5 167.5Q250 173 230.5 179Q211 185 191.5 190.5Q172 196 147 196Q126 196 93 190.5Q60 185 31 168L47 271Q72 284 104.5 290Q137 296 166 296Q193 296 214.5 290.5Q236 285 255.5 279Q275 273 295.5 267.5Q316 262 341 262Z" glyph-name="approxequal" horiz-adv-x="510" unicode="&#8776;" /><glyph d="M10 0ZM233 101Q271 101 297.5 126.5Q324 152 331 205H267Q229 205 205.5 189.5Q182 174 182 144Q182 122 195.5 111.5Q209 101 233 101ZM324 65Q295 28 252 7Q209 -14 153 -14Q87 -14 48.5 18.5Q10 51 10 111Q10 160 29.5 196.5Q49 233 82 257Q115 281 159.5 293Q204 305 254 305H347Q348 327 342.5 341Q337 355 325.5 362.5Q314 370 297.5 372.5Q281 375 260 375Q217 375 179 361Q141 347 113 321L55 428Q100 474 164.5 495Q229 516 307 516Q355 516 396.5 507Q438 498 469 477.5Q500 457 517.5 424.5Q535 392 535 345Q535 334 534 322.5Q533 311 531 297L484 0H325ZM328 550Q283 550 250.5 573Q218 596 218 644Q218 673 228 696Q238 719 256 734.5Q274 750 298.5 758.5Q323 767 351 767Q402 767 431.5 742.5Q461 718 461 674Q461 615 423.5 582.5Q386 550 328 550ZM346 700Q325 700 311 687Q297 674 297 650Q297 633 306.5 624.5Q316 616 333 616Q353 616 367.5 629Q382 642 382 667Q382 683 372.5 691.5Q363 700 346 700Z" glyph-name="aring" horiz-adv-x="575" unicode="&#229;" /><glyph d="M30 0ZM387 250Q389 261 390 272Q391 283 391 291Q391 337 371 356Q351 375 319 375Q281 375 254 346Q227 317 216 249Q214 238 213 227Q212 216 212 208Q212 128 280 128Q319 128 348.5 157.5Q378 187 387 250ZM210 -15Q127 -15 78.5 35Q30 85 30 185Q30 199 31 213Q32 227 34 243Q43 313 65 364.5Q87 416 120 450Q153 484 195 500Q237 516 285 516Q341 516 379.5 494.5Q418 473 435 428L461 502H614L534 0H376V67Q345 26 303 5.5Q261 -15 210 -15ZM344 550Q299 550 266.5 573Q234 596 234 644Q234 673 244 696Q254 719 272 734.5Q290 750 314.5 758.5Q339 767 367 767Q418 767 447.5 742.5Q477 718 477 674Q477 615 439.5 582.5Q402 550 344 550ZM362 700Q341 700 327 687Q313 674 313 650Q313 633 322.5 624.5Q332 616 349 616Q369 616 383.5 629Q398 642 398 667Q398 683 388.5 691.5Q379 700 362 700Z" glyph-name="aring.school" horiz-adv-x="633" /><glyph d="M26 361 225 700H398L488 361V357H341L292 569L176 357H26Z" glyph-name="asciicircum" horiz-adv-x="503" unicode="^" /><glyph d="M427 430 553 409Q539 324 493 281.5Q447 239 381 239Q352 239 327.5 247Q303 255 281.5 264Q260 273 240 281Q220 289 199 289Q179 289 167 277.5Q155 266 150 239L25 260Q39 345 85 387.5Q131 430 196 430Q225 430 249.5 422Q274 414 296 405Q318 396 338 388Q358 380 379 380Q399 380 410.5 391.5Q422 403 427 430Z" glyph-name="asciitilde" horiz-adv-x="568" unicode="~" /><glyph d="M162 313 68 402 142 479 58 504 113 635 202 604 213 715H363L339 604L438 635L451 502L359 479L409 402L285 313L238 402Z" glyph-name="asterisk" horiz-adv-x="454" unicode="*" /><glyph d="M632 -7Q580 -55 511 -81.5Q442 -108 356 -108Q282 -108 225.5 -88Q169 -68 130.5 -31Q92 6 72 59Q52 112 52 177Q52 269 81 345Q110 421 163 476Q216 531 290 561Q364 591 454 591Q524 591 578 572Q632 553 668.5 518.5Q705 484 724 434Q743 384 743 323Q743 205 688.5 139.5Q634 74 538 74Q463 74 444 127Q424 99 392.5 83Q361 67 320 67Q272 67 244 89Q216 111 216 153Q216 186 229.5 211Q243 236 266.5 252Q290 268 320.5 276Q351 284 384 284H443V290Q443 316 426.5 323.5Q410 331 385 331Q325 331 287 295L250 367Q313 428 418 428Q450 428 477.5 422Q505 416 525 402Q545 388 556.5 365.5Q568 343 568 310Q568 296 565 278L553 198Q552 194 550.5 185.5Q549 177 549 172Q549 139 584 139Q604 139 622 150Q640 161 654 183.5Q668 206 676 240Q684 274 684 320Q684 375 667 415.5Q650 456 619.5 483Q589 510 546 523Q503 536 451 536Q383 536 321.5 514Q260 492 213 447Q166 402 138 334.5Q110 267 110 176Q110 118 128 75Q146 32 178.5 4Q211 -24 256.5 -37.5Q302 -51 358 -51Q427 -51 487.5 -30Q548 -9 595 35ZM363 145Q421 145 433 215H385Q358 215 343 205Q328 195 328 172Q328 145 363 145Z" glyph-name="at" horiz-adv-x="797" unicode="@" /><glyph d="M69 0ZM649 101Q597 53 528 26.5Q459 0 373 0Q299 0 242.5 20Q186 40 147.5 77Q109 114 89 167Q69 220 69 285Q69 377 98 453Q127 529 180 584Q233 639 307 669Q381 699 471 699Q541 699 595 680Q649 661 685.5 626.5Q722 592 741 542Q760 492 760 431Q760 313 705.5 247.5Q651 182 555 182Q480 182 461 235Q441 207 409.5 191Q378 175 337 175Q289 175 261 197Q233 219 233 261Q233 294 246.5 319Q260 344 283.5 360Q307 376 337.5 384Q368 392 401 392H460V398Q460 424 443.5 431.5Q427 439 402 439Q342 439 304 403L267 475Q330 536 435 536Q467 536 494.5 530Q522 524 542 510Q562 496 573.5 473.5Q585 451 585 418Q585 404 582 386L570 306Q569 302 567.5 293.5Q566 285 566 280Q566 247 601 247Q621 247 639 258Q657 269 671 291.5Q685 314 693 348Q701 382 701 428Q701 483 684 523.5Q667 564 636.5 591Q606 618 563 631Q520 644 468 644Q400 644 338.5 622Q277 600 230 555Q183 510 155 442.5Q127 375 127 284Q127 226 145 183Q163 140 195.5 112Q228 84 273.5 70.5Q319 57 375 57Q444 57 504.5 78Q565 99 612 143ZM380 253Q438 253 450 323H402Q375 323 360 313Q345 303 345 280Q345 253 380 253Z" glyph-name="at.cap" horiz-adv-x="795" /><glyph d="M10 0ZM233 101Q271 101 297.5 126.5Q324 152 331 205H267Q229 205 205.5 189.5Q182 174 182 144Q182 122 195.5 111.5Q209 101 233 101ZM324 65Q295 28 252 7Q209 -14 153 -14Q87 -14 48.5 18.5Q10 51 10 111Q10 160 29.5 196.5Q49 233 82 257Q115 281 159.5 293Q204 305 254 305H347Q348 327 342.5 341Q337 355 325.5 362.5Q314 370 297.5 372.5Q281 375 260 375Q217 375 179 361Q141 347 113 321L55 428Q100 474 164.5 495Q229 516 307 516Q355 516 396.5 507Q438 498 469 477.5Q500 457 517.5 424.5Q535 392 535 345Q535 334 534 322.5Q533 311 531 297L484 0H325ZM431 708H536Q534 670 522 644.5Q510 619 492 603.5Q474 588 453 581.5Q432 575 412 575Q389 575 370 580Q351 585 335.5 590.5Q320 596 305.5 601Q291 606 277 606Q260 606 253.5 595.5Q247 585 245 574H138Q140 612 152 637.5Q164 663 181.5 678.5Q199 694 220.5 700.5Q242 707 262 707Q285 707 304 702Q323 697 339.5 691.5Q356 686 370.5 681Q385 676 400 676Q417 676 423 685.5Q429 695 431 708Z" glyph-name="atilde" horiz-adv-x="575" unicode="&#227;" /><glyph d="M30 0ZM387 250Q389 261 390 272Q391 283 391 291Q391 337 371 356Q351 375 319 375Q281 375 254 346Q227 317 216 249Q214 238 213 227Q212 216 212 208Q212 128 280 128Q319 128 348.5 157.5Q378 187 387 250ZM210 -15Q127 -15 78.5 35Q30 85 30 185Q30 199 31 213Q32 227 34 243Q43 313 65 364.5Q87 416 120 450Q153 484 195 500Q237 516 285 516Q341 516 379.5 494.5Q418 473 435 428L461 502H614L534 0H376V67Q345 26 303 5.5Q261 -15 210 -15ZM447 708H552Q550 670 538 644.5Q526 619 508 603.5Q490 588 469 581.5Q448 575 428 575Q405 575 386 580Q367 585 351.5 590.5Q336 596 321.5 601Q307 606 293 606Q276 606 269.5 595.5Q263 585 261 574H154Q156 612 168 637.5Q180 663 197.5 678.5Q215 694 236.5 700.5Q258 707 278 707Q301 707 320 702Q339 697 355.5 691.5Q372 686 386.5 681Q401 676 416 676Q433 676 439 685.5Q445 695 447 708Z" glyph-name="atilde.school" horiz-adv-x="633" /><glyph d="M316 700 275 445Q307 483 347 499.5Q387 516 432 516Q511 516 555.5 467Q600 418 600 321Q600 307 599 292.5Q598 278 596 261Q588 199 567.5 148.5Q547 98 514.5 61.5Q482 25 438 5Q394 -15 339 -15Q280 -15 240 8Q200 31 180 73L157 0H16L126 700ZM241 247Q239 236 238 226.5Q237 217 237 208Q237 166 256 145.5Q275 125 307 125Q393 125 413 248Q415 260 416 270Q417 280 417 289Q417 334 398 353.5Q379 373 347 373Q308 373 280 344Q252 315 241 247Z" glyph-name="b" horiz-adv-x="630" unicode="b" /><glyph d="M315 0 61 700H269L524 0Z" glyph-name="backslash" horiz-adv-x="586" unicode="\" /><glyph d="M23 -65 153 766H325L194 -65Z" glyph-name="bar" horiz-adv-x="318" unicode="|" /><glyph d="M286 -166Q241 -165 204 -155Q167 -145 140.5 -126Q114 -107 99 -80Q84 -53 84 -17Q84 4 88 25Q92 46 97 67Q102 88 106 107.5Q110 127 110 145Q110 181 86.5 196.5Q63 212 16 212H0L19 350H44Q104 350 130 373.5Q156 397 163 438Q168 467 168 498Q168 529 173 559Q187 642 251.5 683.5Q316 725 416 728L421 576Q332 573 318 494Q314 471 313.5 441.5Q313 412 309 391Q296 320 211 280Q275 246 275 187Q275 170 271 152.5Q267 135 262 117.5Q257 100 253 83Q249 66 249 49Q249 14 270.5 1Q292 -12 328 -14Z" glyph-name="braceleft" horiz-adv-x="389" unicode="{" /><glyph d="M102 729Q147 727 184 717.5Q221 708 247.5 689Q274 670 289 643Q304 616 304 580Q304 559 300 538Q296 517 291 496Q286 475 282 455.5Q278 436 278 418Q278 382 301.5 366.5Q325 351 372 351H388L369 213H344Q284 213 258 189.5Q232 166 225 125Q220 96 220 65Q220 34 215 4Q201 -79 136.5 -120.5Q72 -162 -28 -165L-33 -13Q56 -10 70 69Q74 92 74.5 121.5Q75 151 79 172Q92 243 177 283Q113 317 113 376Q113 393 117 410.5Q121 428 126 445.5Q131 463 135 480Q139 497 139 514Q139 549 117.5 562Q96 575 60 577Z" glyph-name="braceright" horiz-adv-x="389" unicode="}" /><glyph d="M-8 -170 133 719H414L392 582H283L186 -32H295L274 -170Z" glyph-name="bracketleft" horiz-adv-x="360" unicode="[" /><glyph d="M376 719 235 -170H-46L-24 -33H85L182 581H73L94 719Z" glyph-name="bracketright" horiz-adv-x="360" unicode="]" /><glyph d="M384 710H495Q489 668 473 639.5Q457 611 431.5 593.5Q406 576 371 569Q336 562 293 562Q250 562 217 569Q184 576 163 593.5Q142 611 133.5 639.5Q125 668 131 710H240Q235 675 250 663Q265 651 302 651Q339 651 358.5 663Q378 675 384 710Z" glyph-name="breve" horiz-adv-x="600" unicode="&#728;" /><glyph d="M94 381 155 766H327L266 381ZM25 -65 85 320H256L196 -65Z" glyph-name="brokenbar" horiz-adv-x="318" unicode="&#166;" /><glyph d="M206 158Q133 158 93 197.5Q53 237 53 303Q53 346 66.5 382Q80 418 104.5 443Q129 468 163.5 482Q198 496 239 496Q313 496 353 456.5Q393 417 393 351Q393 308 379.5 272.5Q366 237 341 211.5Q316 186 282 172Q248 158 206 158Z" glyph-name="bullet" horiz-adv-x="422" unicode="&#8226;" /><glyph d="M384 183 501 100Q460 43 400 14Q340 -15 256 -15Q204 -15 162 -3Q120 9 91 34.5Q62 60 46 99.5Q30 139 30 194Q30 207 31 221Q32 235 34 250Q52 387 129.5 451.5Q207 516 332 516Q413 516 465 485.5Q517 455 539 387L398 306Q387 338 370 351Q353 364 321 364Q279 364 252.5 339Q226 314 215 249Q213 238 212 227.5Q211 217 211 207Q211 169 228.5 148.5Q246 128 288 128Q355 128 384 183Z" glyph-name="c" horiz-adv-x="534" unicode="c" /><glyph d="M30 0ZM371 711H566L565 704L411 570H265L266 575ZM384 183 501 100Q460 43 400 14Q340 -15 256 -15Q204 -15 162 -3Q120 9 91 34.5Q62 60 46 99.5Q30 139 30 194Q30 207 31 221Q32 235 34 250Q52 387 129.5 451.5Q207 516 332 516Q413 516 465 485.5Q517 455 539 387L398 306Q387 338 370 351Q353 364 321 364Q279 364 252.5 339Q226 314 215 249Q213 238 212 227.5Q211 217 211 207Q211 169 228.5 148.5Q246 128 288 128Q355 128 384 183Z" glyph-name="cacute" horiz-adv-x="534" unicode="&#263;" /><glyph d="M211 570 111 708 112 711H253L300 659L365 711H508L507 708L363 570Z" glyph-name="caron" horiz-adv-x="600" unicode="&#711;" /><glyph d="M359 421H238L289 700H437Z" glyph-name="caronSlovak" horiz-adv-x="600" /><glyph d="M30 0ZM272 570 172 708 173 711H314L361 659L426 711H569L568 708L424 570ZM384 183 501 100Q460 43 400 14Q340 -15 256 -15Q204 -15 162 -3Q120 9 91 34.5Q62 60 46 99.5Q30 139 30 194Q30 207 31 221Q32 235 34 250Q52 387 129.5 451.5Q207 516 332 516Q413 516 465 485.5Q517 455 539 387L398 306Q387 338 370 351Q353 364 321 364Q279 364 252.5 339Q226 314 215 249Q213 238 212 227.5Q211 217 211 207Q211 169 228.5 148.5Q246 128 288 128Q355 128 384 183Z" glyph-name="ccaron" horiz-adv-x="534" unicode="&#269;" /><glyph d="M210 -258Q162 -258 124 -239.5Q86 -221 68 -183L136 -122Q149 -145 167 -157.5Q185 -170 215 -170Q235 -170 250 -161.5Q265 -153 265 -134Q265 -122 258.5 -115Q252 -108 242.5 -105Q233 -102 221 -102Q209 -102 198 -103L173 -90L212 -13Q127 -3 78.5 46.5Q30 96 30 194Q30 207 31 221Q32 235 34 250Q52 387 129.5 451.5Q207 516 332 516Q413 516 465 485.5Q517 455 539 387L398 306Q387 338 370 351Q353 364 321 364Q279 364 252.5 339Q226 314 215 249Q213 238 212 227.5Q211 217 211 207Q211 169 228.5 148.5Q246 128 288 128Q355 128 384 183L501 100Q432 2 301 -13L281 -46Q318 -51 345.5 -73.5Q373 -96 373 -139Q373 -168 360.5 -190.5Q348 -213 326 -228Q304 -243 274 -250.5Q244 -258 210 -258Z" glyph-name="ccedilla" horiz-adv-x="534" unicode="&#231;" /><glyph d="M30 0ZM356 622 291 570H148L149 574L293 711H445L545 574L544 570H404ZM384 183 501 100Q460 43 400 14Q340 -15 256 -15Q204 -15 162 -3Q120 9 91 34.5Q62 60 46 99.5Q30 139 30 194Q30 207 31 221Q32 235 34 250Q52 387 129.5 451.5Q207 516 332 516Q413 516 465 485.5Q517 455 539 387L398 306Q387 338 370 351Q353 364 321 364Q279 364 252.5 339Q226 314 215 249Q213 238 212 227.5Q211 217 211 207Q211 169 228.5 148.5Q246 128 288 128Q355 128 384 183Z" glyph-name="ccircumflex" horiz-adv-x="534" unicode="&#265;" /><glyph d="M30 0ZM384 183 501 100Q460 43 400 14Q340 -15 256 -15Q204 -15 162 -3Q120 9 91 34.5Q62 60 46 99.5Q30 139 30 194Q30 207 31 221Q32 235 34 250Q52 387 129.5 451.5Q207 516 332 516Q413 516 465 485.5Q517 455 539 387L398 306Q387 338 370 351Q353 364 321 364Q279 364 252.5 339Q226 314 215 249Q213 238 212 227.5Q211 217 211 207Q211 169 228.5 148.5Q246 128 288 128Q355 128 384 183ZM350 565Q261 565 261 634Q261 687 291.5 710.5Q322 734 371 734Q414 734 437 717Q460 700 460 663Q460 612 430 588.5Q400 565 350 565Z" glyph-name="cdotaccent" horiz-adv-x="534" unicode="&#267;" /><glyph d="M293 -103 268 -90 314 0H404L376 -46Q413 -51 440.5 -73.5Q468 -96 468 -139Q468 -168 455.5 -190.5Q443 -213 421 -228Q399 -243 369 -250.5Q339 -258 305 -258Q257 -258 219 -239.5Q181 -221 163 -183L231 -122Q244 -145 262 -157.5Q280 -170 310 -170Q330 -170 345 -161.5Q360 -153 360 -134Q360 -122 353.5 -115Q347 -108 337.5 -105Q328 -102 316 -102Q304 -102 293 -103Z" glyph-name="cedilla" horiz-adv-x="600" unicode="&#184;" /><glyph d="M207 -62 217 3Q132 11 85.5 58.5Q39 106 39 197Q39 208 40 224.5Q41 241 43 258Q51 322 73 369Q95 416 128 447.5Q161 479 204 495.5Q247 512 298 515L308 580H391L380 512Q444 503 480 471.5Q516 440 535 392L408 315Q400 337 389 351.5Q378 366 358 372L322 140Q364 149 387 187L489 106Q455 58 407.5 33.5Q360 9 300 4L290 -62ZM197 218Q197 188 206.5 169Q216 150 239 142L275 371Q246 363 228 336Q210 309 200 258Q197 235 197 218Z" glyph-name="cent" horiz-adv-x="540" unicode="&#162;" /><glyph d="M302 622 237 570H94L95 574L239 711H391L491 574L490 570H350Z" glyph-name="circumflex" horiz-adv-x="600" unicode="&#710;" /><glyph d="M4 0ZM93 -8Q4 -8 4 69Q4 119 31 150Q58 181 117 181Q206 181 206 102Q206 48 175.5 20Q145 -8 93 -8ZM147 314Q58 314 58 391Q58 441 85 472Q112 503 171 503Q260 503 260 424Q260 370 229.5 342Q199 314 147 314Z" glyph-name="colon" horiz-adv-x="265" unicode=":" /><glyph d="M9 -161 -17 -83Q15 -74 41.5 -54.5Q68 -35 79 -7Q45 -4 26 15Q7 34 7 69Q7 125 37.5 152.5Q68 180 120 180Q162 180 186 158.5Q210 137 210 90Q210 50 197 10Q184 -30 159 -64.5Q134 -99 96 -124.5Q58 -150 9 -161Z" glyph-name="comma" horiz-adv-x="265" unicode="," /><glyph d="M219 -351 198 -285Q229 -277 254.5 -259.5Q280 -242 291 -216Q252 -215 230.5 -197.5Q209 -180 209 -148Q209 -99 238.5 -74.5Q268 -50 316 -50Q357 -50 380 -71Q403 -92 403 -134Q403 -176 388 -213.5Q373 -251 347.5 -279.5Q322 -308 289 -327Q256 -346 219 -351Z" glyph-name="commaaccent" horiz-adv-x="600" unicode="&#63171;" /><glyph d="M74 352Q85 431 117 495.5Q149 560 200 606Q251 652 319 677Q387 702 469 702Q542 702 599 682Q656 662 694.5 624.5Q733 587 753 534.5Q773 482 773 417Q773 400 771.5 384.5Q770 369 768 352Q756 273 723.5 208.5Q691 144 640 98.5Q589 53 521 28Q453 3 371 3Q298 3 241.5 23Q185 43 147 79.5Q109 116 89 168Q69 220 69 285Q69 302 70.5 318.5Q72 335 74 352ZM132 352Q126 316 126 285Q126 228 144 185.5Q162 143 194.5 115Q227 87 272.5 73Q318 59 373 59Q436 59 491.5 77Q547 95 591 131.5Q635 168 665 223Q695 278 707 352Q710 370 711 386.5Q712 403 712 419Q712 476 694 519Q676 562 644 590Q612 618 566 632Q520 646 465 646Q402 646 347 628Q292 610 248 573.5Q204 537 174 482Q144 427 132 352ZM402 158Q319 158 274.5 195Q230 232 230 313Q230 336 233 357Q246 462 302.5 510.5Q359 559 457 559Q575 559 607 476L506 407Q498 432 484 441.5Q470 451 447 451Q409 451 388 429Q367 407 359 355Q357 347 356.5 340Q356 333 356 325Q356 292 372 277.5Q388 263 418 263Q442 263 462.5 274Q483 285 494 308L581 253Q552 205 506.5 181.5Q461 158 402 158Z" glyph-name="copyright" horiz-adv-x="810" unicode="&#169;" /><glyph d="M304 478 389 418Q360 377 317 356Q274 335 214 335Q139 335 95 370.5Q51 406 51 485Q51 502 54 525Q68 625 123.5 670Q179 715 268 715Q326 715 363 693Q400 671 416 622L313 564Q305 587 293.5 596Q282 605 260 605Q230 605 211.5 587Q193 569 186 524Q184 515 183.5 508.5Q183 502 183 494Q183 468 195 453.5Q207 439 236 439Q284 439 304 478Z" glyph-name="cordinal" horiz-adv-x="391" /><glyph d="M388 250Q390 258 391 270.5Q392 283 392 291Q392 337 372 356Q352 375 319 375Q281 375 254 346Q227 317 216 249Q212 226 212 208Q212 128 280 128Q320 128 349.5 157.5Q379 187 388 250ZM535 0H377L378 70Q349 29 307 7Q265 -15 208 -15Q127 -15 78.5 35.5Q30 86 30 187Q30 200 31 214Q32 228 34 243Q42 311 64.5 362Q87 413 120 447.5Q153 482 195 499Q237 516 284 516Q330 516 363 499.5Q396 483 416 452L456 700H646Z" glyph-name="d" horiz-adv-x="637" unicode="d" /><glyph d="M294 477H229L193 257H56L91 477H27L47 601H109L125 715H272L251 601H313Z" glyph-name="dagger" horiz-adv-x="320" unicode="&#8224;" /><glyph d="M25 466H90L98 514H33L52 638H114L125 715H272L257 638H318L299 514H235L227 466H292L272 343H210L199 257H52L68 343H6Z" glyph-name="daggerdbl" horiz-adv-x="320" unicode="&#8225;" /><glyph d="M30 0ZM778 421H657L708 700H856ZM388 250Q390 258 391 270.5Q392 283 392 291Q392 337 372 356Q352 375 319 375Q281 375 254 346Q227 317 216 249Q212 226 212 208Q212 128 280 128Q320 128 349.5 157.5Q379 187 388 250ZM535 0H377L378 70Q349 29 307 7Q265 -15 208 -15Q127 -15 78.5 35.5Q30 86 30 187Q30 200 31 214Q32 228 34 243Q42 311 64.5 362Q87 413 120 447.5Q153 482 195 499Q237 516 284 516Q330 516 363 499.5Q396 483 416 452L456 700H646Z" glyph-name="dcaron" horiz-adv-x="793" unicode="&#271;" /><glyph d="M385 249Q389 269 389 287Q389 329 369 348Q349 367 316 367Q275 367 248 339.5Q221 312 210 249Q207 226 207 210Q207 130 278 130Q318 130 346 159.5Q374 189 385 249ZM672 541H618L533 0H375L376 71Q346 30 303.5 7.5Q261 -15 204 -15Q123 -15 76.5 34.5Q30 84 30 183Q30 197 31 211.5Q32 226 34 240Q43 308 65 358Q87 408 119.5 441Q152 474 192.5 490.5Q233 507 280 507Q327 507 359.5 490.5Q392 474 411 443L427 541H310L325 636H442L453 700H644L634 636H688Z" glyph-name="dcroat" horiz-adv-x="649" unicode="&#273;" /><glyph d="M459 567Q459 519 444 478.5Q429 438 401.5 409.5Q374 381 335.5 365Q297 349 251 349Q173 349 132.5 389.5Q92 430 92 498Q92 546 107 586Q122 626 149.5 654.5Q177 683 215.5 699Q254 715 301 715Q379 715 419 675Q459 635 459 567ZM200 512Q200 480 217 464Q234 448 263 448Q297 448 324 474.5Q351 501 351 553Q351 585 334 601Q317 617 289 617Q254 617 227 590.5Q200 564 200 512Z" glyph-name="degree" horiz-adv-x="462" unicode="&#176;" /><glyph d="M409 565Q367 565 346.5 581Q326 597 326 633Q326 684 354 708Q382 732 430 732Q471 732 492.5 715.5Q514 699 514 664Q514 612 485.5 588.5Q457 565 409 565ZM183 565Q141 565 120.5 581.5Q100 598 100 634Q100 685 128 708.5Q156 732 204 732Q287 732 287 665Q287 612 259 588.5Q231 565 183 565Z" glyph-name="dieresis" horiz-adv-x="600" unicode="&#168;" /><glyph d="M272 413Q240 413 220 432.5Q200 452 200 483Q200 504 208 521.5Q216 539 228.5 551.5Q241 564 258 570.5Q275 577 293 577Q326 577 346.5 557Q367 537 367 506Q367 467 339.5 440Q312 413 272 413ZM465 363 448 259H45L61 363ZM214 45Q182 45 162 64.5Q142 84 142 115Q142 158 170 184Q198 210 234 210Q268 210 288.5 189.5Q309 169 309 137Q309 118 301.5 101Q294 84 281 71.5Q268 59 250.5 52Q233 45 214 45Z" glyph-name="divide" horiz-adv-x="511" unicode="&#247;" /><glyph d="M236 502Q236 461 290 443L309 564Q269 559 252.5 542.5Q236 526 236 502ZM335 251 316 135Q352 140 371.5 155Q391 170 391 196Q391 213 378.5 226.5Q366 240 335 251ZM210 -62 219 -1Q147 5 91 34.5Q35 64 6 129L136 225Q165 149 241 137L262 273Q170 299 120.5 347.5Q71 396 71 477Q71 525 88 565.5Q105 606 138 636Q171 666 219.5 684Q268 702 331 705L341 766H416L406 702Q472 694 521.5 665Q571 636 595 576L463 490Q446 519 428.5 536.5Q411 554 384 560L362 422Q423 405 462.5 385.5Q502 366 524.5 342.5Q547 319 555.5 292Q564 265 564 232Q564 127 494.5 66.5Q425 6 295 -1L285 -62Z" glyph-name="dollar" horiz-adv-x="620" unicode="$" /><glyph d="M289 565Q200 565 200 634Q200 687 230.5 710.5Q261 734 310 734Q353 734 376 717Q399 700 399 663Q399 612 369 588.5Q339 565 289 565Z" glyph-name="dotaccent" horiz-adv-x="600" unicode="&#729;" /><glyph d="M95 502H285L205 0H16Z" glyph-name="dotlessi" horiz-adv-x="303" unicode="&#305;" /><glyph d="M13 -13 95 502H284L201 -22Q185 -124 122 -173.5Q59 -223 -32 -223Q-61 -223 -92.5 -217Q-124 -211 -149 -197L-105 -75Q-86 -86 -58 -86Q-27 -86 -10 -69.5Q7 -53 13 -13Z" glyph-name="dotlessj" horiz-adv-x="303" unicode="&#567;" /><glyph d="M255 -65 386 766H558L427 -65ZM23 -65 153 766H325L194 -65Z" glyph-name="doublebar" horiz-adv-x="561" /><glyph d="M260 -15Q208 -15 165.5 -2Q123 11 93 37.5Q63 64 46.5 103.5Q30 143 30 197Q30 210 31 222.5Q32 235 34 249Q42 310 65.5 359.5Q89 409 127 444Q165 479 217 497.5Q269 516 333 516Q387 516 426.5 500Q466 484 491 456.5Q516 429 528 391Q540 353 540 308Q540 257 526 199H204Q204 113 292 113Q329 113 356 124.5Q383 136 403 162L502 90Q462 38 406.5 11.5Q351 -15 260 -15ZM314 384Q279 384 254 364Q229 344 218 302H372Q372 306 372.5 309.5Q373 313 373 317Q373 349 359.5 366.5Q346 384 314 384Z" glyph-name="e" horiz-adv-x="568" unicode="e" /><glyph d="M30 0ZM358 711H553L552 704L398 570H252L253 575ZM260 -15Q208 -15 165.5 -2Q123 11 93 37.5Q63 64 46.5 103.5Q30 143 30 197Q30 210 31 222.5Q32 235 34 249Q42 310 65.5 359.5Q89 409 127 444Q165 479 217 497.5Q269 516 333 516Q387 516 426.5 500Q466 484 491 456.5Q516 429 528 391Q540 353 540 308Q540 257 526 199H204Q204 113 292 113Q329 113 356 124.5Q383 136 403 162L502 90Q462 38 406.5 11.5Q351 -15 260 -15ZM314 384Q279 384 254 364Q229 344 218 302H372Q372 306 372.5 309.5Q373 313 373 317Q373 349 359.5 366.5Q346 384 314 384Z" glyph-name="eacute" horiz-adv-x="581" unicode="&#233;" /><glyph d="M30 0ZM260 -15Q208 -15 165.5 -2Q123 11 93 37.5Q63 64 46.5 103.5Q30 143 30 197Q30 210 31 222.5Q32 235 34 249Q42 310 65.5 359.5Q89 409 127 444Q165 479 217 497.5Q269 516 333 516Q387 516 426.5 500Q466 484 491 456.5Q516 429 528 391Q540 353 540 308Q540 257 526 199H204Q204 113 292 113Q329 113 356 124.5Q383 136 403 162L502 90Q462 38 406.5 11.5Q351 -15 260 -15ZM314 384Q279 384 254 364Q229 344 218 302H372Q372 306 372.5 309.5Q373 313 373 317Q373 349 359.5 366.5Q346 384 314 384ZM427 710H538Q532 668 516 639.5Q500 611 474.5 593.5Q449 576 414 569Q379 562 336 562Q293 562 260 569Q227 576 206 593.5Q185 611 176.5 639.5Q168 668 174 710H283Q278 675 293 663Q308 651 345 651Q382 651 401.5 663Q421 675 427 710Z" glyph-name="ebreve" horiz-adv-x="568" unicode="&#277;" /><glyph d="M30 0ZM259 570 159 708 160 711H301L348 659L413 711H556L555 708L411 570ZM260 -15Q208 -15 165.5 -2Q123 11 93 37.5Q63 64 46.5 103.5Q30 143 30 197Q30 210 31 222.5Q32 235 34 249Q42 310 65.5 359.5Q89 409 127 444Q165 479 217 497.5Q269 516 333 516Q387 516 426.5 500Q466 484 491 456.5Q516 429 528 391Q540 353 540 308Q540 257 526 199H204Q204 113 292 113Q329 113 356 124.5Q383 136 403 162L502 90Q462 38 406.5 11.5Q351 -15 260 -15ZM314 384Q279 384 254 364Q229 344 218 302H372Q372 306 372.5 309.5Q373 313 373 317Q373 349 359.5 366.5Q346 384 314 384Z" glyph-name="ecaron" horiz-adv-x="584" unicode="&#283;" /><glyph d="M30 0ZM343 622 278 570H135L136 574L280 711H432L532 574L531 570H391ZM260 -15Q208 -15 165.5 -2Q123 11 93 37.5Q63 64 46.5 103.5Q30 143 30 197Q30 210 31 222.5Q32 235 34 249Q42 310 65.5 359.5Q89 409 127 444Q165 479 217 497.5Q269 516 333 516Q387 516 426.5 500Q466 484 491 456.5Q516 429 528 391Q540 353 540 308Q540 257 526 199H204Q204 113 292 113Q329 113 356 124.5Q383 136 403 162L502 90Q462 38 406.5 11.5Q351 -15 260 -15ZM314 384Q279 384 254 364Q229 344 218 302H372Q372 306 372.5 309.5Q373 313 373 317Q373 349 359.5 366.5Q346 384 314 384Z" glyph-name="ecircumflex" horiz-adv-x="568" unicode="&#234;" /><glyph d="M30 0ZM449 565Q407 565 386.5 581Q366 597 366 633Q366 684 394 708Q422 732 470 732Q511 732 532.5 715.5Q554 699 554 664Q554 612 525.5 588.5Q497 565 449 565ZM223 565Q181 565 160.5 581.5Q140 598 140 634Q140 685 168 708.5Q196 732 244 732Q327 732 327 665Q327 612 299 588.5Q271 565 223 565ZM260 -15Q208 -15 165.5 -2Q123 11 93 37.5Q63 64 46.5 103.5Q30 143 30 197Q30 210 31 222.5Q32 235 34 249Q42 310 65.5 359.5Q89 409 127 444Q165 479 217 497.5Q269 516 333 516Q387 516 426.5 500Q466 484 491 456.5Q516 429 528 391Q540 353 540 308Q540 257 526 199H204Q204 113 292 113Q329 113 356 124.5Q383 136 403 162L502 90Q462 38 406.5 11.5Q351 -15 260 -15ZM314 384Q279 384 254 364Q229 344 218 302H372Q372 306 372.5 309.5Q373 313 373 317Q373 349 359.5 366.5Q346 384 314 384Z" glyph-name="edieresis" horiz-adv-x="582" unicode="&#235;" /><glyph d="M30 0ZM260 -15Q208 -15 165.5 -2Q123 11 93 37.5Q63 64 46.5 103.5Q30 143 30 197Q30 210 31 222.5Q32 235 34 249Q42 310 65.5 359.5Q89 409 127 444Q165 479 217 497.5Q269 516 333 516Q387 516 426.5 500Q466 484 491 456.5Q516 429 528 391Q540 353 540 308Q540 257 526 199H204Q204 113 292 113Q329 113 356 124.5Q383 136 403 162L502 90Q462 38 406.5 11.5Q351 -15 260 -15ZM314 384Q279 384 254 364Q229 344 218 302H372Q372 306 372.5 309.5Q373 313 373 317Q373 349 359.5 366.5Q346 384 314 384ZM337 565Q248 565 248 634Q248 687 278.5 710.5Q309 734 358 734Q401 734 424 717Q447 700 447 663Q447 612 417 588.5Q387 565 337 565Z" glyph-name="edotaccent" horiz-adv-x="568" unicode="&#279;" /><glyph d="M30 0ZM260 -15Q208 -15 165.5 -2Q123 11 93 37.5Q63 64 46.5 103.5Q30 143 30 197Q30 210 31 222.5Q32 235 34 249Q42 310 65.5 359.5Q89 409 127 444Q165 479 217 497.5Q269 516 333 516Q387 516 426.5 500Q466 484 491 456.5Q516 429 528 391Q540 353 540 308Q540 257 526 199H204Q204 113 292 113Q329 113 356 124.5Q383 136 403 162L502 90Q462 38 406.5 11.5Q351 -15 260 -15ZM314 384Q279 384 254 364Q229 344 218 302H372Q372 306 372.5 309.5Q373 313 373 317Q373 349 359.5 366.5Q346 384 314 384ZM270 570 157 704 158 711H359L417 575V570Z" glyph-name="egrave" horiz-adv-x="568" unicode="&#232;" /><glyph d="M271 -15Q146 -15 81.5 29Q17 73 17 165Q17 205 28 238Q39 271 58.5 296Q78 321 104.5 339Q131 357 162 368Q129 388 112.5 417Q96 446 96 494Q96 550 116 591.5Q136 633 172.5 660.5Q209 688 261.5 701.5Q314 715 379 715Q491 715 549 675Q607 635 607 548Q607 483 577 437Q547 391 492 363Q537 343 557.5 310Q578 277 578 229Q578 109 499 47Q420 -15 271 -15ZM337 429Q356 429 374.5 434.5Q393 440 406.5 451Q420 462 428.5 478Q437 494 437 515Q437 544 416.5 560.5Q396 577 360 577Q317 577 288.5 554.5Q260 532 260 490Q260 461 280.5 445Q301 429 337 429ZM285 118Q306 118 326 124Q346 130 361 142Q376 154 385 171.5Q394 189 394 212Q394 246 371 263Q348 280 309 280Q261 280 231 255Q201 230 201 186Q201 152 223 135Q245 118 285 118Z" glyph-name="eight" horiz-adv-x="625" unicode="8" /><glyph d="M289 -15Q160 -15 95.5 29Q31 73 29 165Q29 205 40 238Q51 271 70.5 296.5Q90 322 117 339.5Q144 357 176 368Q141 388 123.5 417Q106 446 106 494Q106 550 126.5 591.5Q147 633 185 660.5Q223 688 277 701.5Q331 715 397 715Q512 715 571.5 675Q631 635 631 548Q631 483 600.5 437Q570 391 512 363Q560 342 582 308.5Q604 275 605 222Q606 106 523 45.5Q440 -15 289 -15ZM355 429Q374 429 392.5 434.5Q411 440 424.5 451Q438 462 446.5 478Q455 494 455 515Q455 544 434.5 560.5Q414 577 378 577Q334 577 305 554.5Q276 532 276 490Q276 461 297 445Q318 429 355 429ZM305 118Q327 118 347 124Q367 130 382 142Q397 154 406 171.5Q415 189 415 212Q415 246 392 263Q369 280 330 280Q282 280 251 255Q220 230 220 186Q220 152 242.5 135Q265 118 305 118Z" glyph-name="eight.LP" horiz-adv-x="664" /><glyph d="M273 -15Q148 -15 84.5 28.5Q21 72 21 164Q21 205 32 237.5Q43 270 62 295.5Q81 321 107.5 339Q134 357 164 368Q132 388 115 416.5Q98 445 98 493Q98 549 118.5 591Q139 633 176 660.5Q213 688 265.5 701.5Q318 715 383 715Q495 715 553 675.5Q611 636 611 548Q611 483 581.5 437Q552 391 496 363Q582 325 582 230Q582 109 502 47Q422 -15 273 -15ZM341 429Q380 429 409 452Q438 475 438 516Q438 545 418.5 561Q399 577 364 577Q321 577 293 554.5Q265 532 265 489Q265 460 285.5 444.5Q306 429 341 429ZM291 118Q312 118 331.5 124.5Q351 131 366 143Q381 155 389.5 172.5Q398 190 398 212Q398 246 376 263Q354 280 316 280Q269 280 239 255Q209 230 209 185Q209 152 230.5 135Q252 118 291 118Z" glyph-name="eight.OP" horiz-adv-x="649" /><glyph d="M271 -15Q146 -15 82 29Q18 73 18 165Q18 205 29 238Q40 271 59.5 296Q79 321 105.5 339Q132 357 163 368Q130 388 113.5 417Q97 446 97 494Q97 550 117 591.5Q137 633 173.5 660.5Q210 688 262.5 701.5Q315 715 380 715Q492 715 550 675Q608 635 608 548Q608 483 578 437Q548 391 493 363Q579 325 579 229Q579 109 499.5 47Q420 -15 271 -15ZM338 429Q357 429 375.5 434.5Q394 440 407.5 451Q421 462 429.5 478Q438 494 438 515Q438 544 417.5 560.5Q397 577 361 577Q317 577 289 554.5Q261 532 261 490Q261 461 281.5 445Q302 429 338 429ZM286 118Q307 118 327 124Q347 130 362 142Q377 154 386 171.5Q395 189 395 212Q395 246 372 263Q349 280 310 280Q262 280 232 255Q202 230 202 186Q202 152 224 135Q246 118 286 118Z" glyph-name="eight.OT" horiz-adv-x="625" /><glyph d="M0 0ZM138 -213Q58 -213 19 -187Q-20 -161 -20 -105Q-20 -58 4 -29Q28 0 63 14Q45 26 35.5 43.5Q26 61 26 90Q26 156 75 188.5Q124 221 207 221Q278 221 315 197Q352 173 352 119Q352 82 334.5 55.5Q317 29 285 11Q312 -3 323.5 -22.5Q335 -42 335 -72Q335 -142 283.5 -177.5Q232 -213 138 -213ZM181 55Q202 55 217.5 66Q233 77 233 98Q233 112 222 120.5Q211 129 194 129Q171 129 156 118Q141 107 141 86Q141 70 152.5 62.5Q164 55 181 55ZM152 -126Q175 -126 192.5 -113.5Q210 -101 210 -78Q210 -61 197.5 -52Q185 -43 165 -43Q139 -43 123.5 -55.5Q108 -68 108 -91Q108 -126 152 -126Z" glyph-name="eight.inf" horiz-adv-x="414" /><glyph d="M626 -8Q537 -8 537 69Q537 119 564 150Q591 181 649 181Q693 181 716 161Q739 141 739 102Q739 48 708 20Q677 -8 626 -8ZM360 -8Q272 -8 272 69Q272 119 299 150Q326 181 384 181Q473 181 473 102Q473 48 442.5 20Q412 -8 360 -8ZM95 -8Q6 -8 6 69Q6 119 33 150Q60 181 119 181Q208 181 208 102Q208 48 177.5 20Q147 -8 95 -8Z" glyph-name="ellipsis" horiz-adv-x="796" unicode="&#8230;" /><glyph d="M30 0ZM260 -15Q208 -15 165.5 -2Q123 11 93 37.5Q63 64 46.5 103.5Q30 143 30 197Q30 210 31 222.5Q32 235 34 249Q42 310 65.5 359.5Q89 409 127 444Q165 479 217 497.5Q269 516 333 516Q387 516 426.5 500Q466 484 491 456.5Q516 429 528 391Q540 353 540 308Q540 257 526 199H204Q204 113 292 113Q329 113 356 124.5Q383 136 403 162L502 90Q462 38 406.5 11.5Q351 -15 260 -15ZM314 384Q279 384 254 364Q229 344 218 302H372Q372 306 372.5 309.5Q373 313 373 317Q373 349 359.5 366.5Q346 384 314 384ZM507 685 490 584H189L205 685Z" glyph-name="emacron" horiz-adv-x="568" unicode="&#275;" /><glyph d="M733 345 709 197H33L57 345Z" glyph-name="emdash" horiz-adv-x="785" unicode="&#8212;" /><glyph d="M745 423 721 275H45L69 423Z" glyph-name="emdash.cap" horiz-adv-x="785" /><glyph glyph-name="emspace" horiz-adv-x="1000" unicode="&#8195;" /><glyph d="M538 345 515 197H34L57 345Z" glyph-name="endash" horiz-adv-x="587" unicode="&#8211;" /><glyph d="M550 423 527 275H46L69 423Z" glyph-name="endash.cap" horiz-adv-x="587" /><glyph d="M355 -13 396 249Q400 269 400 288Q400 320 385.5 333.5Q371 347 342 347Q307 347 279 321.5Q251 296 243 244L205 0H15L94 502H249L251 417Q285 465 334.5 490.5Q384 516 441 516Q524 516 562.5 472.5Q601 429 601 362Q601 350 600 338Q599 326 597 315L543 -23Q535 -74 514.5 -111.5Q494 -149 463.5 -174Q433 -199 394 -211Q355 -223 310 -223Q282 -223 250 -217Q218 -211 193 -197L237 -75Q256 -86 284 -86Q315 -86 331.5 -69.5Q348 -53 355 -13Z" glyph-name="eng" horiz-adv-x="649" unicode="&#331;" /><glyph glyph-name="enspace" horiz-adv-x="500" unicode="&#8194;" /><glyph d="M315 -238Q289 -238 263.5 -232Q238 -226 218.5 -212.5Q199 -199 187 -176.5Q175 -154 175 -121Q175 -88 185.5 -61Q196 -34 213 -12Q128 -2 79 49.5Q30 101 30 197Q30 210 31 222.5Q32 235 34 249Q42 310 65.5 359.5Q89 409 127 444Q165 479 217 497.5Q269 516 333 516Q387 516 426.5 500Q466 484 491 456.5Q516 429 528 391Q540 353 540 308Q540 257 526 199H204Q204 113 292 113Q329 113 356 124.5Q383 136 403 162L502 90Q472 51 434 26.5Q396 2 341 -8Q312 -19 297.5 -41.5Q283 -64 283 -87Q283 -116 300 -126Q317 -136 340 -136Q376 -136 409 -119L424 -209Q375 -238 315 -238ZM314 384Q279 384 254 364Q229 344 218 302H372Q372 306 372.5 309.5Q373 313 373 317Q373 349 359.5 366.5Q346 384 314 384Z" glyph-name="eogonek" horiz-adv-x="568" unicode="&#281;" /><glyph d="M476 437 460 333H56L73 437ZM453 285 436 181H33L49 285Z" glyph-name="equal" horiz-adv-x="510" unicode="=" /><glyph d="M0 0ZM262 70 251 -9H-9L1 70ZM247 -32 236 -111H-25L-15 -32Z" glyph-name="equal.inf" horiz-adv-x="318" /><glyph d="M552 742 579 688 511 647Q551 596 566.5 532Q582 468 582 400Q582 376 580 348Q578 320 572 272Q554 124 479.5 54.5Q405 -15 274 -15Q153 -15 90 38Q27 91 27 194Q27 214 30 240Q46 372 119.5 433Q193 494 305 494Q337 494 364.5 486Q392 478 411 462Q406 492 395.5 517Q385 542 368 562L287 514L259 567L318 603Q280 626 227 638L286 756Q341 751 386 734.5Q431 718 466 691ZM388 238Q390 249 391 260Q392 271 392 279Q392 359 317 359Q269 359 243 330Q217 301 208 238Q206 228 205.5 219Q205 210 205 202Q205 123 280 123Q325 123 352 150.5Q379 178 388 238Z" glyph-name="eth" horiz-adv-x="607" unicode="&#240;" /><glyph d="M298 701 195 229H62L108 701ZM93 -8Q4 -8 4 69Q4 125 35 153Q66 181 117 181Q160 181 183 161Q206 141 206 103Q206 48 175.5 20Q145 -8 93 -8Z" glyph-name="exclam" horiz-adv-x="268" unicode="!" /><glyph d="M-26 -189 77 283H210L164 -189ZM179 520Q268 520 268 443Q268 387 237 359Q206 331 155 331Q112 331 89 351Q66 371 66 409Q66 464 96.5 492Q127 520 179 520Z" glyph-name="exclamdown" horiz-adv-x="268" unicode="&#161;" /><glyph d="M0 -1 103 471H236L190 -1ZM205 708Q294 708 294 631Q294 575 263 547Q232 519 181 519Q138 519 115 539Q92 559 92 597Q92 652 122.5 680Q153 708 205 708Z" glyph-name="exclamdown.cap" horiz-adv-x="269" /><glyph d="M44 0 101 362H27L49 502H124L129 529Q146 636 206.5 686Q267 736 357 736Q373 736 391.5 734Q410 732 427.5 728.5Q445 725 460.5 718.5Q476 712 487 703L439 584Q428 592 414 595.5Q400 599 386 599Q325 599 313 528L309 502H432L410 362H287L230 0Z" glyph-name="f" horiz-adv-x="405" unicode="f" /><glyph d="M605 553Q511 553 511 630Q511 688 543.5 714.5Q576 741 628 741Q673 741 697.5 722Q722 703 722 664Q722 606 690.5 579.5Q659 553 605 553ZM44 0 101 362H27L49 502H124L129 529Q145 634 206.5 685Q268 736 357 736Q373 736 391 734Q409 732 426 728.5Q443 725 458.5 718.5Q474 712 484 703L435 584Q425 592 412.5 595.5Q400 599 386 599Q325 599 313 528L309 502H432L410 362H287L230 0ZM499 502H690L610 0H420Z" glyph-name="fi" horiz-adv-x="709" unicode="&#64257;" /><glyph d="M538 345 515 197H34L57 345Z" glyph-name="figuredash" horiz-adv-x="587" unicode="&#8210;" /><glyph d="M550 423 527 275H46L69 423Z" glyph-name="figuredash.cap" horiz-adv-x="587" /><glyph glyph-name="figurespace" horiz-adv-x="625" unicode="&#8199;" /><glyph d="M271 548 245 436Q293 457 359 457Q458 457 511.5 411.5Q565 366 565 277Q565 209 543.5 154.5Q522 100 481.5 62.5Q441 25 382.5 5Q324 -15 250 -15Q162 -15 95 16Q28 47 -7 116L132 212Q151 170 180 149.5Q209 129 254 129Q311 129 345 160Q379 191 379 246Q379 285 354.5 302Q330 319 290 319Q254 319 226 309.5Q198 300 175 279L62 338L148 700H611L588 548Z" glyph-name="five" horiz-adv-x="625" unicode="5" /><glyph d="M277 548 250 437Q301 457 366 457Q471 457 525.5 411Q580 365 580 271Q580 205 558 152Q536 99 494 62Q452 25 391.5 5Q331 -15 254 -15Q166 -15 96 16.5Q26 48 -9 117L134 212Q154 172 184 152Q214 132 259 132Q316 132 352 160.5Q388 189 388 243Q388 285 360.5 302.5Q333 320 295 320Q263 320 232.5 310.5Q202 301 179 280L62 338L150 700H627L602 548Z" glyph-name="five.LP" horiz-adv-x="609" /><glyph d="M254 449 227 336Q251 347 279.5 352Q308 357 338 357Q440 357 493 310.5Q546 264 546 174Q546 105 524 51Q502 -3 461 -39.5Q420 -76 361 -95.5Q302 -115 229 -115Q142 -115 74 -84.5Q6 -54 -28 14L112 109Q131 69 159 50Q187 31 233 31Q289 31 323 63Q357 95 357 149Q357 187 332 204Q307 221 268 221Q199 221 156 179L41 238L129 600H592L568 449Z" glyph-name="five.OP" horiz-adv-x="586" /><glyph d="M268 448 242 336Q290 357 356 357Q455 357 508.5 311.5Q562 266 562 177Q562 109 540.5 54.5Q519 0 478.5 -37.5Q438 -75 379.5 -95Q321 -115 247 -115Q159 -115 92 -84Q25 -53 -10 16L129 112Q148 70 177 49.5Q206 29 251 29Q308 29 342 60Q376 91 376 146Q376 185 351.5 202Q327 219 287 219Q251 219 223 209.5Q195 200 172 179L59 238L145 600H608L585 448Z" glyph-name="five.OT" horiz-adv-x="625" /><glyph d="M0 0ZM135 108 124 60Q138 64 152.5 66Q167 68 185 68Q253 68 285 39Q317 10 317 -47Q317 -124 264.5 -168.5Q212 -213 117 -213Q62 -213 18 -195Q-26 -177 -49 -135L49 -70Q62 -93 78 -103Q94 -113 120 -113Q149 -113 167 -99.5Q185 -86 185 -60Q185 -38 170.5 -30Q156 -22 137 -22Q121 -22 105 -27Q89 -32 76 -44L-5 -5L47 208H346L330 108Z" glyph-name="five.inf" horiz-adv-x="383" /><glyph d="M44 0 101 362H27L49 502H124L129 529Q145 634 206.5 685Q268 736 357 736Q373 736 391 734Q409 732 426 728.5Q443 725 458.5 718.5Q474 712 484 703L435 584Q425 592 412.5 595.5Q400 599 386 599Q325 599 313 528L309 502H432L410 362H287L230 0ZM573 0Q492 0 461 38.5Q430 77 442 155L528 700H718L635 174Q632 153 638 144Q644 135 659 135H691L670 0Z" glyph-name="fl" horiz-adv-x="723" unicode="&#64258;" /><glyph d="M44 0 101 362H27L49 502H124L129 529Q145 634 206.5 685Q268 736 357 736Q373 736 391 734Q409 732 426 728.5Q443 725 458.5 718.5Q474 712 484 703L435 584Q425 592 412.5 595.5Q400 599 386 599Q325 599 313 528L309 502H432L410 362H287L230 0ZM721 700 610 0H421L531 700Z" glyph-name="fl.alt" horiz-adv-x="724" /><glyph d="M28 -14 86 242H13L43 381H117L127 420Q151 526 212.5 576.5Q274 627 365 627Q381 627 399 625Q417 623 434.5 619.5Q452 616 466.5 609.5Q481 603 491 594L435 475Q425 483 411.5 486.5Q398 490 384 490Q324 490 308 419L299 381H420L389 242H268L208 -23Q185 -125 121.5 -174Q58 -223 -29 -223Q-57 -223 -89.5 -217Q-122 -211 -143 -197L-92 -75Q-73 -86 -46 -86Q-16 -86 1.5 -69Q19 -52 28 -14Z" glyph-name="florin" horiz-adv-x="416" unicode="&#402;" /><glyph d="M0 136 23 290 309 700H489L211 298H353L372 418H549L530 298H596L571 136H505L483 0H306L328 136Z" glyph-name="four" horiz-adv-x="625" unicode="4" /><glyph d="M22 136 43 270 307 700H499L244 298H420L459 541H640L602 298H683L657 136H576L555 0H373L394 136Z" glyph-name="four.LP" horiz-adv-x="701" /><glyph d="M-2 36 18 169 270 601H452L210 196H376L414 441H586L549 196H626L601 36H525L504 -100H331L351 36Z" glyph-name="four.OP" horiz-adv-x="654" /><glyph d="M-14 36 9 190 295 600H475L197 198H339L358 318H535L516 198H582L557 36H491L469 -100H292L314 36Z" glyph-name="four.OT" horiz-adv-x="625" /><glyph d="M0 0ZM-24 -127 -10 -38 144 209H274L127 -20H217L236 96H359L341 -20H383L367 -127H323L311 -200H188L200 -127Z" glyph-name="four.inf" horiz-adv-x="437" /><glyph glyph-name="fourperemspace" horiz-adv-x="250" unicode="&#8197;" /><glyph d="M586 700 132 0H-36L418 700Z" glyph-name="fraction" horiz-adv-x="574" unicode="&#8260;" /><glyph d="M386 263Q389 278 389 293Q389 334 369.5 354.5Q350 375 317 375Q277 375 250.5 347Q224 319 215 262Q212 241 212 224Q212 146 280 146Q321 146 349 175.5Q377 205 386 263ZM610 502 536 28Q526 -36 497 -83Q468 -130 425.5 -161Q383 -192 328.5 -207.5Q274 -223 212 -223Q175 -223 140 -217.5Q105 -212 76 -199Q47 -186 25 -166.5Q3 -147 -8 -118L103 -24Q120 -59 150.5 -74Q181 -89 219 -89Q327 -89 345 24L353 76Q300 8 206 8Q125 8 78 56Q31 104 31 203Q31 229 34 259Q42 323 64 371.5Q86 420 119 452Q152 484 193.5 500Q235 516 283 516Q338 516 376.5 494Q415 472 433 427L459 502Z" glyph-name="g" horiz-adv-x="628" unicode="g" /><glyph d="M0 0ZM386 263Q389 278 389 293Q389 334 369.5 354.5Q350 375 317 375Q277 375 250.5 347Q224 319 215 262Q212 241 212 224Q212 146 280 146Q321 146 349 175.5Q377 205 386 263ZM610 502 536 28Q526 -36 497 -83Q468 -130 425.5 -161Q383 -192 328.5 -207.5Q274 -223 212 -223Q175 -223 140 -217.5Q105 -212 76 -199Q47 -186 25 -166.5Q3 -147 -8 -118L103 -24Q120 -59 150.5 -74Q181 -89 219 -89Q327 -89 345 24L353 76Q300 8 206 8Q125 8 78 56Q31 104 31 203Q31 229 34 259Q42 323 64 371.5Q86 420 119 452Q152 484 193.5 500Q235 516 283 516Q338 516 376.5 494Q415 472 433 427L459 502ZM433 710H544Q538 668 522 639.5Q506 611 480.5 593.5Q455 576 420 569Q385 562 342 562Q299 562 266 569Q233 576 212 593.5Q191 611 182.5 639.5Q174 668 180 710H289Q284 675 299 663Q314 651 351 651Q388 651 407.5 663Q427 675 433 710Z" glyph-name="gbreve" horiz-adv-x="628" unicode="&#287;" /><glyph d="M0 0ZM350 622 285 570H142L143 574L287 711H439L539 574L538 570H398ZM386 263Q389 278 389 293Q389 334 369.5 354.5Q350 375 317 375Q277 375 250.5 347Q224 319 215 262Q212 241 212 224Q212 146 280 146Q321 146 349 175.5Q377 205 386 263ZM610 502 536 28Q526 -36 497 -83Q468 -130 425.5 -161Q383 -192 328.5 -207.5Q274 -223 212 -223Q175 -223 140 -217.5Q105 -212 76 -199Q47 -186 25 -166.5Q3 -147 -8 -118L103 -24Q120 -59 150.5 -74Q181 -89 219 -89Q327 -89 345 24L353 76Q300 8 206 8Q125 8 78 56Q31 104 31 203Q31 229 34 259Q42 323 64 371.5Q86 420 119 452Q152 484 193.5 500Q235 516 283 516Q338 516 376.5 494Q415 472 433 427L459 502Z" glyph-name="gcircumflex" horiz-adv-x="628" unicode="&#285;" /><glyph d="M439 860 460 794Q429 786 403.5 768.5Q378 751 367 725Q406 724 427.5 706.5Q449 689 449 657Q449 608 419.5 583.5Q390 559 342 559Q301 559 278 580Q255 601 255 643Q255 685 270 722.5Q285 760 310.5 788.5Q336 817 369 836Q402 855 439 860ZM386 263Q389 278 389 293Q389 334 369.5 354.5Q350 375 317 375Q277 375 250.5 347Q224 319 215 262Q212 241 212 224Q212 146 280 146Q321 146 349 175.5Q377 205 386 263ZM610 502 536 28Q526 -36 497 -83Q468 -130 425.5 -161Q383 -192 328.5 -207.5Q274 -223 212 -223Q175 -223 140 -217.5Q105 -212 76 -199Q47 -186 25 -166.5Q3 -147 -8 -118L103 -24Q120 -59 150.5 -74Q181 -89 219 -89Q327 -89 345 24L353 76Q300 8 206 8Q125 8 78 56Q31 104 31 203Q31 229 34 259Q42 323 64 371.5Q86 420 119 452Q152 484 193.5 500Q235 516 283 516Q338 516 376.5 494Q415 472 433 427L459 502Z" glyph-name="gcommaaccent" horiz-adv-x="628" unicode="&#291;" /><glyph d="M0 0ZM386 263Q389 278 389 293Q389 334 369.5 354.5Q350 375 317 375Q277 375 250.5 347Q224 319 215 262Q212 241 212 224Q212 146 280 146Q321 146 349 175.5Q377 205 386 263ZM610 502 536 28Q526 -36 497 -83Q468 -130 425.5 -161Q383 -192 328.5 -207.5Q274 -223 212 -223Q175 -223 140 -217.5Q105 -212 76 -199Q47 -186 25 -166.5Q3 -147 -8 -118L103 -24Q120 -59 150.5 -74Q181 -89 219 -89Q327 -89 345 24L353 76Q300 8 206 8Q125 8 78 56Q31 104 31 203Q31 229 34 259Q42 323 64 371.5Q86 420 119 452Q152 484 193.5 500Q235 516 283 516Q338 516 376.5 494Q415 472 433 427L459 502ZM343 565Q254 565 254 634Q254 687 284.5 710.5Q315 734 364 734Q407 734 430 717Q453 700 453 663Q453 612 423 588.5Q393 565 343 565Z" glyph-name="gdotaccent" horiz-adv-x="628" unicode="&#289;" /><glyph d="M370 293H314L336 437H378Q416 437 441.5 458Q467 479 467 519Q467 553 446 569Q425 585 390 585Q343 585 313.5 560Q284 535 276 483L199 0H12L90 486Q108 601 185.5 665.5Q263 730 407 730Q471 730 517 716.5Q563 703 592 679Q621 655 634.5 622Q648 589 648 550Q648 487 618 443Q588 399 537 374Q588 354 607.5 315Q627 276 627 226Q627 170 606.5 126Q586 82 551.5 52Q517 22 470.5 6.5Q424 -9 372 -9Q340 -9 308.5 -4Q277 1 254 11L288 145Q299 138 314 135Q329 132 344 132Q364 132 382.5 138Q401 144 415 155Q429 166 437.5 183Q446 200 446 223Q446 257 426 275Q406 293 370 293Z" glyph-name="germandbls" horiz-adv-x="670" unicode="&#223;" /><glyph d="M243 570 130 704 131 711H332L390 575V570Z" glyph-name="grave" horiz-adv-x="600" unicode="`" /><glyph d="M109 68 55 161 288 313 106 461 185 550 438 343 427 275Z" glyph-name="greater" horiz-adv-x="506" unicode="&gt;" /><glyph d="M424 315 129 149 88 233 285 344 124 454 191 542 433 377ZM394 104 377 0H45L62 104Z" glyph-name="greaterequal" horiz-adv-x="510" unicode="&#8805;" /><glyph d="M456 0 290 252V255L520 502H707L469 253L635 0ZM197 0 38 249 39 252 268 502H449L218 250L381 0Z" glyph-name="guillemotleft" horiz-adv-x="687" unicode="&#171;" /><glyph d="M236 502 402 250V247L172 0H-15L223 249L57 502ZM495 502 654 253 653 250 424 0H243L474 252L311 502Z" glyph-name="guillemotright" horiz-adv-x="687" unicode="&#187;" /><glyph d="M190 0 37 250 38 253 270 502H457L218 247L372 0Z" glyph-name="guilsinglleft" horiz-adv-x="435" unicode="&#8249;" /><glyph d="M250 502 403 252 402 249 170 0H-17L222 255L68 502Z" glyph-name="guilsinglright" horiz-adv-x="435" unicode="&#8250;" /><glyph d="M316 700 271 418Q303 465 349 490.5Q395 516 448 516Q519 516 560 477.5Q601 439 601 364Q601 339 597 316L547 0H357L397 249Q398 256 399 267.5Q400 279 400 287Q400 320 385.5 333.5Q371 347 342 347Q308 347 280 321.5Q252 296 243 240L205 0H16L126 700Z" glyph-name="h" horiz-adv-x="641" unicode="h" /><glyph glyph-name="hairspace" horiz-adv-x="100" unicode="&#8202;" /><glyph d="M58 541 72 636H128L138 700H329L318 636H435L421 541H303L283 411Q315 459 361 484Q407 509 461 509Q530 509 571.5 468.5Q613 428 613 353Q613 329 609 306L560 0H370L408 236Q411 258 411 276Q411 309 397 323Q383 337 355 337Q317 337 290 310.5Q263 284 255 230L218 0H28L113 541Z" glyph-name="hbar" horiz-adv-x="652" unicode="&#295;" /><glyph d="M16 0ZM236 810 171 758H28L29 762L173 899H325L425 762L424 758H284ZM316 700 271 418Q303 465 349 490.5Q395 516 448 516Q519 516 560 477.5Q601 439 601 364Q601 339 597 316L547 0H357L397 249Q398 256 399 267.5Q400 279 400 287Q400 320 385.5 333.5Q371 347 342 347Q308 347 280 321.5Q252 296 243 240L205 0H16L126 700Z" glyph-name="hcircumflex" horiz-adv-x="641" unicode="&#293;" /><glyph d="M417 711H605L604 704L451 570H320V575ZM209 711H383L382 704L242 570H117L118 575Z" glyph-name="hungarumlaut" horiz-adv-x="600" unicode="&#733;" /><glyph d="M450 345 427 197H33L56 345Z" glyph-name="hyphen" horiz-adv-x="497" unicode="-" /><glyph d="M463 423 440 275H46L69 423Z" glyph-name="hyphen.cap" horiz-adv-x="497" /><glyph d="M200 553Q106 553 106 630Q106 688 138.5 714.5Q171 741 224 741Q269 741 293 722Q317 703 317 664Q317 606 285.5 579.5Q254 553 200 553ZM95 502H285L205 0H16Z" glyph-name="i" horiz-adv-x="304" unicode="i" /><glyph d="M16 0ZM220 711H415L414 704L260 570H114L115 575ZM95 502H285L205 0H16Z" glyph-name="iacute" horiz-adv-x="303" unicode="&#237;" /><glyph d="M16 0ZM95 502H285L205 0H16ZM289 710H400Q394 668 378 639.5Q362 611 336.5 593.5Q311 576 276 569Q241 562 198 562Q155 562 122 569Q89 576 68 593.5Q47 611 38.5 639.5Q30 668 36 710H145Q140 675 155 663Q170 651 207 651Q244 651 263.5 663Q283 675 289 710Z" glyph-name="ibreve" horiz-adv-x="303" unicode="&#301;" /><glyph d="M0 0ZM206 622 141 570H-2L-1 574L143 711H295L395 574L394 570H254ZM95 502H285L205 0H16Z" glyph-name="icircumflex" horiz-adv-x="303" unicode="&#238;" /><glyph d="M2 0ZM311 565Q269 565 248.5 581Q228 597 228 633Q228 684 256 708Q284 732 332 732Q373 732 394.5 715.5Q416 699 416 664Q416 612 387.5 588.5Q359 565 311 565ZM85 565Q43 565 22.5 581.5Q2 598 2 634Q2 685 30 708.5Q58 732 106 732Q189 732 189 665Q189 612 161 588.5Q133 565 85 565ZM95 502H285L205 0H16Z" glyph-name="idieresis" horiz-adv-x="303" unicode="&#239;" /><glyph d="M200 553Q156 553 131 570.5Q106 588 106 629Q106 690 140 715.5Q174 741 224 741Q317 741 317 663Q317 608 286.5 580.5Q256 553 200 553ZM94 502H285L206 0H16Z" glyph-name="idotaccent" horiz-adv-x="303" /><glyph d="M16 0ZM95 502H285L205 0H16ZM135 570 22 704 23 711H224L282 575V570Z" glyph-name="igrave" horiz-adv-x="303" unicode="&#236;" /><glyph d="M16 0ZM200 553Q106 553 106 630Q106 688 138.5 714.5Q171 741 224 741Q269 741 293 722Q317 703 317 664Q317 606 285.5 579.5Q254 553 200 553ZM95 502H285L205 0H16ZM504 553Q409 553 409 630Q409 688 441.5 714.5Q474 741 527 741Q572 741 596.5 722Q621 703 621 664Q621 606 589.5 579.5Q558 553 504 553ZM317 -13 399 502H588L505 -22Q489 -124 426 -173.5Q363 -223 272 -223Q243 -223 211.5 -217Q180 -211 155 -197L199 -75Q218 -86 246 -86Q277 -86 294 -69.5Q311 -53 317 -13Z" glyph-name="ij" horiz-adv-x="607" unicode="&#307;" /><glyph d="M16 0ZM95 502H285L205 0H16ZM369 685 352 584H51L67 685Z" glyph-name="imacron" horiz-adv-x="303" unicode="&#299;" /><glyph d="M200 553Q106 553 106 630Q106 688 138.5 714.5Q171 741 224 741Q268 741 292.5 723Q317 705 317 663Q317 608 286.5 580.5Q256 553 200 553ZM50 -238Q24 -238 -1.5 -232Q-27 -226 -46.5 -212.5Q-66 -199 -78 -176.5Q-90 -154 -90 -121Q-90 -62 -57.5 -21Q-25 20 22 40L94 502H285L206 0H115Q66 -4 42 -31Q18 -58 18 -87Q18 -116 35 -126Q52 -136 75 -136Q111 -136 144 -119L159 -209Q110 -238 50 -238Z" glyph-name="iogonek" horiz-adv-x="303" unicode="&#303;" /><glyph d="M8 0ZM95 502H285L205 0H16ZM301 708H406Q404 670 392 644.5Q380 619 362 603.5Q344 588 323 581.5Q302 575 282 575Q259 575 240 580Q221 585 205.5 590.5Q190 596 175.5 601Q161 606 147 606Q130 606 123.5 595.5Q117 585 115 574H8Q10 612 22 637.5Q34 663 51.5 678.5Q69 694 90.5 700.5Q112 707 132 707Q155 707 174 702Q193 697 209.5 691.5Q226 686 240.5 681Q255 676 270 676Q287 676 293 685.5Q299 695 301 708Z" glyph-name="itilde" horiz-adv-x="303" unicode="&#297;" /><glyph d="M200 553Q105 553 105 630Q105 688 137.5 714.5Q170 741 223 741Q268 741 292.5 722Q317 703 317 664Q317 606 285.5 579.5Q254 553 200 553ZM13 -13 95 502H284L201 -22Q185 -124 122 -173.5Q59 -223 -32 -223Q-61 -223 -92.5 -217Q-124 -211 -149 -197L-105 -75Q-86 -86 -58 -86Q-27 -86 -10 -69.5Q7 -53 13 -13Z" glyph-name="j" horiz-adv-x="303" unicode="j" /><glyph d="M0 0ZM13 -13 95 502H284L201 -22Q185 -124 122 -173.5Q59 -223 -32 -223Q-61 -223 -92.5 -217Q-124 -211 -149 -197L-105 -75Q-86 -86 -58 -86Q-27 -86 -10 -69.5Q7 -53 13 -13ZM205 622 140 570H-3L-2 574L142 711H294L394 574L393 570H253Z" glyph-name="jcircumflex" horiz-adv-x="303" unicode="&#309;" /><glyph d="M316 700 245 289 433 502H634L422 281L558 0H352L280 159L217 97L202 0H16L126 700Z" glyph-name="k" horiz-adv-x="603" unicode="k" /><glyph d="M353 0 233 193 202 0H14L125 700H316L249 290L431 502H624L397 252L559 0Z" glyph-name="k.alt" horiz-adv-x="596" /><glyph d="M16 0ZM172 -355 151 -289Q182 -281 207.5 -263.5Q233 -246 244 -220Q205 -219 183.5 -201.5Q162 -184 162 -152Q162 -103 191.5 -78.5Q221 -54 269 -54Q310 -54 333 -75Q356 -96 356 -138Q356 -180 341 -217.5Q326 -255 300.5 -283.5Q275 -312 242 -331Q209 -350 172 -355ZM316 700 245 289 433 502H634L422 281L558 0H352L280 159L217 97L202 0H16L126 700Z" glyph-name="kcommaaccent" horiz-adv-x="603" unicode="&#311;" /><glyph d="M14 0ZM172 -355 151 -289Q182 -281 207.5 -263.5Q233 -246 244 -220Q205 -219 183.5 -201.5Q162 -184 162 -152Q162 -103 191.5 -78.5Q221 -54 269 -54Q310 -54 333 -75Q356 -96 356 -138Q356 -180 341 -217.5Q326 -255 300.5 -283.5Q275 -312 242 -331Q209 -350 172 -355ZM353 0 233 193 202 0H14L125 700H316L249 290L431 502H624L397 252L559 0Z" glyph-name="kcommaaccent.alt" horiz-adv-x="596" /><glyph d="M287 502 251 292 439 502H640L427 281L564 0H357L283 156L224 97L208 0H21L100 502Z" glyph-name="kgreenlandic" horiz-adv-x="613" unicode="&#312;" /><glyph d="M168 0Q87 0 56 38.5Q25 77 37 155L123 700H313L230 174Q227 153 233 144Q239 135 254 135H286L265 0Z" glyph-name="l" horiz-adv-x="319" unicode="l" /><glyph d="M316 700 205 0H16L126 700Z" glyph-name="l.alt" horiz-adv-x="303" /><glyph d="M25 0ZM249 910H444L443 903L289 769H143L144 774ZM168 0Q87 0 56 38.5Q25 77 37 155L123 700H313L230 174Q227 153 233 144Q239 135 254 135H286L265 0Z" glyph-name="lacute" horiz-adv-x="319" unicode="&#314;" /><glyph d="M25 0ZM453 421H332L383 700H531ZM168 0Q87 0 56 38.5Q25 77 37 155L123 700H313L230 174Q227 153 233 144Q239 135 254 135H286L265 0Z" glyph-name="lcaron" horiz-adv-x="468" unicode="&#318;" /><glyph d="M8 0ZM29 -351 8 -285Q39 -277 64.5 -259.5Q90 -242 101 -216Q62 -215 40.5 -197.5Q19 -180 19 -148Q19 -99 48.5 -74.5Q78 -50 126 -50Q167 -50 190 -71Q213 -92 213 -134Q213 -176 198 -213.5Q183 -251 157.5 -279.5Q132 -308 99 -327Q66 -346 29 -351ZM169 0Q88 0 57 38.5Q26 77 38 155L124 700H314L231 174Q228 153 234 144Q240 135 255 135H287L266 0Z" glyph-name="lcommaaccent" horiz-adv-x="320" unicode="&#316;" /><glyph d="M25 0ZM168 0Q87 0 56 38.5Q25 77 37 155L123 700H313L230 174Q227 153 233 144Q239 135 254 135H286L265 0ZM382 219Q293 219 293 288Q293 341 323.5 364.5Q354 388 403 388Q446 388 469 371Q492 354 492 317Q492 266 462 242.5Q432 219 382 219Z" glyph-name="ldot" horiz-adv-x="475" unicode="&#320;" /><glyph d="M454 457 220 305 402 158 323 68 71 275 82 343 399 550Z" glyph-name="less" horiz-adv-x="506" unicode="&lt;" /><glyph d="M100 314 110 376 405 542 446 458 249 346 410 236 343 149ZM45 0 62 104H394L377 0Z" glyph-name="lessequal" horiz-adv-x="511" unicode="&#8804;" /><glyph d="M283 0H186Q105 0 74 38.5Q43 77 55 155L63 205L-16 155L8 306L87 356L141 700H331L295 473L377 525L353 374L271 322L248 174Q245 153 251 144Q257 135 272 135H304Z" glyph-name="lslash" horiz-adv-x="333" unicode="&#322;" /><glyph d="M15 0 94 502H249L251 418Q285 465 331.5 490.5Q378 516 432 516Q494 516 526.5 485.5Q559 455 569 407Q601 459 649 487.5Q697 516 755 516Q795 516 823.5 504.5Q852 493 870 472Q888 451 896.5 422.5Q905 394 905 360Q905 338 902 317L852 0H663L703 255Q706 276 706 293Q706 347 656 347Q625 347 600 322.5Q575 298 567 247L527 0H338L379 255Q382 276 382 293Q382 347 333 347Q302 347 277 322Q252 297 243 246L204 0Z" glyph-name="m" horiz-adv-x="944" unicode="m" /><glyph d="M450 685 433 584H132L148 685Z" glyph-name="macron" horiz-adv-x="600" unicode="&#175;" /><glyph d="M465 363 448 259H45L61 363Z" glyph-name="minus" horiz-adv-x="511" unicode="&#8722;" /><glyph d="M0 0ZM254 20 243 -58H-18L-8 20Z" glyph-name="minus.inf" horiz-adv-x="318" /><glyph d="M105 117 43 192 182 313 82 434 168 509 266 387 403 508 465 433 328 312 427 193 342 118 243 238Z" glyph-name="multiply" horiz-adv-x="508" unicode="&#215;" /><glyph d="M16 0 94 502H249L251 416Q285 464 334 490Q383 516 441 516Q483 516 513 504.5Q543 493 562.5 472.5Q582 452 591.5 423.5Q601 395 601 361Q601 350 600 338Q599 326 597 315L547 0H358L397 249Q400 271 400 288Q400 320 385.5 333.5Q371 347 342 347Q307 347 279 321.5Q251 296 243 244L205 0Z" glyph-name="n" horiz-adv-x="641" unicode="n" /><glyph d="M16 0ZM388 711H583L582 704L428 570H282L283 575ZM16 0 94 502H249L251 416Q285 464 334 490Q383 516 441 516Q483 516 513 504.5Q543 493 562.5 472.5Q582 452 591.5 423.5Q601 395 601 361Q601 350 600 338Q599 326 597 315L547 0H358L397 249Q400 271 400 288Q400 320 385.5 333.5Q371 347 342 347Q307 347 279 321.5Q251 296 243 244L205 0Z" glyph-name="nacute" horiz-adv-x="641" unicode="&#324;" /><glyph d="M16 0ZM289 570 189 708 190 711H331L378 659L443 711H586L585 708L441 570ZM16 0 94 502H249L251 416Q285 464 334 490Q383 516 441 516Q483 516 513 504.5Q543 493 562.5 472.5Q582 452 591.5 423.5Q601 395 601 361Q601 350 600 338Q599 326 597 315L547 0H358L397 249Q400 271 400 288Q400 320 385.5 333.5Q371 347 342 347Q307 347 279 321.5Q251 296 243 244L205 0Z" glyph-name="ncaron" horiz-adv-x="641" unicode="&#328;" /><glyph d="M16 0ZM177 -351 156 -285Q187 -277 212.5 -259.5Q238 -242 249 -216Q210 -215 188.5 -197.5Q167 -180 167 -148Q167 -99 196.5 -74.5Q226 -50 274 -50Q315 -50 338 -71Q361 -92 361 -134Q361 -176 346 -213.5Q331 -251 305.5 -279.5Q280 -308 247 -327Q214 -346 177 -351ZM16 0 94 502H249L251 416Q285 464 334 490Q383 516 441 516Q483 516 513 504.5Q543 493 562.5 472.5Q582 452 591.5 423.5Q601 395 601 361Q601 350 600 338Q599 326 597 315L547 0H358L397 249Q400 271 400 288Q400 320 385.5 333.5Q371 347 342 347Q307 347 279 321.5Q251 296 243 244L205 0Z" glyph-name="ncommaaccent" horiz-adv-x="641" unicode="&#326;" /><glyph d="M308 387Q329 387 348 394Q367 401 381.5 413.5Q396 426 405 445Q414 464 414 488Q414 522 393 543Q372 564 332 564Q284 564 257 534.5Q230 505 230 460Q230 428 248.5 407.5Q267 387 308 387ZM337 715Q465 715 532 646.5Q599 578 599 438Q599 403 596 369Q593 335 587 303Q558 149 470 67Q382 -15 240 -15Q149 -15 82 11.5Q15 38 -14 93L112 196Q124 167 156 150Q188 133 236 133Q278 133 307.5 148Q337 163 357.5 191Q378 219 390.5 257Q403 295 410 342L413 358Q386 307 341 280Q296 253 236 253Q149 253 98 299.5Q47 346 47 434Q47 492 64.5 543.5Q82 595 118 633Q154 671 208.5 693Q263 715 337 715Z" glyph-name="nine" horiz-adv-x="625" unicode="9" /><glyph d="M336 387Q357 387 377 394Q397 401 412 413.5Q427 426 436.5 445Q446 464 446 488Q446 522 424 543Q402 564 360 564Q310 564 281.5 534.5Q253 505 253 460Q253 428 272.5 407.5Q292 387 336 387ZM367 715Q500 715 570 646.5Q640 578 640 438Q640 403 637 369Q634 335 627 303Q595 150 505 67.5Q415 -15 268 -15Q175 -15 107 11.5Q39 38 10 93L138 196Q151 167 183.5 150Q216 133 265 133Q308 133 338.5 148Q369 163 390 191Q411 219 424 257Q437 295 444 342L447 358Q418 305 370.5 277.5Q323 250 260 250Q170 250 117.5 297Q65 344 65 434Q65 492 83.5 543.5Q102 595 139.5 633Q177 671 233.5 693Q290 715 367 715Z" glyph-name="nine.LP" horiz-adv-x="664" /><glyph d="M316 287Q336 287 355 294Q374 301 389 314Q404 327 413 346Q422 365 422 389Q422 423 401 443.5Q380 464 339 464Q293 464 264 436Q235 408 235 360Q235 328 254.5 307.5Q274 287 316 287ZM345 615Q476 615 543.5 547Q611 479 611 339Q611 304 608 270Q605 236 598 204Q568 49 480 -33Q392 -115 247 -115Q156 -115 88.5 -88.5Q21 -62 -8 -6L119 96Q132 67 163.5 50Q195 33 243 33Q317 33 359.5 81Q402 129 419 241L421 257Q364 150 238 150Q151 150 100 197Q49 244 49 333Q49 394 67.5 445.5Q86 497 123.5 534.5Q161 572 216 593.5Q271 615 345 615Z" glyph-name="nine.OP" horiz-adv-x="653" /><glyph d="M308 287Q328 287 347 294Q366 301 380.5 313.5Q395 326 404 345Q413 364 413 388Q413 422 392.5 443Q372 464 332 464Q284 464 257 434.5Q230 405 230 360Q230 328 248 307.5Q266 287 308 287ZM336 615Q464 615 531.5 546.5Q599 478 599 338Q599 303 596 269Q593 235 586 203Q557 49 469 -33Q381 -115 239 -115Q148 -115 81 -88.5Q14 -62 -15 -7L111 96Q123 67 155.5 50Q188 33 236 33Q277 33 307 48Q337 63 357.5 91Q378 119 390.5 157Q403 195 410 242L412 258Q385 207 340 180Q295 153 235 153Q148 153 97 199.5Q46 246 46 334Q46 392 63.5 443.5Q81 495 117 533Q153 571 207.5 593Q262 615 336 615Z" glyph-name="nine.OT" horiz-adv-x="625" /><glyph d="M0 0ZM174 35Q194 35 211 47.5Q228 60 228 83Q228 100 217.5 110Q207 120 185 120Q161 120 146 106Q131 92 131 70Q131 55 141 45Q151 35 174 35ZM130 -213Q72 -213 29 -197Q-14 -181 -33 -149L53 -78Q61 -94 80 -104Q99 -114 126 -114Q172 -114 194 -83Q216 -52 225 -3Q205 -32 179.5 -44Q154 -56 120 -56Q66 -56 35 -28Q4 0 4 53Q4 89 15.5 119.5Q27 150 50 172.5Q73 195 107.5 208Q142 221 188 221Q272 221 315 179.5Q358 138 358 55Q358 10 349 -29Q330 -116 275.5 -164.5Q221 -213 130 -213Z" glyph-name="nine.inf" horiz-adv-x="415" /><glyph d="M476 437 460 333H326L286 285H453L436 181H198L143 116H42L97 181H33L49 285H184L224 333H56L73 437H312L367 503H469L413 437Z" glyph-name="notequal" horiz-adv-x="510" unicode="&#8800;" /><glyph d="M16 0ZM16 0 94 502H249L251 416Q285 464 334 490Q383 516 441 516Q483 516 513 504.5Q543 493 562.5 472.5Q582 452 591.5 423.5Q601 395 601 361Q601 350 600 338Q599 326 597 315L547 0H358L397 249Q400 271 400 288Q400 320 385.5 333.5Q371 347 342 347Q307 347 279 321.5Q251 296 243 244L205 0ZM468 708H573Q571 670 559 644.5Q547 619 529 603.5Q511 588 490 581.5Q469 575 449 575Q426 575 407 580Q388 585 372.5 590.5Q357 596 342.5 601Q328 606 314 606Q297 606 290.5 595.5Q284 585 282 574H175Q177 612 189 637.5Q201 663 218.5 678.5Q236 694 257.5 700.5Q279 707 299 707Q322 707 341 702Q360 697 376.5 691.5Q393 686 407.5 681Q422 676 437 676Q454 676 460 685.5Q466 695 468 708Z" glyph-name="ntilde" horiz-adv-x="641" unicode="&#241;" /><glyph d="M394 401 351 302H465L509 401ZM105 401 159 529H264L340 700H525L449 529H564L639 700H824L748 529H853L799 401H694L650 302H757L703 173H595L520 0H335L410 173H295L220 0H36L111 173H8L62 302H166L210 401Z" glyph-name="numbersign" horiz-adv-x="832" unicode="#" /><glyph d="M34 251Q42 319 67 369Q92 419 130.5 451.5Q169 484 221 500Q273 516 335 516Q456 516 515 465.5Q574 415 574 308Q574 295 573 280.5Q572 266 570 251Q553 119 476.5 52Q400 -15 268 -15Q30 -15 30 194Q30 208 31 222Q32 236 34 251ZM391 250Q395 273 395 295Q395 336 377 354.5Q359 373 320 373Q272 373 247 343.5Q222 314 212 250Q208 227 208 205Q208 163 226 144Q244 125 282 125Q328 125 354 154.5Q380 184 391 250Z" glyph-name="o" horiz-adv-x="605" unicode="o" /><glyph d="M30 0ZM362 711H557L556 704L402 570H256L257 575ZM34 251Q42 319 67 369Q92 419 130.5 451.5Q169 484 221 500Q273 516 335 516Q456 516 515 465.5Q574 415 574 308Q574 295 573 280.5Q572 266 570 251Q553 119 476.5 52Q400 -15 268 -15Q30 -15 30 194Q30 208 31 222Q32 236 34 251ZM391 250Q395 273 395 295Q395 336 377 354.5Q359 373 320 373Q272 373 247 343.5Q222 314 212 250Q208 227 208 205Q208 163 226 144Q244 125 282 125Q328 125 354 154.5Q380 184 391 250Z" glyph-name="oacute" horiz-adv-x="605" unicode="&#243;" /><glyph d="M30 0ZM34 251Q42 319 67 369Q92 419 130.5 451.5Q169 484 221 500Q273 516 335 516Q456 516 515 465.5Q574 415 574 308Q574 295 573 280.5Q572 266 570 251Q553 119 476.5 52Q400 -15 268 -15Q30 -15 30 194Q30 208 31 222Q32 236 34 251ZM391 250Q395 273 395 295Q395 336 377 354.5Q359 373 320 373Q272 373 247 343.5Q222 314 212 250Q208 227 208 205Q208 163 226 144Q244 125 282 125Q328 125 354 154.5Q380 184 391 250ZM431 710H542Q536 668 520 639.5Q504 611 478.5 593.5Q453 576 418 569Q383 562 340 562Q297 562 264 569Q231 576 210 593.5Q189 611 180.5 639.5Q172 668 178 710H287Q282 675 297 663Q312 651 349 651Q386 651 405.5 663Q425 675 431 710Z" glyph-name="obreve" horiz-adv-x="605" unicode="&#335;" /><glyph d="M30 0ZM348 622 283 570H140L141 574L285 711H437L537 574L536 570H396ZM34 251Q42 319 67 369Q92 419 130.5 451.5Q169 484 221 500Q273 516 335 516Q456 516 515 465.5Q574 415 574 308Q574 295 573 280.5Q572 266 570 251Q553 119 476.5 52Q400 -15 268 -15Q30 -15 30 194Q30 208 31 222Q32 236 34 251ZM391 250Q395 273 395 295Q395 336 377 354.5Q359 373 320 373Q272 373 247 343.5Q222 314 212 250Q208 227 208 205Q208 163 226 144Q244 125 282 125Q328 125 354 154.5Q380 184 391 250Z" glyph-name="ocircumflex" horiz-adv-x="605" unicode="&#244;" /><glyph d="M30 0ZM453 565Q411 565 390.5 581Q370 597 370 633Q370 684 398 708Q426 732 474 732Q515 732 536.5 715.5Q558 699 558 664Q558 612 529.5 588.5Q501 565 453 565ZM227 565Q185 565 164.5 581.5Q144 598 144 634Q144 685 172 708.5Q200 732 248 732Q331 732 331 665Q331 612 303 588.5Q275 565 227 565ZM34 251Q42 319 67 369Q92 419 130.5 451.5Q169 484 221 500Q273 516 335 516Q456 516 515 465.5Q574 415 574 308Q574 295 573 280.5Q572 266 570 251Q553 119 476.5 52Q400 -15 268 -15Q30 -15 30 194Q30 208 31 222Q32 236 34 251ZM391 250Q395 273 395 295Q395 336 377 354.5Q359 373 320 373Q272 373 247 343.5Q222 314 212 250Q208 227 208 205Q208 163 226 144Q244 125 282 125Q328 125 354 154.5Q380 184 391 250Z" glyph-name="odieresis" horiz-adv-x="605" unicode="&#246;" /><glyph d="M629 -15Q573 -15 529 -0.5Q485 14 455 44Q384 -15 268 -15Q148 -15 89 38Q30 91 30 195Q30 221 33 251Q50 385 129 450.5Q208 516 335 516Q454 516 510 456Q547 485 595 500.5Q643 516 702 516Q756 516 795.5 500Q835 484 860 456.5Q885 429 897 391Q909 353 909 308Q909 257 895 199H573Q573 113 661 113Q698 113 725 124.5Q752 136 772 162L871 90Q831 38 775.5 11.5Q720 -15 629 -15ZM683 384Q648 384 623 364Q598 344 587 302H741Q741 306 741.5 309.5Q742 313 742 317Q742 349 728.5 366.5Q715 384 683 384ZM391 249Q394 274 394 294Q394 374 320 374Q272 374 246.5 343Q221 312 211 249Q209 237 208 226.5Q207 216 207 206Q207 125 281 125Q373 125 391 249Z" glyph-name="oe" horiz-adv-x="937" unicode="&#339;" /><glyph d="M310 -238Q284 -238 258.5 -232Q233 -226 213.5 -212.5Q194 -199 182 -176.5Q170 -154 170 -121Q170 -79 187.5 -45Q205 -11 234 12Q263 35 300.5 47Q338 59 378 56L375 0Q326 -4 302 -31Q278 -58 278 -87Q278 -116 295 -126Q312 -136 335 -136Q371 -136 404 -119L419 -209Q370 -238 310 -238Z" glyph-name="ogonek" horiz-adv-x="600" unicode="&#731;" /><glyph d="M30 0ZM34 251Q42 319 67 369Q92 419 130.5 451.5Q169 484 221 500Q273 516 335 516Q456 516 515 465.5Q574 415 574 308Q574 295 573 280.5Q572 266 570 251Q553 119 476.5 52Q400 -15 268 -15Q30 -15 30 194Q30 208 31 222Q32 236 34 251ZM391 250Q395 273 395 295Q395 336 377 354.5Q359 373 320 373Q272 373 247 343.5Q222 314 212 250Q208 227 208 205Q208 163 226 144Q244 125 282 125Q328 125 354 154.5Q380 184 391 250ZM274 570 161 704 162 711H363L421 575V570Z" glyph-name="ograve" horiz-adv-x="605" unicode="&#242;" /><glyph d="M30 0ZM465 711H653L652 704L499 570H368V575ZM257 711H431L430 704L290 570H165L166 575ZM34 251Q42 319 67 369Q92 419 130.5 451.5Q169 484 221 500Q273 516 335 516Q456 516 515 465.5Q574 415 574 308Q574 295 573 280.5Q572 266 570 251Q553 119 476.5 52Q400 -15 268 -15Q30 -15 30 194Q30 208 31 222Q32 236 34 251ZM391 250Q395 273 395 295Q395 336 377 354.5Q359 373 320 373Q272 373 247 343.5Q222 314 212 250Q208 227 208 205Q208 163 226 144Q244 125 282 125Q328 125 354 154.5Q380 184 391 250Z" glyph-name="ohungarumlaut" horiz-adv-x="604" unicode="&#337;" /><glyph d="M30 0ZM511 685 494 584H193L209 685ZM34 251Q42 319 67 369Q92 419 130.5 451.5Q169 484 221 500Q273 516 335 516Q456 516 515 465.5Q574 415 574 308Q574 295 573 280.5Q572 266 570 251Q553 119 476.5 52Q400 -15 268 -15Q30 -15 30 194Q30 208 31 222Q32 236 34 251ZM391 250Q395 273 395 295Q395 336 377 354.5Q359 373 320 373Q272 373 247 343.5Q222 314 212 250Q208 227 208 205Q208 163 226 144Q244 125 282 125Q328 125 354 154.5Q380 184 391 250Z" glyph-name="omacron" horiz-adv-x="605" unicode="&#333;" /><glyph d="M54 162H210L260 480L178 434L131 588L364 709H491L404 162H556L530 0H28Z" glyph-name="one" horiz-adv-x="625" unicode="1" /><glyph d="M304 0H109L185 480L102 434L55 588L288 710H417Z" glyph-name="one.LP" horiz-adv-x="431" /><glyph d="M288 0H94L154 380L74 334L27 488L257 610H385Z" glyph-name="one.OP" horiz-adv-x="403" /><glyph d="M51 162H205L238 380L160 334L114 488L341 610H466L396 162H539L513 0H26Z" glyph-name="one.OT" horiz-adv-x="625" /><glyph d="M0 0ZM164 -200H31L73 65Q70 63 63.5 59.5Q57 56 50 52.5Q43 49 37 45Q31 41 28 40L-3 142L143 215H231Z" glyph-name="one.inf" horiz-adv-x="284" /><glyph d="M60 0ZM529 0 542 88 704 210Q730 229 746.5 246Q763 263 763 286Q763 302 750.5 307.5Q738 313 721 313Q695 313 677.5 302Q660 291 641 266L565 327Q601 381 647.5 401Q694 421 752 421Q783 421 810.5 416Q838 411 858.5 399Q879 387 891 367Q903 347 903 317Q903 266 872.5 225Q842 184 791 146L739 106L883 108L867 0ZM227 293H94L136 558Q133 556 126.5 552.5Q120 549 113 545.5Q106 542 100 538Q94 534 91 533L60 635L206 708H294ZM728 700 274 0H106L560 700Z" glyph-name="onehalf" horiz-adv-x="937" unicode="&#189;" /><glyph d="M60 0ZM227 293H94L136 558Q133 556 126.5 552.5Q120 549 113 545.5Q106 542 100 538Q94 534 91 533L60 635L206 708H294ZM728 700 274 0H106L560 700ZM480 73 494 162 648 409H778L631 180H721L740 296H863L845 180H887L871 73H827L815 0H692L704 73Z" glyph-name="onequarter" horiz-adv-x="918" unicode="&#188;" /><glyph d="M60 294ZM227 294H94L136 559Q133 557 126.5 553.5Q120 550 113 546.5Q106 543 100 539Q94 535 91 534L60 636L206 709H294Z" glyph-name="onesuperior" horiz-adv-x="284" unicode="&#185;" /><glyph d="M333 345 310 197H33L57 345Z" glyph-name="onethirdemdash" horiz-adv-x="379" /><glyph d="M199 419Q225 419 242 436.5Q259 454 264 484L266 495H221Q195 495 179 483.5Q163 472 163 449Q163 419 199 419ZM261 392Q240 366 209.5 351Q179 336 139 336Q92 336 64.5 359Q37 382 37 425Q37 459 51 484.5Q65 510 88.5 526.5Q112 543 144 551.5Q176 560 212 560H276Q280 589 265 601Q250 613 215 613Q185 613 158 603Q131 593 111 573L69 652Q101 685 147 700Q193 715 250 715Q284 715 314 708.5Q344 702 366 687.5Q388 673 401 649.5Q414 626 414 592Q414 577 411 558L377 347H262Z" glyph-name="ordfeminine" horiz-adv-x="410" unicode="&#170;" /><glyph d="M301 524Q302 532 302.5 539.5Q303 547 303 554Q303 586 289.5 599.5Q276 613 254 613Q228 613 209 592.5Q190 572 182 524Q181 516 180 509Q179 502 179 495Q179 439 226 439Q254 439 274 460Q294 481 301 524ZM229 715Q269 715 296.5 699.5Q324 684 336 652L355 704H465L408 347H294L293 394Q248 335 176 335Q116 335 81.5 371Q47 407 47 479Q47 496 50 519Q56 570 72 607Q88 644 111.5 668Q135 692 165 703.5Q195 715 229 715Z" glyph-name="ordfeminine.school" horiz-adv-x="450" /><glyph d="M55 526Q66 621 123.5 668Q181 715 271 715Q356 715 398.5 678.5Q441 642 441 565Q441 547 438 526Q426 432 371 384.5Q316 337 222 337Q53 337 53 486Q53 496 53.5 505.5Q54 515 55 526ZM308 526Q311 542 311 556Q311 612 259 612Q227 612 209 591Q191 570 183 526Q181 517 181 509V495Q181 438 232 438Q295 438 308 526Z" glyph-name="ordmasculine" horiz-adv-x="426" unicode="&#186;" /><glyph d="M538 502H641L549 420Q578 373 578 306Q578 293 577 279Q576 265 574 251Q557 120 480 52.5Q403 -15 271 -15Q219 -15 178.5 -3.5Q138 8 109 29L76 0H-26L63 79Q34 125 34 195Q34 221 37 251Q54 385 133 450.5Q212 516 338 516Q444 516 504 471ZM201 202 384 364Q363 382 326 382Q272 382 244.5 348.5Q217 315 204 249Q202 238 200.5 224Q199 210 201 202ZM283 116Q335 116 364 149Q393 182 404 249Q406 259 406.5 268.5Q407 278 407 294L226 133Q246 116 283 116Z" glyph-name="oslash" horiz-adv-x="612" unicode="&#248;" /><glyph d="M30 0ZM34 251Q42 319 67 369Q92 419 130.5 451.5Q169 484 221 500Q273 516 335 516Q456 516 515 465.5Q574 415 574 308Q574 295 573 280.5Q572 266 570 251Q553 119 476.5 52Q400 -15 268 -15Q30 -15 30 194Q30 208 31 222Q32 236 34 251ZM391 250Q395 273 395 295Q395 336 377 354.5Q359 373 320 373Q272 373 247 343.5Q222 314 212 250Q208 227 208 205Q208 163 226 144Q244 125 282 125Q328 125 354 154.5Q380 184 391 250ZM443 708H548Q546 670 534 644.5Q522 619 504 603.5Q486 588 465 581.5Q444 575 424 575Q401 575 382 580Q363 585 347.5 590.5Q332 596 317.5 601Q303 606 289 606Q272 606 265.5 595.5Q259 585 257 574H150Q152 612 164 637.5Q176 663 193.5 678.5Q211 694 232.5 700.5Q254 707 274 707Q297 707 316 702Q335 697 351.5 691.5Q368 686 382.5 681Q397 676 412 676Q429 676 435 685.5Q441 695 443 708Z" glyph-name="otilde" horiz-adv-x="605" unicode="&#245;" /><glyph d="M-13 -186 95 502H252V421Q287 468 334.5 492Q382 516 432 516Q515 516 558 466Q601 416 601 321Q601 307 599.5 292Q598 277 596 260Q588 199 568 148.5Q548 98 516 61.5Q484 25 439 5Q394 -15 337 -15Q252 -15 212 41L176 -186ZM241 247Q239 236 239 227V210Q239 167 257.5 146Q276 125 308 125Q394 125 414 248Q416 256 416.5 269Q417 282 417 292Q417 336 398.5 354.5Q380 373 348 373Q310 373 281 344Q252 315 241 247Z" glyph-name="p" horiz-adv-x="632" unicode="p" /><glyph d="M503 542H452L419 334H471ZM280 337 311 539Q264 535 239 504.5Q214 474 212 432Q208 390 226 365Q244 340 280 337ZM395 186 366 0H227L256 188Q206 193 165.5 211Q125 229 97.5 259Q70 289 56 330.5Q42 372 47 425Q52 486 75 536.5Q98 587 135.5 623.5Q173 660 222.5 680Q272 700 330 700H671L560 0H417L446 186Z" glyph-name="paragraph" horiz-adv-x="692" unicode="&#182;" /><glyph d="M269 -167Q143 -157 84.5 -74.5Q26 8 26 160Q26 188 27.5 218Q29 248 34 280Q60 489 151.5 602Q243 715 403 726L400 569Q359 564 326 548Q293 532 267 498Q241 464 222 411Q203 358 191 280Q185 245 182.5 217Q180 189 180 163Q180 118 188.5 87Q197 56 213.5 35.5Q230 15 253.5 4Q277 -7 308 -10Z" glyph-name="parenleft" horiz-adv-x="369" unicode="(" /><glyph d="M0 0ZM126 -307Q50 -300 14.5 -251Q-21 -202 -21 -111Q-21 -95 -20 -77.5Q-19 -60 -16 -42Q2 76 56.5 145Q111 214 207 222V121Q158 116 127.5 78Q97 40 83 -42Q81 -56 79 -75.5Q77 -95 77 -108Q77 -159 96.5 -180.5Q116 -202 153 -206Z" glyph-name="parenleft.inf" horiz-adv-x="238" /><glyph d="M99 727Q225 717 283.5 634.5Q342 552 342 400Q342 372 340.5 342Q339 312 334 280Q308 71 216.5 -42Q125 -155 -35 -166L-32 -9Q9 -5 42 11.5Q75 28 101 62Q127 96 146 149Q165 202 177 280Q183 315 185.5 343Q188 371 188 397Q188 442 179.5 473Q171 504 154.5 524.5Q138 545 114.5 556Q91 567 60 570Z" glyph-name="parenright" horiz-adv-x="369" unicode=")" /><glyph d="M0 0ZM15 121 42 222Q118 215 153.5 166Q189 117 189 26Q189 10 188 -7.5Q187 -25 184 -43Q166 -161 111.5 -230Q57 -299 -39 -307V-206Q10 -201 40.5 -163Q71 -125 85 -43Q87 -29 89 -9.5Q91 10 91 23Q91 74 71.5 95.5Q52 117 15 121Z" glyph-name="parenright.inf" horiz-adv-x="238" /><glyph d="M53 0ZM862 421Q950 421 991 380.5Q1032 340 1032 259Q1032 245 1031 232Q1030 219 1028 203Q1014 99 961.5 43Q909 -13 806 -13Q718 -13 677 27Q636 67 636 148Q636 161 637.5 174.5Q639 188 641 203Q655 312 708 366.5Q761 421 862 421ZM853 318Q824 318 804 293Q784 268 773 204Q771 189 769.5 176.5Q768 164 768 153Q768 118 780 104Q792 90 815 90Q844 90 864 114.5Q884 139 895 203Q897 219 899 231.5Q901 244 901 255Q901 290 888.5 304Q876 318 853 318ZM279 714Q367 714 408 673.5Q449 633 449 552Q449 538 448 525Q447 512 445 496Q431 392 378.5 336Q326 280 223 280Q135 280 94 320Q53 360 53 441Q53 454 54.5 467.5Q56 481 58 496Q72 605 125 659.5Q178 714 279 714ZM270 611Q241 611 221 586Q201 561 190 497Q188 482 186.5 469.5Q185 457 185 446Q185 411 197 397Q209 383 232 383Q261 383 281 407.5Q301 432 312 496Q314 512 316 524.5Q318 537 318 548Q318 583 305.5 597Q293 611 270 611ZM853 700 399 0H231L685 700Z" glyph-name="percent" horiz-adv-x="1073" unicode="%" /><glyph d="M95 -8Q6 -8 6 69Q6 119 33 150Q60 181 119 181Q208 181 208 102Q208 48 177.5 20Q147 -8 95 -8Z" glyph-name="period" horiz-adv-x="265" unicode="." /><glyph d="M40 245ZM129 245Q40 245 40 322Q40 372 67 403Q94 434 153 434Q242 434 242 355Q242 301 211.5 273Q181 245 129 245Z" glyph-name="periodcentered" horiz-adv-x="270" unicode="&#183;" /><glyph d="M53 0ZM862 421Q950 421 991 380.5Q1032 340 1032 259Q1032 245 1031 232Q1030 219 1028 203Q1014 99 961.5 43Q909 -13 806 -13Q718 -13 677 27Q636 67 636 148Q636 161 637.5 174.5Q639 188 641 203Q655 312 708 366.5Q761 421 862 421ZM853 318Q824 318 804 293Q784 268 773 204Q771 189 769.5 176.5Q768 164 768 153Q768 118 780 104Q792 90 815 90Q844 90 864 114.5Q884 139 895 203Q897 219 899 231.5Q901 244 901 255Q901 290 888.5 304Q876 318 853 318ZM279 714Q367 714 408 673.5Q449 633 449 552Q449 538 448 525Q447 512 445 496Q431 392 378.5 336Q326 280 223 280Q135 280 94 320Q53 360 53 441Q53 454 54.5 467.5Q56 481 58 496Q72 605 125 659.5Q178 714 279 714ZM270 611Q241 611 221 586Q201 561 190 497Q188 482 186.5 469.5Q185 457 185 446Q185 411 197 397Q209 383 232 383Q261 383 281 407.5Q301 432 312 496Q314 512 316 524.5Q318 537 318 548Q318 583 305.5 597Q293 611 270 611ZM1293 421Q1381 421 1422 380.5Q1463 340 1463 259Q1463 245 1462 232Q1461 219 1459 203Q1445 99 1392.5 43Q1340 -13 1237 -13Q1149 -13 1108 27Q1067 67 1067 148Q1067 161 1068.5 174.5Q1070 188 1072 203Q1086 312 1139 366.5Q1192 421 1293 421ZM1284 318Q1255 318 1235 293Q1215 268 1204 204Q1202 189 1200.5 176.5Q1199 164 1199 153Q1199 118 1211 104Q1223 90 1246 90Q1275 90 1295 114.5Q1315 139 1326 203Q1328 219 1330 231.5Q1332 244 1332 255Q1332 290 1319.5 304Q1307 318 1284 318ZM853 700 399 0H231L685 700Z" glyph-name="perthousand" horiz-adv-x="1506" unicode="&#8240;" /><glyph d="M283 110H162L186 259H45L61 363H203L227 515H348L323 363H465L448 259H307Z" glyph-name="plus" horiz-adv-x="511" unicode="+" /><glyph d="M0 0ZM146 -143H50L64 -58H-18L-8 20H75L89 107H185L171 20H254L243 -58H160Z" glyph-name="plus.inf" horiz-adv-x="318" /><glyph d="M299 153H178L198 280H57L73 384H215L235 515H356L335 384H477L460 280H319ZM432 104 417 0H13L29 104Z" glyph-name="plusminus" horiz-adv-x="511" unicode="&#177;" /><glyph glyph-name="punctuationspace" horiz-adv-x="265" unicode="&#8200;" /><glyph d="M505 -186H316L352 43Q324 15 288 0Q252 -15 210 -15Q127 -15 78.5 35Q30 85 30 185Q30 199 31 213Q32 227 34 243Q43 313 65.5 364.5Q88 416 121 449.5Q154 483 196 499.5Q238 516 286 516Q342 516 380 494Q418 472 435 427L462 502H614ZM389 250Q392 272 392 290Q392 336 372 355.5Q352 375 319 375Q280 375 253.5 346Q227 317 216 249Q213 226 213 207Q213 128 280 128Q320 128 349 157.5Q378 187 389 250Z" glyph-name="q" horiz-adv-x="630" unicode="q" /><glyph d="M534 553Q534 496 518.5 452.5Q503 409 475 378Q447 347 408 328.5Q369 310 321 304L301 229H162L182 414H246Q297 414 329.5 438.5Q362 463 362 517Q362 545 341 563Q320 581 273 581Q234 581 201.5 563.5Q169 546 140 497L37 571Q83 646 151.5 685Q220 724 313 724Q422 724 478 682.5Q534 641 534 553ZM193 -8Q104 -8 104 70Q104 125 134.5 153Q165 181 216 181Q260 181 283 161.5Q306 142 306 103Q306 49 275.5 20.5Q245 -8 193 -8Z" glyph-name="question" horiz-adv-x="509" unicode="?" /><glyph d="M-9 -43Q-9 14 6.5 57.5Q22 101 50 132Q78 163 117 181.5Q156 200 204 206L224 281H363L343 96H279Q228 96 195.5 71.5Q163 47 163 -7Q163 -35 184 -53Q205 -71 252 -71Q291 -71 323.5 -53.5Q356 -36 385 13L488 -61Q442 -136 373.5 -175Q305 -214 212 -214Q103 -214 47 -172.5Q-9 -131 -9 -43ZM332 518Q421 518 421 440Q421 385 390.5 357Q360 329 309 329Q265 329 242 348.5Q219 368 219 407Q219 461 249.5 489.5Q280 518 332 518Z" glyph-name="questiondown" horiz-adv-x="515" unicode="&#191;" /><glyph d="M13 153Q13 210 28.5 253.5Q44 297 72 328Q100 359 139 377.5Q178 396 226 402L246 477H385L365 292H301Q250 292 217.5 267.5Q185 243 185 189Q185 161 206 143Q227 125 274 125Q313 125 345.5 142.5Q378 160 407 209L510 135Q464 60 395.5 21Q327 -18 234 -18Q125 -18 69 23.5Q13 65 13 153ZM354 714Q443 714 443 636Q443 581 412.5 553Q382 525 331 525Q287 525 264 544.5Q241 564 241 603Q241 657 271.5 685.5Q302 714 354 714Z" glyph-name="questiondown.cap" horiz-adv-x="526" /><glyph d="M363 413H244L283 715H437ZM190 413H71L93 715H247Z" glyph-name="quotedbl" horiz-adv-x="417" unicode="&quot;" /><glyph d="M10 -150 -14 -78Q16 -69 40.5 -51Q65 -33 76 -7Q44 -4 26.5 14Q9 32 9 64Q9 117 37.5 142.5Q66 168 114 168Q153 168 175.5 148Q198 128 198 84Q198 46 186 9Q174 -28 150.5 -60Q127 -92 91.5 -116Q56 -140 10 -150ZM234 -150 210 -78Q240 -69 264.5 -51Q289 -33 300 -7Q268 -4 250.5 14Q233 32 233 64Q233 117 261.5 142.5Q290 168 338 168Q377 168 399.5 148Q422 128 422 84Q422 46 410 9Q398 -28 374.5 -60Q351 -92 315.5 -116Q280 -140 234 -150Z" glyph-name="quotedblbase" horiz-adv-x="479" unicode="&#8222;" /><glyph d="M257 759 281 685Q251 677 226.5 658.5Q202 640 191 614Q223 611 240.5 592.5Q258 574 258 542Q258 489 229.5 463.5Q201 438 152 438Q112 438 89.5 458Q67 478 67 522Q67 560 79 597.5Q91 635 115 667.5Q139 700 174.5 724Q210 748 257 759ZM480 759 504 685Q474 677 449.5 658.5Q425 640 414 614Q446 611 463.5 592.5Q481 574 481 542Q481 489 452.5 463.5Q424 438 375 438Q335 438 312.5 458Q290 478 290 522Q290 560 302 597.5Q314 635 338 667.5Q362 700 397.5 724Q433 748 480 759Z" glyph-name="quotedblleft" horiz-adv-x="479" unicode="&#8220;" /><glyph d="M95 428 71 501Q101 509 125.5 527.5Q150 546 161 572Q129 575 111.5 593.5Q94 612 94 644Q94 696 122.5 722Q151 748 200 748Q239 748 261.5 728Q284 708 284 664Q284 626 272 588.5Q260 551 236 518.5Q212 486 176.5 462Q141 438 95 428ZM319 428 295 501Q325 509 349.5 527.5Q374 546 385 572Q353 575 335.5 593.5Q318 612 318 644Q318 696 346.5 722Q375 748 424 748Q463 748 485.5 728Q508 708 508 664Q508 626 496 588.5Q484 551 460 518.5Q436 486 400.5 462Q365 438 319 428Z" glyph-name="quotedblright" horiz-adv-x="479" unicode="&#8221;" /><glyph d="M257 759 281 685Q251 677 226.5 658.5Q202 640 191 614Q223 611 240.5 592.5Q258 574 258 542Q258 489 229.5 463.5Q201 438 152 438Q112 438 89.5 458Q67 478 67 522Q67 560 79 597.5Q91 635 115 667.5Q139 700 174.5 724Q210 748 257 759Z" glyph-name="quoteleft" horiz-adv-x="256" unicode="&#8216;" /><glyph d="M95 429 71 502Q101 510 125.5 528.5Q150 547 161 573Q129 576 111.5 594.5Q94 613 94 645Q94 697 122.5 723Q151 749 200 749Q239 749 261.5 729Q284 709 284 665Q284 627 272 589.5Q260 552 236 519.5Q212 487 176.5 463Q141 439 95 429Z" glyph-name="quoteright" horiz-adv-x="256" unicode="&#8217;" /><glyph d="M10 -150 -14 -78Q16 -69 40.5 -51Q65 -33 76 -7Q44 -4 26.5 14Q9 32 9 64Q9 117 37.5 142.5Q66 168 114 168Q153 168 175.5 148Q198 128 198 84Q198 46 186 9Q174 -28 150.5 -60Q127 -92 91.5 -116Q56 -140 10 -150Z" glyph-name="quotesinglbase" horiz-adv-x="256" unicode="&#8218;" /><glyph d="M190 413H70L101 715H256Z" glyph-name="quotesingle" horiz-adv-x="236" unicode="'" /><glyph d="M15 0 94 502H250L252 405Q285 458 333.5 488Q382 518 439 518L412 334Q334 339 289.5 295.5Q245 252 233 179L205 0Z" glyph-name="r" horiz-adv-x="419" unicode="r" /><glyph d="M15 0ZM315 711H510L509 704L355 570H209L210 575ZM15 0 94 502H250L252 405Q285 458 333.5 488Q382 518 439 518L412 334Q334 339 289.5 295.5Q245 252 233 179L205 0Z" glyph-name="racute" horiz-adv-x="420" unicode="&#341;" /><glyph d="M15 0ZM222 570 122 708 123 711H264L311 659L376 711H519L518 708L374 570ZM15 0 94 502H250L252 405Q285 458 333.5 488Q382 518 439 518L412 334Q334 339 289.5 295.5Q245 252 233 179L205 0Z" glyph-name="rcaron" horiz-adv-x="419" unicode="&#345;" /><glyph d="M0 0ZM6 -351 -15 -285Q16 -277 41.5 -259.5Q67 -242 78 -216Q39 -215 17.5 -197.5Q-4 -180 -4 -148Q-4 -99 25.5 -74.5Q55 -50 103 -50Q144 -50 167 -71Q190 -92 190 -134Q190 -176 175 -213.5Q160 -251 134.5 -279.5Q109 -308 76 -327Q43 -346 6 -351ZM16 0 95 502H251L253 405Q286 458 334.5 488Q383 518 440 518L413 334Q335 339 290.5 295.5Q246 252 234 179L206 0Z" glyph-name="rcommaaccent" horiz-adv-x="420" unicode="&#343;" /><glyph d="M81 521Q94 610 151.5 662.5Q209 715 303 715Q385 715 428.5 673Q472 631 472 559Q472 550 471.5 539.5Q471 529 469 519Q455 430 398 378.5Q341 327 247 327Q164 327 121 369Q78 411 78 483Q78 501 81 521ZM120 521Q118 511 117 502Q116 493 116 484Q116 421 153 390.5Q190 360 250 360Q283 360 313 370Q343 380 367 400.5Q391 421 407 451Q423 481 429 521Q432 542 432 558Q432 621 396 651.5Q360 682 301 682Q233 682 183 642Q133 602 120 521ZM284 572H258L251 528H274Q289 528 298 534Q307 540 307 554Q307 572 284 572ZM178 429 208 620H305Q335 620 349.5 604.5Q364 589 364 563Q364 535 353.5 517.5Q343 500 326 489Q329 479 336.5 459Q344 439 348 429H286L273 478H243L236 429Z" glyph-name="registered" horiz-adv-x="464" unicode="&#174;" /><glyph d="M247 497 206 426Q139 449 104.5 499Q70 549 70 623Q70 689 93.5 719Q117 749 162 749Q210 749 235 727Q260 705 260 664Q260 621 236.5 597Q213 573 173 575Q178 548 198 527Q218 506 247 497ZM470 497 429 426Q363 449 328 499Q293 549 293 623Q293 689 317 719Q341 749 386 749Q433 749 458.5 727Q484 705 484 664Q484 621 460.5 597Q437 573 396 575Q401 548 421 527Q441 506 470 497Z" glyph-name="reversequotedblleft" horiz-adv-x="459" /><glyph d="M247 497 206 426Q139 449 104.5 499Q70 549 70 623Q70 689 93.5 719Q117 749 162 749Q210 749 235 727Q260 705 260 664Q260 618 235.5 595.5Q211 573 173 574Q178 548 198 527Q218 506 247 497Z" glyph-name="reversequoteleft" horiz-adv-x="237" /><glyph d="M290 550Q245 550 212.5 573Q180 596 180 644Q180 673 190 696Q200 719 218 734.5Q236 750 260.5 758.5Q285 767 313 767Q364 767 393.5 742.5Q423 718 423 674Q423 615 385.5 582.5Q348 550 290 550ZM308 700Q287 700 273 687Q259 674 259 650Q259 633 268.5 624.5Q278 616 295 616Q315 616 329.5 629Q344 642 344 667Q344 683 334.5 691.5Q325 700 308 700Z" glyph-name="ring" horiz-adv-x="600" unicode="&#730;" /><glyph d="M220 104Q288 104 288 138Q288 151 277.5 157Q267 163 238 171L200 181Q171 188 145.5 201Q120 214 100.5 233Q81 252 69.5 278Q58 304 58 338Q58 374 72 406Q86 438 114.5 462.5Q143 487 187.5 501.5Q232 516 292 516Q366 516 415 493Q464 470 496 427L397 336Q378 360 349 375Q320 390 281 390Q247 390 233 381.5Q219 373 219 358Q219 344 229 337Q239 330 265 322L315 308Q379 290 418 256Q457 222 457 168Q457 133 444 100Q431 67 402 41.5Q373 16 326.5 0.5Q280 -15 214 -15Q131 -15 75 11Q19 37 -10 86L87 168Q108 136 143.5 120Q179 104 220 104Z" glyph-name="s" horiz-adv-x="507" unicode="s" /><glyph d="M0 0ZM310 711H505L504 704L350 570H204L205 575ZM222 104Q290 104 290 138Q290 151 279.5 157Q269 163 240 171L202 181Q173 188 147.5 201Q122 214 102.5 233Q83 252 71.5 278Q60 304 60 338Q60 374 74 406Q88 438 116.5 462.5Q145 487 189.5 501.5Q234 516 294 516Q368 516 417 493Q466 470 498 427L399 336Q380 360 351 375Q322 390 283 390Q249 390 235 381.5Q221 373 221 358Q221 344 231 337Q241 330 267 322L317 308Q381 290 420 256Q459 222 459 168Q459 133 446 100Q433 67 404 41.5Q375 16 328.5 0.5Q282 -15 216 -15Q133 -15 77 11Q21 37 -8 86L89 168Q110 136 145.5 120Q181 104 222 104Z" glyph-name="sacute" horiz-adv-x="508" unicode="&#347;" /><glyph d="M0 0ZM211 570 111 708 112 711H253L300 659L365 711H508L507 708L363 570ZM222 104Q290 104 290 138Q290 151 279.5 157Q269 163 240 171L202 181Q173 188 147.5 201Q122 214 102.5 233Q83 252 71.5 278Q60 304 60 338Q60 374 74 406Q88 438 116.5 462.5Q145 487 189.5 501.5Q234 516 294 516Q368 516 417 493Q466 470 498 427L399 336Q380 360 351 375Q322 390 283 390Q249 390 235 381.5Q221 373 221 358Q221 344 231 337Q241 330 267 322L317 308Q381 290 420 256Q459 222 459 168Q459 133 446 100Q433 67 404 41.5Q375 16 328.5 0.5Q282 -15 216 -15Q133 -15 77 11Q21 37 -8 86L89 168Q110 136 145.5 120Q181 104 222 104Z" glyph-name="scaron" horiz-adv-x="508" unicode="&#353;" /><glyph d="M153 -258Q105 -258 67 -239.5Q29 -221 11 -183L79 -122Q92 -145 110 -157.5Q128 -170 158 -170Q178 -170 193 -161.5Q208 -153 208 -134Q208 -122 201.5 -115Q195 -108 185.5 -105Q176 -102 164 -102Q152 -102 141 -103L116 -90L156 -11Q39 5 -8 86L89 168Q110 136 145.5 120Q181 104 222 104Q290 104 290 138Q290 151 279.5 157Q269 163 240 171L202 181Q173 188 147.5 201Q122 214 102.5 233Q83 252 71.5 278Q60 304 60 338Q60 374 74 406Q88 438 116.5 462.5Q145 487 189.5 501.5Q234 516 294 516Q368 516 417 493Q466 470 498 427L399 336Q380 360 351 375Q322 390 283 390Q249 390 235 381.5Q221 373 221 358Q221 344 231 337Q241 330 267 322L317 308Q381 290 420 256Q459 222 459 168Q459 135 447.5 103.5Q436 72 410 47Q384 22 343 5.5Q302 -11 243 -14L224 -46Q261 -51 288.5 -73.5Q316 -96 316 -139Q316 -168 303.5 -190.5Q291 -213 269 -228Q247 -243 217 -250.5Q187 -258 153 -258Z" glyph-name="scedilla" horiz-adv-x="508" unicode="&#351;" /><glyph d="M0 0ZM296 622 231 570H88L89 574L233 711H385L485 574L484 570H344ZM222 104Q290 104 290 138Q290 151 279.5 157Q269 163 240 171L202 181Q173 188 147.5 201Q122 214 102.5 233Q83 252 71.5 278Q60 304 60 338Q60 374 74 406Q88 438 116.5 462.5Q145 487 189.5 501.5Q234 516 294 516Q368 516 417 493Q466 470 498 427L399 336Q380 360 351 375Q322 390 283 390Q249 390 235 381.5Q221 373 221 358Q221 344 231 337Q241 330 267 322L317 308Q381 290 420 256Q459 222 459 168Q459 133 446 100Q433 67 404 41.5Q375 16 328.5 0.5Q282 -15 216 -15Q133 -15 77 11Q21 37 -8 86L89 168Q110 136 145.5 120Q181 104 222 104Z" glyph-name="scircumflex" horiz-adv-x="508" unicode="&#349;" /><glyph d="M0 0ZM100 -351 79 -285Q110 -277 135.5 -259.5Q161 -242 172 -216Q133 -215 111.5 -197.5Q90 -180 90 -148Q90 -99 119.5 -74.5Q149 -50 197 -50Q238 -50 261 -71Q284 -92 284 -134Q284 -176 269 -213.5Q254 -251 228.5 -279.5Q203 -308 170 -327Q137 -346 100 -351ZM222 104Q290 104 290 138Q290 151 279.5 157Q269 163 240 171L202 181Q173 188 147.5 201Q122 214 102.5 233Q83 252 71.5 278Q60 304 60 338Q60 374 74 406Q88 438 116.5 462.5Q145 487 189.5 501.5Q234 516 294 516Q368 516 417 493Q466 470 498 427L399 336Q380 360 351 375Q322 390 283 390Q249 390 235 381.5Q221 373 221 358Q221 344 231 337Q241 330 267 322L317 308Q381 290 420 256Q459 222 459 168Q459 133 446 100Q433 67 404 41.5Q375 16 328.5 0.5Q282 -15 216 -15Q133 -15 77 11Q21 37 -8 86L89 168Q110 136 145.5 120Q181 104 222 104Z" glyph-name="scommaaccent" horiz-adv-x="508" unicode="&#537;" /><glyph d="M240 293 252 289Q284 281 304.5 293Q325 305 325 332Q325 352 311 362.5Q297 373 271 380L256 384Q228 391 207 379.5Q186 368 186 340Q186 323 197.5 312.5Q209 302 240 293ZM191 -37Q119 -37 69 -17Q19 3 -7 47L92 135Q107 111 132 96Q157 81 202 81Q274 81 274 123Q274 140 260 147.5Q246 155 217 163L190 171Q111 193 77 232.5Q43 272 43 323Q43 361 61 396Q79 431 121 452Q85 487 85 541Q85 578 100.5 610Q116 642 145.5 665Q175 688 218 701.5Q261 715 317 715Q383 715 426.5 696Q470 677 497 637L399 547Q381 569 359 580.5Q337 592 304 592Q273 592 256 581.5Q239 571 239 553Q239 539 248.5 529Q258 519 289 511L333 499Q402 479 437 444.5Q472 410 472 353Q472 315 455 281Q438 247 396 226Q414 209 423.5 188Q433 167 433 138Q433 105 420 73.5Q407 42 378.5 17.5Q350 -7 303.5 -22Q257 -37 191 -37Z" glyph-name="section" horiz-adv-x="519" unicode="&#167;" /><glyph d="M0 0ZM9 -161 -17 -83Q15 -74 41.5 -54.5Q68 -35 79 -7Q45 -4 26 15Q7 34 7 69Q7 125 37.5 152.5Q68 180 120 180Q162 180 186 158.5Q210 137 210 90Q210 50 197 10Q184 -30 159 -64.5Q134 -99 96 -124.5Q58 -150 9 -161ZM149 315Q60 315 60 392Q60 442 87 473Q114 504 173 504Q262 504 262 425Q262 371 231.5 343Q201 315 149 315Z" glyph-name="semicolon" horiz-adv-x="265" unicode=";" /><glyph d="M109 0Q122 86 150.5 163.5Q179 241 218 308.5Q257 376 305.5 433Q354 490 408 536L78 529L105 700H630L610 568Q488 449 416.5 310.5Q345 172 321 0Z" glyph-name="seven" horiz-adv-x="625" unicode="7" /><glyph d="M96 0Q109 86 138 163.5Q167 241 206.5 308.5Q246 376 295.5 433Q345 490 400 536L65 529L92 700H625L604 568Q481 449 409 310.5Q337 172 312 0Z" glyph-name="seven.LP" horiz-adv-x="554" /><glyph d="M71 -100Q84 -14 111 63.5Q138 141 176 208.5Q214 276 260.5 333Q307 390 360 436L42 429L67 600H574L554 468Q437 349 368 210.5Q299 72 277 -100Z" glyph-name="seven.OP" horiz-adv-x="526" /><glyph d="M98 -100Q111 -14 139.5 63.5Q168 141 207 208.5Q246 276 295 333Q344 390 398 436L68 429L94 600H620L599 468Q478 349 406.5 210.5Q335 72 311 -100Z" glyph-name="seven.OT" horiz-adv-x="625" /><glyph d="M0 0ZM16 -200Q31 -100 78.5 -25.5Q126 49 190 100L-3 96L15 208H346L331 125Q295 87 267 50Q239 13 218.5 -26Q198 -65 184.5 -108Q171 -151 164 -200Z" glyph-name="seven.inf" horiz-adv-x="355" /><glyph d="M294 -15Q166 -15 98.5 52.5Q31 120 31 260Q31 295 34 329Q37 363 44 394Q73 548 160.5 631.5Q248 715 389 715Q479 715 544 683.5Q609 652 631 592L506 494Q493 529 466.5 548Q440 567 395 567Q353 567 323.5 551.5Q294 536 273.5 508Q253 480 240.5 441Q228 402 221 356L217 335Q273 440 395 440Q482 440 532.5 394Q583 348 583 261Q583 204 565.5 153.5Q548 103 512 65.5Q476 28 421.5 6.5Q367 -15 294 -15ZM322 305Q301 305 282 298.5Q263 292 248.5 279Q234 266 225.5 247.5Q217 229 217 205Q217 173 237.5 151.5Q258 130 299 130Q347 130 373.5 159.5Q400 189 400 234Q400 266 381.5 285.5Q363 305 322 305Z" glyph-name="six" horiz-adv-x="625" unicode="6" /><glyph d="M337 -15Q202 -15 129 52Q56 119 56 261Q56 301 62 346Q73 433 101.5 501.5Q130 570 175.5 617.5Q221 665 285 690Q349 715 432 715Q477 715 517.5 707.5Q558 700 590 685Q622 670 645 647Q668 624 678 594L548 494Q543 507 535.5 520Q528 533 515 543.5Q502 554 483 560.5Q464 567 436 567Q392 567 361.5 551.5Q331 536 309.5 508.5Q288 481 275 442Q262 403 254 356L252 342Q280 385 324.5 413Q369 441 435 441Q525 441 580 395Q635 349 635 261Q635 199 614 148Q593 97 554.5 61Q516 25 461 5Q406 -15 337 -15ZM361 305Q340 305 320.5 298.5Q301 292 285.5 279Q270 266 261 247.5Q252 229 252 205Q252 173 273.5 151.5Q295 130 337 130Q387 130 415.5 159.5Q444 189 444 234Q444 266 424.5 285.5Q405 305 361 305Z" glyph-name="six.LP" horiz-adv-x="674" /><glyph d="M311 -15Q181 -15 112.5 52.5Q44 120 44 260Q44 295 47 329Q50 363 57 394Q87 549 175 632Q263 715 406 715Q496 715 561.5 683.5Q627 652 648 592L523 494Q510 529 484 548Q458 567 412 567Q370 567 340 551.5Q310 536 289 508Q268 480 255.5 441.5Q243 403 236 357L233 336Q291 440 417 440Q504 440 555 394Q606 348 606 261Q606 204 588 153.5Q570 103 533.5 65.5Q497 28 441.5 6.5Q386 -15 311 -15ZM339 305Q318 305 299 298.5Q280 292 265.5 279.5Q251 267 242 248.5Q233 230 233 206Q233 174 254 152Q275 130 316 130Q364 130 392 159.5Q420 189 420 234Q420 266 401 285.5Q382 305 339 305Z" glyph-name="six.OP" horiz-adv-x="650" /><glyph d="M294 -15Q166 -15 98.5 52.5Q31 120 31 260Q31 295 34 329Q37 363 44 394Q73 548 161 631.5Q249 715 389 715Q479 715 544.5 683.5Q610 652 631 592L506 494Q493 529 466.5 548Q440 567 395 567Q353 567 323.5 551.5Q294 536 273.5 508Q253 480 240.5 441Q228 402 221 356L218 335Q273 440 396 440Q482 440 533 394Q584 348 584 261Q584 204 566 153.5Q548 103 512 65.5Q476 28 421.5 6.5Q367 -15 294 -15ZM322 305Q301 305 282 298.5Q263 292 248.5 279Q234 266 225.5 247.5Q217 229 217 205Q217 173 237.5 151.5Q258 130 299 130Q347 130 374 159.5Q401 189 401 234Q401 266 382 285.5Q363 305 322 305Z" glyph-name="six.OT" horiz-adv-x="625" /><glyph d="M0 0ZM344 -48Q344 -83 332.5 -113Q321 -143 298 -165Q275 -187 240 -200Q205 -213 158 -213Q75 -213 32 -171.5Q-11 -130 -11 -47Q-11 -2 -2 37Q16 124 71 172.5Q126 221 216 221Q273 221 314.5 202Q356 183 370 146L283 79Q275 100 261 110.5Q247 121 221 121Q173 121 151 91.5Q129 62 121 7Q157 58 227 58Q280 58 312 31Q344 4 344 -48ZM173 -31Q152 -31 135.5 -43Q119 -55 119 -78Q119 -94 129.5 -104.5Q140 -115 162 -115Q187 -115 200.5 -100.5Q214 -86 214 -66Q214 -51 204.5 -41Q195 -31 173 -31Z" glyph-name="six.inf" horiz-adv-x="418" /><glyph glyph-name="sixperemspace" horiz-adv-x="167" unicode="&#8198;" /><glyph d="M643 700 172 0H-38L433 700Z" glyph-name="slash" horiz-adv-x="574" unicode="/" /><glyph glyph-name="space" horiz-adv-x="230" unicode=" " /><glyph d="M583 76Q536 29 478 14.5Q420 0 352 0H-23L2 154H30Q53 154 65 175.5Q77 197 82 239L87 281H21L40 399H102L112 483Q120 547 146 591Q172 635 209.5 662.5Q247 690 292.5 702.5Q338 715 384 715Q437 715 477 705.5Q517 696 547 676Q577 656 598.5 625Q620 594 635 551L493 472Q480 507 457 529.5Q434 552 391 552Q345 552 324 526.5Q303 501 298 459L291 399H433L414 281H278L273 240Q267 189 249 153H380Q415 153 453.5 166.5Q492 180 519 203Z" glyph-name="sterling" horiz-adv-x="617" unicode="&#163;" /><glyph d="M430 502 408 362H281L254 193Q248 149 264 136.5Q280 124 308 124Q323 124 338.5 127Q354 130 369 138L379 21Q348 4 312.5 -5Q277 -14 237 -14Q201 -14 169 -7Q137 0 113 17Q89 34 75.5 62.5Q62 91 62 133Q62 144 63.5 158Q65 172 67 185L95 362H26L48 502H118L140 642H325L303 502Z" glyph-name="t" horiz-adv-x="421" unicode="t" /><glyph d="M20 311H87L95 362H26L48 502H118L140 642H325L303 502H430L408 362H281L273 311H401L387 215H257L254 193Q248 149 264 136.5Q280 124 308 124Q323 124 338.5 127Q354 130 369 138L379 21Q348 4 312.5 -5Q277 -14 237 -14Q201 -14 169 -7Q137 0 113 17Q89 34 75.5 62.5Q62 91 62 133Q62 144 63.5 158Q65 172 67 185L71 215H6Z" glyph-name="tbar" horiz-adv-x="423" unicode="&#359;" /><glyph d="M476 554H365L403 751H540ZM430 502 408 362H281L254 193Q248 149 264 136.5Q280 124 308 124Q323 124 338.5 127Q354 130 369 138L379 21Q348 4 312.5 -5Q277 -14 237 -14Q201 -14 169 -7Q137 0 113 17Q89 34 75.5 62.5Q62 91 62 133Q62 144 63.5 158Q65 172 67 185L95 362H26L48 502H118L140 642H325L303 502Z" glyph-name="tcaron" horiz-adv-x="436" unicode="&#357;" /><glyph d="M26 0ZM132 -351 111 -285Q142 -277 167.5 -259.5Q193 -242 204 -216Q165 -215 143.5 -197.5Q122 -180 122 -148Q122 -99 151.5 -74.5Q181 -50 229 -50Q270 -50 293 -71Q316 -92 316 -134Q316 -176 301 -213.5Q286 -251 260.5 -279.5Q235 -308 202 -327Q169 -346 132 -351ZM430 502 408 362H281L254 193Q248 149 264 136.5Q280 124 308 124Q323 124 338.5 127Q354 130 369 138L379 21Q348 4 312.5 -5Q277 -14 237 -14Q201 -14 169 -7Q137 0 113 17Q89 34 75.5 62.5Q62 91 62 133Q62 144 63.5 158Q65 172 67 185L95 362H26L48 502H118L140 642H325L303 502Z" glyph-name="tcommaaccent" horiz-adv-x="421" unicode="&#355;" /><glyph glyph-name="thinspace" horiz-adv-x="200" unicode="&#8201;" /><glyph d="M317 700 277 448Q308 483 348 499.5Q388 516 432 516Q515 516 558 466Q601 416 601 321Q601 306 599.5 291.5Q598 277 596 260Q588 199 568 148.5Q548 98 516 61.5Q484 25 439 5Q394 -15 337 -15Q250 -15 212 43L176 -186H-13L127 700ZM241 247Q239 237 239 228V211Q239 166 257.5 145.5Q276 125 308 125Q353 125 378.5 156.5Q404 188 414 248Q417 273 417 292Q417 336 398.5 354.5Q380 373 348 373Q310 373 281 344Q252 315 241 247Z" glyph-name="thorn" horiz-adv-x="633" unicode="&#254;" /><glyph d="M260 -15Q167 -15 104.5 19Q42 53 8 133L151 219Q170 172 196.5 153Q223 134 267 134Q315 134 347.5 155.5Q380 177 380 225Q380 253 358.5 266.5Q337 280 290 280H219L240 419H311Q357 419 383 440Q409 461 409 502Q409 531 388 545.5Q367 560 328 560Q287 560 260 542.5Q233 525 207 490L89 566Q141 648 209 681.5Q277 715 370 715Q484 715 541.5 669Q599 623 599 545Q599 517 591.5 488.5Q584 460 570 434.5Q556 409 535.5 388Q515 367 489 353Q522 336 540.5 306.5Q559 277 559 232Q559 176 538 130.5Q517 85 478 52.5Q439 20 383.5 2.5Q328 -15 260 -15Z" glyph-name="three" horiz-adv-x="625" unicode="3" /><glyph d="M264 -15Q169 -15 104 21.5Q39 58 4 136L154 215Q174 173 201 155Q228 137 273 137Q320 137 352 157.5Q384 178 384 223Q384 252 362.5 265.5Q341 279 291 279H218L241 419H313Q359 419 385.5 440.5Q412 462 412 500Q412 558 329 558Q291 558 262.5 542Q234 526 207 489L86 579Q133 646 200 680.5Q267 715 370 715Q494 715 552 669.5Q610 624 610 541Q610 476 577.5 430.5Q545 385 492 354Q528 334 548.5 305Q569 276 569 226Q569 172 547 127.5Q525 83 485.5 51.5Q446 20 389.5 2.5Q333 -15 264 -15Z" glyph-name="three.LP" horiz-adv-x="618" /><glyph d="M233 -116Q142 -116 79 -81Q16 -46 -17 34L127 120Q145 74 171 53.5Q197 33 239 33Q287 33 319.5 55Q352 77 352 125Q352 153 331 166.5Q310 180 262 180H192L214 319H284Q329 319 355 340Q381 361 381 402Q381 461 301 461Q260 461 234.5 444Q209 427 183 390L62 466Q114 549 183 582Q252 615 343 615Q458 615 516.5 569Q575 523 575 445Q575 417 567.5 388.5Q560 360 545.5 334.5Q531 309 510.5 288Q490 267 463 253Q497 236 515.5 206Q534 176 534 131Q534 75 512.5 29.5Q491 -16 452 -48.5Q413 -81 357.5 -98.5Q302 -116 233 -116Z" glyph-name="three.OP" horiz-adv-x="598" /><glyph d="M243 -115Q150 -115 87 -81Q24 -47 -9 33L134 119Q153 72 179.5 53Q206 34 249 34Q298 34 330.5 55.5Q363 77 363 125Q363 153 341.5 166.5Q320 180 272 180H201L223 319H294Q339 319 365.5 340Q392 361 392 402Q392 431 371 445.5Q350 460 311 460Q270 460 243 442.5Q216 425 190 390L71 466Q124 548 191.5 581.5Q259 615 352 615Q467 615 524.5 569Q582 523 582 445Q582 417 574.5 388.5Q567 360 553 334.5Q539 309 518.5 288Q498 267 472 253Q505 236 523.5 206.5Q542 177 542 132Q542 76 521 30.5Q500 -15 461 -47.5Q422 -80 366.5 -97.5Q311 -115 243 -115Z" glyph-name="three.OT" horiz-adv-x="625" /><glyph d="M0 0ZM124 -213Q65 -213 23.5 -191Q-18 -169 -40 -119L63 -67Q76 -90 90.5 -100.5Q105 -111 129 -111Q152 -111 168 -102Q184 -93 184 -73Q184 -58 172.5 -51.5Q161 -45 133 -45H94L109 46H147Q172 46 186 57Q200 68 200 86Q200 116 157 116Q137 116 122 107Q107 98 92 77L9 136Q38 178 79.5 199.5Q121 221 185 221Q265 221 300.5 193Q336 165 336 115Q336 75 317 48.5Q298 22 267 3Q287 -8 299 -25Q311 -42 311 -72Q311 -104 297.5 -129.5Q284 -155 259 -174Q234 -193 200 -203Q166 -213 124 -213Z" glyph-name="three.inf" horiz-adv-x="388" /><glyph glyph-name="threeperemspace" horiz-adv-x="333" unicode="&#8196;" /><glyph d="M640 345 617 197H33L57 345Z" glyph-name="threequarteremdash" horiz-adv-x="690" /><glyph d="M33 0ZM197 280Q138 280 96.5 302Q55 324 33 374L136 426Q149 403 163.5 392.5Q178 382 202 382Q225 382 241 391Q257 400 257 420Q257 435 245.5 441.5Q234 448 206 448H167L182 539H220Q245 539 259 550Q273 561 273 579Q273 609 230 609Q210 609 195 600Q180 591 165 570L82 629Q111 671 152.5 692.5Q194 714 258 714Q338 714 373.5 686Q409 658 409 608Q409 568 390 541.5Q371 515 340 496Q360 485 372 468Q384 451 384 421Q384 389 370.5 363.5Q357 338 332 319Q307 300 273 290Q239 280 197 280ZM828 700 374 0H206L660 700ZM573 73 587 162 741 409H871L724 180H814L833 296H956L938 180H980L964 73H920L908 0H785L797 73Z" glyph-name="threequarters" horiz-adv-x="1011" unicode="&#190;" /><glyph d="M35 281ZM199 281Q140 281 98.5 303Q57 325 35 375L138 427Q151 404 165.5 393.5Q180 383 204 383Q227 383 243 392Q259 401 259 421Q259 436 247.5 442.5Q236 449 208 449H169L184 540H222Q247 540 261 551Q275 562 275 580Q275 610 232 610Q212 610 197 601Q182 592 167 571L84 630Q113 672 154.5 693.5Q196 715 260 715Q340 715 375.5 687Q411 659 411 609Q411 569 392 542.5Q373 516 342 497Q362 486 374 469Q386 452 386 422Q386 390 372.5 364.5Q359 339 334 320Q309 301 275 291Q241 281 199 281Z" glyph-name="threesuperior" horiz-adv-x="390" unicode="&#179;" /><glyph d="M399 708H504Q502 670 490 644.5Q478 619 460 603.5Q442 588 421 581.5Q400 575 380 575Q357 575 338 580Q319 585 303.5 590.5Q288 596 273.5 601Q259 606 245 606Q228 606 221.5 595.5Q215 585 213 574H106Q108 612 120 637.5Q132 663 149.5 678.5Q167 694 188.5 700.5Q210 707 230 707Q253 707 272 702Q291 697 307.5 691.5Q324 686 338.5 681Q353 676 368 676Q385 676 391 685.5Q397 695 399 708Z" glyph-name="tilde" horiz-adv-x="600" unicode="&#732;" /><glyph d="M80 700H362L348 610H261L229 406H128L160 610H66ZM726 406H634L656 540L579 406H494L458 541L438 406H345L392 700H502L551 510L663 700H773Z" glyph-name="trademark" horiz-adv-x="721" unicode="&#8482;" /><glyph d="M4 0 25 137 279 340Q302 358 323.5 376.5Q345 395 361.5 414Q378 433 387.5 453.5Q397 474 397 497Q397 528 377 540.5Q357 553 323 553Q273 553 240.5 532Q208 511 177 468L68 560Q126 645 199 680Q272 715 368 715Q416 715 457.5 706.5Q499 698 529.5 677.5Q560 657 577 623.5Q594 590 594 541Q594 497 581 459Q568 421 544 386Q520 351 485.5 317.5Q451 284 408 249L295 157L562 163L536 0Z" glyph-name="two" horiz-adv-x="625" unicode="2" /><glyph d="M2 0 23 137 283 340Q306 358 327.5 376.5Q349 395 366 413.5Q383 432 393.5 452.5Q404 473 404 496Q404 528 383 540.5Q362 553 327 553Q275 553 242 532Q209 511 178 468L63 560Q92 603 125 633Q158 663 196 681Q234 699 276.5 707Q319 715 368 715Q418 715 461.5 706.5Q505 698 537 677.5Q569 657 587.5 623.5Q606 590 606 541Q606 457 557 389Q508 321 417 249L303 157L575 163L549 0Z" glyph-name="two.LP" horiz-adv-x="618" /><glyph d="M-10 0 8 118 229 289Q251 306 270 322Q289 338 303.5 353.5Q318 369 326.5 386Q335 403 335 422Q335 443 319 452.5Q303 462 279 462Q242 462 217 444Q192 426 166 387L49 467Q100 549 165.5 582Q231 615 318 615Q362 615 401.5 607.5Q441 600 470.5 583Q500 566 517 538Q534 510 534 469Q534 430 521.5 397Q509 364 486 333Q463 302 430 271.5Q397 241 356 209L266 136L495 143L473 0Z" glyph-name="two.OP" horiz-adv-x="554" /><glyph d="M19 0 36 122 266 288Q286 303 306.5 317.5Q327 332 344 347Q361 362 372.5 377.5Q384 393 385 411Q387 439 368 450.5Q349 462 318 462Q278 462 251 444Q224 426 195 385L78 466Q135 549 203.5 582Q272 615 361 615Q409 615 450.5 607Q492 599 522 580Q552 561 568.5 530Q585 499 584 454Q582 384 531 323Q480 262 392 203L294 137L550 144L528 0Z" glyph-name="two.OT" horiz-adv-x="625" /><glyph d="M0 0ZM-40 -200 -27 -112 135 10Q161 29 177.5 46Q194 63 194 86Q194 102 181.5 107.5Q169 113 152 113Q126 113 108.5 102Q91 91 72 66L-4 127Q32 181 78.5 201Q125 221 183 221Q214 221 241.5 216Q269 211 289.5 199Q310 187 322 167Q334 147 334 117Q334 66 303.5 25Q273 -16 222 -54L170 -94L314 -92L298 -200Z" glyph-name="two.inf" horiz-adv-x="390" /><glyph d="M24 294ZM24 294 37 382 199 504Q225 523 241.5 540Q258 557 258 580Q258 596 245.5 601.5Q233 607 216 607Q190 607 172.5 596Q155 585 136 560L60 621Q96 675 142.5 695Q189 715 247 715Q278 715 305.5 710Q333 705 353.5 693Q374 681 386 661Q398 641 398 611Q398 560 367.5 519Q337 478 286 440L234 400L378 402L362 294Z" glyph-name="twosuperior" horiz-adv-x="391" unicode="&#178;" /><glyph d="M204 -15Q160 -15 128 -3.5Q96 8 75.5 28.5Q55 49 45.5 76.5Q36 104 36 137Q36 148 36.5 156.5Q37 165 39 176L91 502H281L240 242Q237 221 237 205Q237 144 294 144Q326 144 353.5 170Q381 196 390 252L429 502H619L540 0H385L384 76Q351 32 304.5 8.5Q258 -15 204 -15Z" glyph-name="u" horiz-adv-x="638" unicode="u" /><glyph d="M36 0ZM388 711H583L582 704L428 570H282L283 575ZM204 -15Q160 -15 128 -3.5Q96 8 75.5 28.5Q55 49 45.5 76.5Q36 104 36 137Q36 148 36.5 156.5Q37 165 39 176L91 502H281L240 242Q237 221 237 205Q237 144 294 144Q326 144 353.5 170Q381 196 390 252L429 502H619L540 0H385L384 76Q351 32 304.5 8.5Q258 -15 204 -15Z" glyph-name="uacute" horiz-adv-x="638" unicode="&#250;" /><glyph d="M36 0ZM204 -15Q160 -15 128 -3.5Q96 8 75.5 28.5Q55 49 45.5 76.5Q36 104 36 137Q36 148 36.5 156.5Q37 165 39 176L91 502H281L240 242Q237 221 237 205Q237 144 294 144Q326 144 353.5 170Q381 196 390 252L429 502H619L540 0H385L384 76Q351 32 304.5 8.5Q258 -15 204 -15ZM457 710H568Q562 668 546 639.5Q530 611 504.5 593.5Q479 576 444 569Q409 562 366 562Q323 562 290 569Q257 576 236 593.5Q215 611 206.5 639.5Q198 668 204 710H313Q308 675 323 663Q338 651 375 651Q412 651 431.5 663Q451 675 457 710Z" glyph-name="ubreve" horiz-adv-x="638" unicode="&#365;" /><glyph d="M36 0ZM374 622 309 570H166L167 574L311 711H463L563 574L562 570H422ZM204 -15Q160 -15 128 -3.5Q96 8 75.5 28.5Q55 49 45.5 76.5Q36 104 36 137Q36 148 36.5 156.5Q37 165 39 176L91 502H281L240 242Q237 221 237 205Q237 144 294 144Q326 144 353.5 170Q381 196 390 252L429 502H619L540 0H385L384 76Q351 32 304.5 8.5Q258 -15 204 -15Z" glyph-name="ucircumflex" horiz-adv-x="638" unicode="&#251;" /><glyph d="M36 0ZM479 565Q437 565 416.5 581Q396 597 396 633Q396 684 424 708Q452 732 500 732Q541 732 562.5 715.5Q584 699 584 664Q584 612 555.5 588.5Q527 565 479 565ZM253 565Q211 565 190.5 581.5Q170 598 170 634Q170 685 198 708.5Q226 732 274 732Q357 732 357 665Q357 612 329 588.5Q301 565 253 565ZM204 -15Q160 -15 128 -3.5Q96 8 75.5 28.5Q55 49 45.5 76.5Q36 104 36 137Q36 148 36.5 156.5Q37 165 39 176L91 502H281L240 242Q237 221 237 205Q237 144 294 144Q326 144 353.5 170Q381 196 390 252L429 502H619L540 0H385L384 76Q351 32 304.5 8.5Q258 -15 204 -15Z" glyph-name="udieresis" horiz-adv-x="638" unicode="&#252;" /><glyph d="M36 0ZM204 -15Q160 -15 128 -3.5Q96 8 75.5 28.5Q55 49 45.5 76.5Q36 104 36 137Q36 148 36.5 156.5Q37 165 39 176L91 502H281L240 242Q237 221 237 205Q237 144 294 144Q326 144 353.5 170Q381 196 390 252L429 502H619L540 0H385L384 76Q351 32 304.5 8.5Q258 -15 204 -15ZM300 570 187 704 188 711H389L447 575V570Z" glyph-name="ugrave" horiz-adv-x="638" unicode="&#249;" /><glyph d="M36 0ZM204 -15Q160 -15 128 -3.5Q96 8 75.5 28.5Q55 49 45.5 76.5Q36 104 36 137Q36 148 36.5 156.5Q37 165 39 176L91 502H281L240 242Q237 221 237 205Q237 144 294 144Q326 144 353.5 170Q381 196 390 252L429 502H619L540 0H385L384 76Q351 32 304.5 8.5Q258 -15 204 -15ZM491 711H679L678 704L525 570H394V575ZM283 711H457L456 704L316 570H191L192 575Z" glyph-name="uhungarumlaut" horiz-adv-x="638" unicode="&#369;" /><glyph d="M36 0ZM204 -15Q160 -15 128 -3.5Q96 8 75.5 28.5Q55 49 45.5 76.5Q36 104 36 137Q36 148 36.5 156.5Q37 165 39 176L91 502H281L240 242Q237 221 237 205Q237 144 294 144Q326 144 353.5 170Q381 196 390 252L429 502H619L540 0H385L384 76Q351 32 304.5 8.5Q258 -15 204 -15ZM537 685 520 584H219L235 685Z" glyph-name="umacron" horiz-adv-x="638" unicode="&#363;" /><glyph d="M440 0 417 -148H-63L-39 0Z" glyph-name="underscore" horiz-adv-x="477" unicode="_" /><glyph glyph-name="uni00A0" horiz-adv-x="176" unicode="&#160;" /><glyph d="M364 345 340 197H33L57 345Z" glyph-name="uni00AD" horiz-adv-x="410" unicode="&#173;" /><glyph d="M1024 345 1000 197H33L57 345Z" glyph-name="uni2015" horiz-adv-x="1080" unicode="&#8213;" /><glyph d="M53 281ZM279 715Q367 715 408 674.5Q449 634 449 553Q449 539 448 526Q447 513 445 497Q431 393 378.5 337Q326 281 223 281Q135 281 94 321Q53 361 53 442Q53 455 54.5 468.5Q56 482 58 497Q72 606 125 660.5Q178 715 279 715ZM270 612Q241 612 221 587Q201 562 190 498Q188 483 186.5 470.5Q185 458 185 447Q185 412 197 398Q209 384 232 384Q261 384 281 408.5Q301 433 312 497Q314 513 316 525.5Q318 538 318 549Q318 584 305.5 598Q293 612 270 612Z" glyph-name="uni2070" horiz-adv-x="451" unicode="&#8304;" /><glyph d="M40 294ZM40 367 54 456 208 703H338L191 474H281L300 590H423L405 474H447L431 367H387L375 294H252L264 367Z" glyph-name="uni2074" horiz-adv-x="438" unicode="&#8308;" /><glyph d="M15 281ZM199 602 188 554Q202 558 216.5 560Q231 562 249 562Q317 562 349 533Q381 504 381 447Q381 370 328.5 325.5Q276 281 181 281Q126 281 82 299Q38 317 15 359L113 424Q126 401 142 391Q158 381 184 381Q213 381 231 394.5Q249 408 249 434Q249 456 234.5 464Q220 472 201 472Q185 472 169 467Q153 462 140 450L59 489L111 702H410L394 602Z" glyph-name="uni2075" horiz-adv-x="384" unicode="&#8309;" /><glyph d="M53 281ZM408 446Q408 411 396.5 381Q385 351 362 329Q339 307 304 294Q269 281 222 281Q139 281 96 322.5Q53 364 53 447Q53 492 62 531Q80 618 135 666.5Q190 715 280 715Q337 715 378.5 696Q420 677 434 640L347 573Q339 594 325 604.5Q311 615 285 615Q237 615 215 585.5Q193 556 185 501Q221 552 291 552Q344 552 376 525Q408 498 408 446ZM237 463Q216 463 199.5 451Q183 439 183 416Q183 400 193.5 389.5Q204 379 226 379Q251 379 264.5 393.5Q278 408 278 428Q278 443 268.5 453Q259 463 237 463Z" glyph-name="uni2076" horiz-adv-x="420" unicode="&#8310;" /><glyph d="M61 294ZM80 294Q95 394 142.5 468.5Q190 543 254 594L61 590L79 702H410L395 619Q359 581 331 544Q303 507 282.5 468Q262 429 248.5 386Q235 343 228 294Z" glyph-name="uni2077" horiz-adv-x="357" unicode="&#8311;" /><glyph d="M44 281ZM202 281Q122 281 83 307Q44 333 44 389Q44 436 68 465Q92 494 127 508Q109 520 99.5 537.5Q90 555 90 584Q90 650 139 682.5Q188 715 271 715Q342 715 379 691Q416 667 416 613Q416 576 398.5 549.5Q381 523 349 505Q376 491 387.5 471.5Q399 452 399 422Q399 352 347.5 316.5Q296 281 202 281ZM245 549Q266 549 281.5 560Q297 571 297 592Q297 606 286 614.5Q275 623 258 623Q235 623 220 612Q205 601 205 580Q205 564 216.5 556.5Q228 549 245 549ZM216 368Q239 368 256.5 380.5Q274 393 274 416Q274 433 261.5 442Q249 451 229 451Q203 451 187.5 438.5Q172 426 172 403Q172 368 216 368Z" glyph-name="uni2078" horiz-adv-x="416" unicode="&#8312;" /><glyph d="M24 281ZM231 529Q251 529 268 541.5Q285 554 285 577Q285 594 274.5 604Q264 614 242 614Q218 614 203 600Q188 586 188 564Q188 549 198 539Q208 529 231 529ZM187 281Q129 281 86 297Q43 313 24 345L110 416Q118 400 137 390Q156 380 183 380Q229 380 251 411Q273 442 282 491Q262 462 236.5 450Q211 438 177 438Q123 438 92 466Q61 494 61 547Q61 583 72.5 613.5Q84 644 107 666.5Q130 689 164.5 702Q199 715 245 715Q329 715 372 673.5Q415 632 415 549Q415 504 406 465Q387 378 332.5 329.5Q278 281 187 281Z" glyph-name="uni2079" horiz-adv-x="417" unicode="&#8313;" /><glyph d="M46 359ZM210 359H114L128 444H46L56 522H139L153 609H249L235 522H318L307 444H224Z" glyph-name="uni207A" horiz-adv-x="318" unicode="&#8314;" /><glyph d="M46 444ZM318 522 307 444H46L56 522Z" glyph-name="uni207B" horiz-adv-x="318" unicode="&#8315;" /><glyph d="M39 391ZM326 572 315 493H55L65 572ZM311 470 300 391H39L49 470Z" glyph-name="uni207C" horiz-adv-x="318" unicode="&#8316;" /><glyph d="M43 195ZM190 195Q114 202 78.5 251Q43 300 43 391Q43 407 44 424.5Q45 442 48 460Q66 578 120.5 647Q175 716 271 724V623Q222 618 191.5 580Q161 542 147 460Q145 446 143 426.5Q141 407 141 394Q141 343 160.5 321.5Q180 300 217 296Z" glyph-name="uni207D" horiz-adv-x="239" unicode="&#8317;" /><glyph d="M4 195ZM58 623 85 724Q161 717 196.5 668Q232 619 232 528Q232 512 231 494.5Q230 477 227 459Q209 341 154.5 272Q100 203 4 195V296Q53 301 83.5 339Q114 377 128 459Q130 473 132 492.5Q134 512 134 525Q134 576 114.5 597.5Q95 619 58 623Z" glyph-name="uni207E" horiz-adv-x="239" unicode="&#8318;" /><glyph d="M241 421Q329 421 370 380.5Q411 340 411 259Q411 245 410 232Q409 219 407 203Q393 99 340.5 43Q288 -13 185 -13Q97 -13 56 27Q15 67 15 148Q15 161 16.5 174.5Q18 188 20 203Q34 312 87 366.5Q140 421 241 421ZM232 318Q203 318 183 293Q163 268 152 204Q150 189 148.5 176.5Q147 164 147 153Q147 118 159 104Q171 90 194 90Q223 90 243 114.5Q263 139 274 203Q276 219 278 231.5Q280 244 280 255Q280 290 267.5 304Q255 318 232 318Z" glyph-name="uni2080" horiz-adv-x="450" unicode="&#8320;" /><glyph d="M191 0H58L100 265Q97 263 90.5 259.5Q84 256 77 252.5Q70 249 64 245Q58 241 55 240L24 342L170 415H258Z" glyph-name="uni2081" horiz-adv-x="284" unicode="&#8321;" /><glyph d="M-13 0 0 88 162 210Q188 229 204.5 246Q221 263 221 286Q221 302 208.5 307.5Q196 313 179 313Q153 313 135.5 302Q118 291 99 266L23 327Q59 381 105.5 401Q152 421 210 421Q241 421 268.5 416Q296 411 316.5 399Q337 387 349 367Q361 347 361 317Q361 266 330.5 225Q300 184 249 146L197 106L341 108L325 0Z" glyph-name="uni2082" horiz-adv-x="390" unicode="&#8322;" /><glyph d="M151 -13Q92 -13 50.5 9Q9 31 -13 81L90 133Q103 110 117.5 99.5Q132 89 156 89Q179 89 195 98Q211 107 211 127Q211 142 199.5 148.5Q188 155 160 155H121L136 246H174Q199 246 213 257Q227 268 227 286Q227 316 184 316Q164 316 149 307Q134 298 119 277L36 336Q65 378 106.5 399.5Q148 421 212 421Q292 421 327.5 393Q363 365 363 315Q363 275 344 248.5Q325 222 294 203Q314 192 326 175Q338 158 338 128Q338 96 324.5 70.5Q311 45 286 26Q261 7 227 -3Q193 -13 151 -13Z" glyph-name="uni2083" horiz-adv-x="388" unicode="&#8323;" /><glyph d="M3 73 17 162 171 409H301L154 180H244L263 296H386L368 180H410L394 73H350L338 0H215L227 73Z" glyph-name="uni2084" horiz-adv-x="437" unicode="&#8324;" /><glyph d="M162 308 151 260Q165 264 179.5 266Q194 268 212 268Q280 268 312 239Q344 210 344 153Q344 76 291.5 31.5Q239 -13 144 -13Q89 -13 45 5Q1 23 -22 65L76 130Q89 107 105 97Q121 87 147 87Q176 87 194 100.5Q212 114 212 140Q212 162 197.5 170Q183 178 164 178Q148 178 132 173Q116 168 103 156L22 195L74 408H373L357 308Z" glyph-name="uni2085" horiz-adv-x="383" unicode="&#8325;" /><glyph d="M371 152Q371 117 359.5 87Q348 57 325 35Q302 13 267 0Q232 -13 185 -13Q102 -13 59 28.5Q16 70 16 153Q16 198 25 237Q43 324 98 372.5Q153 421 243 421Q300 421 341.5 402Q383 383 397 346L310 279Q302 300 288 310.5Q274 321 248 321Q200 321 178 291.5Q156 262 148 207Q184 258 254 258Q307 258 339 231Q371 204 371 152ZM200 169Q179 169 162.5 157Q146 145 146 122Q146 106 156.5 95.5Q167 85 189 85Q214 85 227.5 99.5Q241 114 241 134Q241 149 231.5 159Q222 169 200 169Z" glyph-name="uni2086" horiz-adv-x="418" unicode="&#8326;" /><glyph d="M43 0Q58 100 105.5 174.5Q153 249 217 300L24 296L42 408H373L358 325Q322 287 294 250Q266 213 245.5 174Q225 135 211.5 92Q198 49 191 0Z" glyph-name="uni2087" horiz-adv-x="355" unicode="&#8327;" /><glyph d="M165 -13Q85 -13 46 13Q7 39 7 95Q7 142 31 171Q55 200 90 214Q72 226 62.5 243.5Q53 261 53 290Q53 356 102 388.5Q151 421 234 421Q305 421 342 397Q379 373 379 319Q379 282 361.5 255.5Q344 229 312 211Q339 197 350.5 177.5Q362 158 362 128Q362 58 310.5 22.5Q259 -13 165 -13ZM208 255Q229 255 244.5 266Q260 277 260 298Q260 312 249 320.5Q238 329 221 329Q198 329 183 318Q168 307 168 286Q168 270 179.5 262.5Q191 255 208 255ZM179 74Q202 74 219.5 86.5Q237 99 237 122Q237 139 224.5 148Q212 157 192 157Q166 157 150.5 144.5Q135 132 135 109Q135 74 179 74Z" glyph-name="uni2088" horiz-adv-x="414" unicode="&#8328;" /><glyph d="M194 235Q214 235 231 247.5Q248 260 248 283Q248 300 237.5 310Q227 320 205 320Q181 320 166 306Q151 292 151 270Q151 255 161 245Q171 235 194 235ZM150 -13Q92 -13 49 3Q6 19 -13 51L73 122Q81 106 100 96Q119 86 146 86Q192 86 214 117Q236 148 245 197Q225 168 199.5 156Q174 144 140 144Q86 144 55 172Q24 200 24 253Q24 289 35.5 319.5Q47 350 70 372.5Q93 395 127.5 408Q162 421 208 421Q292 421 335 379.5Q378 338 378 255Q378 210 369 171Q350 84 295.5 35.5Q241 -13 150 -13Z" glyph-name="uni2089" horiz-adv-x="415" unicode="&#8329;" /><glyph d="M173 57H77L91 142H9L19 220H102L116 307H212L198 220H281L270 142H187Z" glyph-name="uni208A" horiz-adv-x="318" unicode="&#8330;" /><glyph d="M281 220 270 142H9L19 220Z" glyph-name="uni208B" horiz-adv-x="318" unicode="&#8331;" /><glyph d="M289 270 278 191H18L28 270ZM274 168 263 89H2L12 168Z" glyph-name="uni208C" horiz-adv-x="318" unicode="&#8332;" /><glyph d="M153 -107Q77 -100 41.5 -51Q6 -2 6 89Q6 105 7 122.5Q8 140 11 158Q29 276 83.5 345Q138 414 234 422V321Q185 316 154.5 278Q124 240 110 158Q108 144 106 124.5Q104 105 104 92Q104 41 123.5 19.5Q143 -2 180 -6Z" glyph-name="uni208D" horiz-adv-x="238" unicode="&#8333;" /><glyph d="M21 321 48 422Q124 415 159.5 366Q195 317 195 226Q195 210 194 192.5Q193 175 190 157Q172 39 117.5 -30Q63 -99 -33 -107V-6Q16 -1 46.5 37Q77 75 91 157Q93 171 95 190.5Q97 210 97 223Q97 274 77.5 295.5Q58 317 21 321Z" glyph-name="uni208E" horiz-adv-x="238" unicode="&#8334;" /><glyph d="M60 0ZM674 -13Q615 -13 573.5 9Q532 31 510 81L613 133Q626 110 640.5 99.5Q655 89 679 89Q702 89 718 98Q734 107 734 127Q734 142 722.5 148.5Q711 155 683 155H644L659 246H697Q722 246 736 257Q750 268 750 286Q750 316 707 316Q687 316 672 307Q657 298 642 277L559 336Q588 378 629.5 399.5Q671 421 735 421Q815 421 850.5 393Q886 365 886 315Q886 275 867 248.5Q848 222 817 203Q837 192 849 175Q861 158 861 128Q861 96 847.5 70.5Q834 45 809 26Q784 7 750 -3Q716 -13 674 -13ZM227 293H94L136 558Q133 556 126.5 552.5Q120 549 113 545.5Q106 542 100 538Q94 534 91 533L60 635L206 708H294ZM728 700 274 0H106L560 700Z" glyph-name="uni2153" horiz-adv-x="915" unicode="&#8531;" /><glyph d="M23 0ZM792 -13Q733 -13 691.5 9Q650 31 628 81L731 133Q744 110 758.5 99.5Q773 89 797 89Q820 89 836 98Q852 107 852 127Q852 142 840.5 148.5Q829 155 801 155H762L777 246H815Q840 246 854 257Q868 268 868 286Q868 316 825 316Q805 316 790 307Q775 298 760 277L677 336Q706 378 747.5 399.5Q789 421 853 421Q933 421 968.5 393Q1004 365 1004 315Q1004 275 985 248.5Q966 222 935 203Q955 192 967 175Q979 158 979 128Q979 96 965.5 70.5Q952 45 927 26Q902 7 868 -3Q834 -13 792 -13ZM23 293 36 381 198 503Q224 522 240.5 539Q257 556 257 579Q257 595 244.5 600.5Q232 606 215 606Q189 606 171.5 595Q154 584 135 559L59 620Q95 674 141.5 694Q188 714 246 714Q277 714 304.5 709Q332 704 352.5 692Q373 680 385 660Q397 640 397 610Q397 559 366.5 518Q336 477 285 439L233 399L377 401L361 293ZM847 700 393 0H225L679 700Z" glyph-name="uni2154" horiz-adv-x="1034" unicode="&#8532;" /><glyph d="M60 0ZM227 293H94L136 558Q133 556 126.5 552.5Q120 549 113 545.5Q106 542 100 538Q94 534 91 533L60 635L206 708H294ZM699 308 688 260Q702 264 716.5 266Q731 268 749 268Q817 268 849 239Q881 210 881 153Q881 76 828.5 31.5Q776 -13 681 -13Q626 -13 582 5Q538 23 515 65L613 130Q626 107 642 97Q658 87 684 87Q713 87 731 100.5Q749 114 749 140Q749 162 734.5 170Q720 178 701 178Q685 178 669 173Q653 168 640 156L559 195L611 408H910L894 308ZM728 700 274 0H106L560 700Z" glyph-name="uni2155" horiz-adv-x="924" unicode="&#8533;" /><glyph d="M23 0ZM23 293 36 381 198 503Q224 522 240.5 539Q257 556 257 579Q257 595 244.5 600.5Q232 606 215 606Q189 606 171.5 595Q154 584 135 559L59 620Q95 674 141.5 694Q188 714 246 714Q277 714 304.5 709Q332 704 352.5 692Q373 680 385 660Q397 640 397 610Q397 559 366.5 518Q336 477 285 439L233 399L377 401L361 293ZM818 308 807 260Q821 264 835.5 266Q850 268 868 268Q936 268 968 239Q1000 210 1000 153Q1000 76 947.5 31.5Q895 -13 800 -13Q745 -13 701 5Q657 23 634 65L732 130Q745 107 761 97Q777 87 803 87Q832 87 850 100.5Q868 114 868 140Q868 162 853.5 170Q839 178 820 178Q804 178 788 173Q772 168 759 156L678 195L730 408H1029L1013 308ZM847 700 393 0H225L679 700Z" glyph-name="uni2156" horiz-adv-x="1043" unicode="&#8534;" /><glyph d="M33 0ZM197 280Q138 280 96.5 302Q55 324 33 374L136 426Q149 403 163.5 392.5Q178 382 202 382Q225 382 241 391Q257 400 257 420Q257 435 245.5 441.5Q234 448 206 448H167L182 539H220Q245 539 259 550Q273 561 273 579Q273 609 230 609Q210 609 195 600Q180 591 165 570L82 629Q111 671 152.5 692.5Q194 714 258 714Q338 714 373.5 686Q409 658 409 608Q409 568 390 541.5Q371 515 340 496Q360 485 372 468Q384 451 384 421Q384 389 370.5 363.5Q357 338 332 319Q307 300 273 290Q239 280 197 280ZM802 308 791 260Q805 264 819.5 266Q834 268 852 268Q920 268 952 239Q984 210 984 153Q984 76 931.5 31.5Q879 -13 784 -13Q729 -13 685 5Q641 23 618 65L716 130Q729 107 745 97Q761 87 787 87Q816 87 834 100.5Q852 114 852 140Q852 162 837.5 170Q823 178 804 178Q788 178 772 173Q756 168 743 156L662 195L714 408H1013L997 308ZM828 700 374 0H206L660 700Z" glyph-name="uni2157" horiz-adv-x="1027" unicode="&#8535;" /><glyph d="M40 0ZM846 308 835 260Q849 264 863.5 266Q878 268 896 268Q964 268 996 239Q1028 210 1028 153Q1028 76 975.5 31.5Q923 -13 828 -13Q773 -13 729 5Q685 23 662 65L760 130Q773 107 789 97Q805 87 831 87Q860 87 878 100.5Q896 114 896 140Q896 162 881.5 170Q867 178 848 178Q832 178 816 173Q800 168 787 156L706 195L758 408H1057L1041 308ZM874 700 420 0H252L706 700ZM40 366 54 455 208 702H338L191 473H281L300 589H423L405 473H447L431 366H387L375 293H252L264 366Z" glyph-name="uni2158" horiz-adv-x="1071" unicode="&#8536;" /><glyph d="M60 0ZM227 293H94L136 558Q133 556 126.5 552.5Q120 549 113 545.5Q106 542 100 538Q94 534 91 533L60 635L206 708H294ZM880 152Q880 117 868.5 87Q857 57 834 35Q811 13 776 0Q741 -13 694 -13Q611 -13 568 28.5Q525 70 525 153Q525 198 534 237Q552 324 607 372.5Q662 421 752 421Q809 421 850.5 402Q892 383 906 346L819 279Q811 300 797 310.5Q783 321 757 321Q709 321 687 291.5Q665 262 657 207Q693 258 763 258Q816 258 848 231Q880 204 880 152ZM709 169Q688 169 671.5 157Q655 145 655 122Q655 106 665.5 95.5Q676 85 698 85Q723 85 736.5 99.5Q750 114 750 134Q750 149 740.5 159Q731 169 709 169ZM728 700 274 0H106L560 700Z" glyph-name="uni2159" horiz-adv-x="931" unicode="&#8537;" /><glyph d="M15 0ZM199 601 188 553Q202 557 216.5 559Q231 561 249 561Q317 561 349 532Q381 503 381 446Q381 369 328.5 324.5Q276 280 181 280Q126 280 82 298Q38 316 15 358L113 423Q126 400 142 390Q158 380 184 380Q213 380 231 393.5Q249 407 249 433Q249 455 234.5 463Q220 471 201 471Q185 471 169 466Q153 461 140 449L59 488L111 701H410L394 601ZM972 152Q972 117 960.5 87Q949 57 926 35Q903 13 868 0Q833 -13 786 -13Q703 -13 660 28.5Q617 70 617 153Q617 198 626 237Q644 324 699 372.5Q754 421 844 421Q901 421 942.5 402Q984 383 998 346L911 279Q903 300 889 310.5Q875 321 849 321Q801 321 779 291.5Q757 262 749 207Q785 258 855 258Q908 258 940 231Q972 204 972 152ZM801 169Q780 169 763.5 157Q747 145 747 122Q747 106 757.5 95.5Q768 85 790 85Q815 85 828.5 99.5Q842 114 842 134Q842 149 832.5 159Q823 169 801 169ZM820 700 366 0H198L652 700Z" glyph-name="uni215A" horiz-adv-x="1023" unicode="&#8538;" /><glyph d="M60 0ZM227 293H94L136 558Q133 556 126.5 552.5Q120 549 113 545.5Q106 542 100 538Q94 534 91 533L60 635L206 708H294ZM679 -13Q599 -13 560 13Q521 39 521 95Q521 142 545 171Q569 200 604 214Q586 226 576.5 243.5Q567 261 567 290Q567 356 616 388.5Q665 421 748 421Q819 421 856 397Q893 373 893 319Q893 282 875.5 255.5Q858 229 826 211Q853 197 864.5 177.5Q876 158 876 128Q876 58 824.5 22.5Q773 -13 679 -13ZM722 255Q743 255 758.5 266Q774 277 774 298Q774 312 763 320.5Q752 329 735 329Q712 329 697 318Q682 307 682 286Q682 270 693.5 262.5Q705 255 722 255ZM693 74Q716 74 733.5 86.5Q751 99 751 122Q751 139 738.5 148Q726 157 706 157Q680 157 664.5 144.5Q649 132 649 109Q649 74 693 74ZM728 700 274 0H106L560 700Z" glyph-name="uni215B" horiz-adv-x="932" unicode="&#8539;" /><glyph d="M33 0ZM197 280Q138 280 96.5 302Q55 324 33 374L136 426Q149 403 163.5 392.5Q178 382 202 382Q225 382 241 391Q257 400 257 420Q257 435 245.5 441.5Q234 448 206 448H167L182 539H220Q245 539 259 550Q273 561 273 579Q273 609 230 609Q210 609 195 600Q180 591 165 570L82 629Q111 671 152.5 692.5Q194 714 258 714Q338 714 373.5 686Q409 658 409 608Q409 568 390 541.5Q371 515 340 496Q360 485 372 468Q384 451 384 421Q384 389 370.5 363.5Q357 338 332 319Q307 300 273 290Q239 280 197 280ZM780 -13Q700 -13 661 13Q622 39 622 95Q622 142 646 171Q670 200 705 214Q687 226 677.5 243.5Q668 261 668 290Q668 356 717 388.5Q766 421 849 421Q920 421 957 397Q994 373 994 319Q994 282 976.5 255.5Q959 229 927 211Q954 197 965.5 177.5Q977 158 977 128Q977 58 925.5 22.5Q874 -13 780 -13ZM823 255Q844 255 859.5 266Q875 277 875 298Q875 312 864 320.5Q853 329 836 329Q813 329 798 318Q783 307 783 286Q783 270 794.5 262.5Q806 255 823 255ZM794 74Q817 74 834.5 86.5Q852 99 852 122Q852 139 839.5 148Q827 157 807 157Q781 157 765.5 144.5Q750 132 750 109Q750 74 794 74ZM828 700 374 0H206L660 700Z" glyph-name="uni215C" horiz-adv-x="1033" unicode="&#8540;" /><glyph d="M15 0ZM769 -13Q689 -13 650 13Q611 39 611 95Q611 142 635 171Q659 200 694 214Q676 226 666.5 243.5Q657 261 657 290Q657 356 706 388.5Q755 421 838 421Q909 421 946 397Q983 373 983 319Q983 282 965.5 255.5Q948 229 916 211Q943 197 954.5 177.5Q966 158 966 128Q966 58 914.5 22.5Q863 -13 769 -13ZM812 255Q833 255 848.5 266Q864 277 864 298Q864 312 853 320.5Q842 329 825 329Q802 329 787 318Q772 307 772 286Q772 270 783.5 262.5Q795 255 812 255ZM783 74Q806 74 823.5 86.5Q841 99 841 122Q841 139 828.5 148Q816 157 796 157Q770 157 754.5 144.5Q739 132 739 109Q739 74 783 74ZM199 601 188 553Q202 557 216.5 559Q231 561 249 561Q317 561 349 532Q381 503 381 446Q381 369 328.5 324.5Q276 280 181 280Q126 280 82 298Q38 316 15 358L113 423Q126 400 142 390Q158 380 184 380Q213 380 231 393.5Q249 407 249 433Q249 455 234.5 463Q220 471 201 471Q185 471 169 466Q153 461 140 449L59 488L111 701H410L394 601ZM820 700 366 0H198L652 700Z" glyph-name="uni215D" horiz-adv-x="1023" unicode="&#8541;" /><glyph d="M61 0ZM688 -13Q608 -13 569 13Q530 39 530 95Q530 142 554 171Q578 200 613 214Q595 226 585.5 243.5Q576 261 576 290Q576 356 625 388.5Q674 421 757 421Q828 421 865 397Q902 373 902 319Q902 282 884.5 255.5Q867 229 835 211Q862 197 873.5 177.5Q885 158 885 128Q885 58 833.5 22.5Q782 -13 688 -13ZM731 255Q752 255 767.5 266Q783 277 783 298Q783 312 772 320.5Q761 329 744 329Q721 329 706 318Q691 307 691 286Q691 270 702.5 262.5Q714 255 731 255ZM702 74Q725 74 742.5 86.5Q760 99 760 122Q760 139 747.5 148Q735 157 715 157Q689 157 673.5 144.5Q658 132 658 109Q658 74 702 74ZM80 293Q95 393 142.5 467.5Q190 542 254 593L61 589L79 701H410L395 618Q359 580 331 543Q303 506 282.5 467Q262 428 248.5 385Q235 342 228 293ZM738 700 284 0H116L570 700Z" glyph-name="uni215E" horiz-adv-x="942" unicode="&#8542;" /><glyph d="M60 0ZM227 293H94L136 558Q133 556 126.5 552.5Q120 549 113 545.5Q106 542 100 538Q94 534 91 533L60 635L206 708H294ZM754 700 300 0H132L586 700Z" glyph-name="uni215F" horiz-adv-x="870" unicode="&#8543;" /><glyph d="M456 -238Q430 -238 404.5 -232Q379 -226 359.5 -212.5Q340 -199 328 -176.5Q316 -154 316 -121Q316 -76 335.5 -42.5Q355 -9 385 14V76Q351 31 304.5 8Q258 -15 204 -15Q160 -15 128 -3.5Q96 8 75.5 28.5Q55 49 45.5 76.5Q36 104 36 137Q36 156 39 176L91 502H282L240 243Q237 220 237 205Q237 144 294 144Q326 144 353.5 170Q381 196 390 252L429 502H619L540 0H521Q472 -4 448 -31.5Q424 -59 424 -87Q424 -116 441 -126Q458 -136 481 -136Q517 -136 550 -119L565 -209Q516 -238 456 -238Z" glyph-name="uogonek" horiz-adv-x="638" unicode="&#371;" /><glyph d="M36 0ZM366 550Q321 550 288.5 573Q256 596 256 644Q256 673 266 696Q276 719 294 734.5Q312 750 336.5 758.5Q361 767 389 767Q440 767 469.5 742.5Q499 718 499 674Q499 615 461.5 582.5Q424 550 366 550ZM384 700Q363 700 349 687Q335 674 335 650Q335 633 344.5 624.5Q354 616 371 616Q391 616 405.5 629Q420 642 420 667Q420 683 410.5 691.5Q401 700 384 700ZM204 -15Q160 -15 128 -3.5Q96 8 75.5 28.5Q55 49 45.5 76.5Q36 104 36 137Q36 148 36.5 156.5Q37 165 39 176L91 502H281L240 242Q237 221 237 205Q237 144 294 144Q326 144 353.5 170Q381 196 390 252L429 502H619L540 0H385L384 76Q351 32 304.5 8.5Q258 -15 204 -15Z" glyph-name="uring" horiz-adv-x="638" unicode="&#367;" /><glyph d="M36 0ZM204 -15Q160 -15 128 -3.5Q96 8 75.5 28.5Q55 49 45.5 76.5Q36 104 36 137Q36 148 36.5 156.5Q37 165 39 176L91 502H281L240 242Q237 221 237 205Q237 144 294 144Q326 144 353.5 170Q381 196 390 252L429 502H619L540 0H385L384 76Q351 32 304.5 8.5Q258 -15 204 -15ZM469 708H574Q572 670 560 644.5Q548 619 530 603.5Q512 588 491 581.5Q470 575 450 575Q427 575 408 580Q389 585 373.5 590.5Q358 596 343.5 601Q329 606 315 606Q298 606 291.5 595.5Q285 585 283 574H176Q178 612 190 637.5Q202 663 219.5 678.5Q237 694 258.5 700.5Q280 707 300 707Q323 707 342 702Q361 697 377.5 691.5Q394 686 408.5 681Q423 676 438 676Q455 676 461 685.5Q467 695 469 708Z" glyph-name="utilde" horiz-adv-x="638" unicode="&#361;" /><glyph d="M45 502H237L282 192L416 502H615L348 0H153Z" glyph-name="v" horiz-adv-x="584" unicode="v" /><glyph d="M369 501H511L549 221L661 502H833L602 0H439L407 288L284 0H120L45 502H217L244 220Z" glyph-name="w" horiz-adv-x="802" unicode="w" /><glyph d="M45 0ZM470 711H665L664 704L510 570H364L365 575ZM369 501H511L549 221L661 502H833L602 0H439L407 288L284 0H120L45 502H217L244 220Z" glyph-name="wacute" horiz-adv-x="802" unicode="&#7811;" /><glyph d="M45 0ZM456 622 391 570H248L249 574L393 711H545L645 574L644 570H504ZM369 501H511L549 221L661 502H833L602 0H439L407 288L284 0H120L45 502H217L244 220Z" glyph-name="wcircumflex" horiz-adv-x="802" unicode="&#373;" /><glyph d="M45 0ZM561 565Q519 565 498.5 581Q478 597 478 633Q478 684 506 708Q534 732 582 732Q623 732 644.5 715.5Q666 699 666 664Q666 612 637.5 588.5Q609 565 561 565ZM335 565Q293 565 272.5 581.5Q252 598 252 634Q252 685 280 708.5Q308 732 356 732Q439 732 439 665Q439 612 411 588.5Q383 565 335 565ZM369 501H511L549 221L661 502H833L602 0H439L407 288L284 0H120L45 502H217L244 220Z" glyph-name="wdieresis" horiz-adv-x="802" unicode="&#7813;" /><glyph d="M45 0ZM369 501H511L549 221L661 502H833L602 0H439L407 288L284 0H120L45 502H217L244 220ZM382 570 269 704 270 711H471L529 575V570Z" glyph-name="wgrave" horiz-adv-x="802" unicode="&#7809;" /><glyph d="M52 502H249L304 362L404 502H600L394 249L530 0H333L268 141L159 0H-37L180 253Z" glyph-name="x" horiz-adv-x="574" unicode="x" /><glyph d="M141 -29 156 2 45 502H237L284 189L419 502H618L299 -92Q279 -129 254 -154Q229 -179 200 -194Q171 -209 137 -215.5Q103 -222 66 -222Q28 -222 2 -216.5Q-24 -211 -47 -200L-14 -66Q6 -76 23 -80Q40 -84 57 -84Q113 -84 141 -29Z" glyph-name="y" horiz-adv-x="587" unicode="y" /><glyph d="M351 24 358 65Q327 33 288.5 18.5Q250 4 207 4Q163 4 131.5 15.5Q100 27 79.5 48Q59 69 49.5 97Q40 125 40 158Q40 177 43 198L91 502H281L243 261Q240 240 240 223Q240 191 253.5 176.5Q267 162 296 162Q329 162 356 189Q383 216 392 271L428 502H619L543 28Q533 -35 504.5 -82.5Q476 -130 433 -161Q390 -192 335 -207.5Q280 -223 216 -223Q178 -223 143 -218Q108 -213 78 -200.5Q48 -188 25.5 -168Q3 -148 -9 -118L102 -24Q119 -59 147.5 -74Q176 -89 221 -89Q333 -89 351 24Z" glyph-name="y.school" horiz-adv-x="636" /><glyph d="M0 0ZM141 -29 156 2 45 502H237L284 189L419 502H618L299 -92Q279 -129 254 -154Q229 -179 200 -194Q171 -209 137 -215.5Q103 -222 66 -222Q28 -222 2 -216.5Q-24 -211 -47 -200L-14 -66Q6 -76 23 -80Q40 -84 57 -84Q113 -84 141 -29ZM365 711H560L559 704L405 570H259L260 575Z" glyph-name="yacute" horiz-adv-x="587" unicode="&#253;" /><glyph d="M0 0ZM351 24 358 65Q327 33 288.5 18.5Q250 4 207 4Q163 4 131.5 15.5Q100 27 79.5 48Q59 69 49.5 97Q40 125 40 158Q40 177 43 198L91 502H281L243 261Q240 240 240 223Q240 191 253.5 176.5Q267 162 296 162Q329 162 356 189Q383 216 392 271L428 502H619L543 28Q533 -35 504.5 -82.5Q476 -130 433 -161Q390 -192 335 -207.5Q280 -223 216 -223Q178 -223 143 -218Q108 -213 78 -200.5Q48 -188 25.5 -168Q3 -148 -9 -118L102 -24Q119 -59 147.5 -74Q176 -89 221 -89Q333 -89 351 24ZM385 711H580L579 704L425 570H279L280 575Z" glyph-name="yacute.school" horiz-adv-x="636" /><glyph d="M0 0ZM141 -29 156 2 45 502H237L284 189L419 502H618L299 -92Q279 -129 254 -154Q229 -179 200 -194Q171 -209 137 -215.5Q103 -222 66 -222Q28 -222 2 -216.5Q-24 -211 -47 -200L-14 -66Q6 -76 23 -80Q40 -84 57 -84Q113 -84 141 -29ZM351 622 286 570H143L144 574L288 711H440L540 574L539 570H399Z" glyph-name="ycircumflex" horiz-adv-x="587" unicode="&#375;" /><glyph d="M0 0ZM371 622 306 570H163L164 574L308 711H460L560 574L559 570H419ZM351 24 358 65Q327 33 288.5 18.5Q250 4 207 4Q163 4 131.5 15.5Q100 27 79.5 48Q59 69 49.5 97Q40 125 40 158Q40 177 43 198L91 502H281L243 261Q240 240 240 223Q240 191 253.5 176.5Q267 162 296 162Q329 162 356 189Q383 216 392 271L428 502H619L543 28Q533 -35 504.5 -82.5Q476 -130 433 -161Q390 -192 335 -207.5Q280 -223 216 -223Q178 -223 143 -218Q108 -213 78 -200.5Q48 -188 25.5 -168Q3 -148 -9 -118L102 -24Q119 -59 147.5 -74Q176 -89 221 -89Q333 -89 351 24Z" glyph-name="ycircumflex.school" horiz-adv-x="636" /><glyph d="M0 0ZM141 -29 156 2 45 502H237L284 189L419 502H618L299 -92Q279 -129 254 -154Q229 -179 200 -194Q171 -209 137 -215.5Q103 -222 66 -222Q28 -222 2 -216.5Q-24 -211 -47 -200L-14 -66Q6 -76 23 -80Q40 -84 57 -84Q113 -84 141 -29ZM456 565Q414 565 393.5 581Q373 597 373 633Q373 684 401 708Q429 732 477 732Q518 732 539.5 715.5Q561 699 561 664Q561 612 532.5 588.5Q504 565 456 565ZM230 565Q188 565 167.5 581.5Q147 598 147 634Q147 685 175 708.5Q203 732 251 732Q334 732 334 665Q334 612 306 588.5Q278 565 230 565Z" glyph-name="ydieresis" horiz-adv-x="587" unicode="&#255;" /><glyph d="M0 0ZM476 565Q434 565 413.5 581Q393 597 393 633Q393 684 421 708Q449 732 497 732Q538 732 559.5 715.5Q581 699 581 664Q581 612 552.5 588.5Q524 565 476 565ZM250 565Q208 565 187.5 581.5Q167 598 167 634Q167 685 195 708.5Q223 732 271 732Q354 732 354 665Q354 612 326 588.5Q298 565 250 565ZM351 24 358 65Q327 33 288.5 18.5Q250 4 207 4Q163 4 131.5 15.5Q100 27 79.5 48Q59 69 49.5 97Q40 125 40 158Q40 177 43 198L91 502H281L243 261Q240 240 240 223Q240 191 253.5 176.5Q267 162 296 162Q329 162 356 189Q383 216 392 271L428 502H619L543 28Q533 -35 504.5 -82.5Q476 -130 433 -161Q390 -192 335 -207.5Q280 -223 216 -223Q178 -223 143 -218Q108 -213 78 -200.5Q48 -188 25.5 -168Q3 -148 -9 -118L102 -24Q119 -59 147.5 -74Q176 -89 221 -89Q333 -89 351 24Z" glyph-name="ydieresis.school" horiz-adv-x="636" /><glyph d="M623 292 608 204H442L410 0H211L243 204H79L93 292H236L219 332H100L113 420H186L77 700H292L381 425L556 700H767L570 420H643L629 332H508L480 292Z" glyph-name="yen" horiz-adv-x="710" unicode="&#165;" /><glyph d="M-8 0 8 106 271 362H53L75 502H516L499 390L241 139H468L446 0Z" glyph-name="z" horiz-adv-x="516" unicode="z" /><glyph d="M0 0ZM328 711H523L522 704L368 570H222L223 575ZM-6 0 10 106 273 362H55L77 502H518L501 390L243 139H470L448 0Z" glyph-name="zacute" horiz-adv-x="516" unicode="&#378;" /><glyph d="M0 0ZM230 570 130 708 131 711H272L319 659L384 711H527L526 708L382 570ZM-6 0 10 106 273 362H55L77 502H518L501 390L243 139H470L448 0Z" glyph-name="zcaron" horiz-adv-x="516" unicode="&#382;" /><glyph d="M0 0ZM-6 0 10 106 273 362H55L77 502H518L501 390L243 139H470L448 0ZM307 565Q218 565 218 634Q218 687 248.5 710.5Q279 734 328 734Q371 734 394 717Q417 700 417 663Q417 612 387 588.5Q357 565 307 565Z" glyph-name="zdotaccent" horiz-adv-x="516" unicode="&#380;" /><glyph d="M35 350Q58 536 142.5 625.5Q227 715 366 715Q487 715 549.5 648.5Q612 582 612 443Q612 421 610.5 398.5Q609 376 605 350Q581 165 494 75Q407 -15 271 -15Q152 -15 90.5 51Q29 117 29 254Q29 276 30 300Q31 324 35 350ZM437 447Q437 511 415.5 536.5Q394 562 353 562Q327 562 305 551Q283 540 265.5 515Q248 490 234 449.5Q220 409 211 350Q202 293 202 253Q202 189 223.5 163Q245 137 285 137Q312 137 334 148Q356 159 374 184Q392 209 405.5 250Q419 291 429 350Q434 379 435.5 403Q437 427 437 447Z" glyph-name="zero" horiz-adv-x="625" unicode="0" /><glyph d="M61 349Q73 442 100 510.5Q127 579 170.5 624.5Q214 670 275.5 692.5Q337 715 419 715Q559 715 624 649Q689 583 689 446Q689 423 687.5 399.5Q686 376 682 349Q657 165 571.5 75Q486 -15 324 -15Q184 -15 119 50.5Q54 116 54 251Q54 274 56 298.5Q58 323 61 349ZM498 440Q498 507 474.5 534.5Q451 562 406 562Q377 562 353.5 551Q330 540 311 515.5Q292 491 278 450.5Q264 410 254 350Q249 322 247 300Q245 278 245 258Q245 191 269 164Q293 137 337 137Q366 137 390 147.5Q414 158 433 183Q452 208 466 249Q480 290 490 350Q494 377 496 399Q498 421 498 440Z" glyph-name="zero.LP" horiz-adv-x="716" /><glyph d="M38 300Q58 459 143 537Q228 615 365 615Q487 615 552.5 555Q618 495 618 370Q618 353 616.5 336Q615 319 613 300Q592 141 505 63Q418 -15 284 -15Q162 -15 97 45Q32 105 32 229Q32 262 38 300ZM435 364Q435 419 413 441Q391 463 351 463Q326 463 305.5 455Q285 447 268.5 428Q252 409 240.5 378Q229 347 222 301Q216 262 216 236Q216 181 237 159Q258 137 298 137Q323 137 344 145.5Q365 154 381.5 173Q398 192 409.5 223Q421 254 429 300Q435 336 435 364Z" glyph-name="zero.OP" horiz-adv-x="648" /><glyph d="M31 300Q51 460 134.5 537.5Q218 615 354 615Q472 615 535.5 555Q599 495 599 370Q599 353 598 336Q597 319 594 300Q583 220 556 161Q529 102 488 63Q447 24 392.5 4.5Q338 -15 273 -15Q152 -15 89 45Q26 105 26 230Q26 247 27 264Q28 281 31 300ZM423 364Q423 419 401.5 441Q380 463 340 463Q314 463 293 455Q272 447 255 428Q238 409 226 378Q214 347 207 301Q205 282 203 266.5Q201 251 201 237Q201 181 223.5 159Q246 137 287 137Q312 137 333 145.5Q354 154 370 173Q386 192 398 223Q410 254 417 300Q423 337 423 364Z" glyph-name="zero.OT" horiz-adv-x="625" /><glyph d="M0 0ZM214 221Q302 221 343 180.5Q384 140 384 59Q384 45 383 32Q382 19 380 3Q366 -101 313.5 -157Q261 -213 158 -213Q70 -213 29 -173Q-12 -133 -12 -52Q-12 -39 -10.5 -25.5Q-9 -12 -7 3Q7 112 60 166.5Q113 221 214 221ZM205 118Q176 118 156 93Q136 68 125 4Q123 -11 121.5 -23.5Q120 -36 120 -47Q120 -82 132 -96Q144 -110 167 -110Q196 -110 216 -85.5Q236 -61 247 3Q249 19 251 31.5Q253 44 253 55Q253 90 240.5 104Q228 118 205 118Z" glyph-name="zero.inf" horiz-adv-x="450" /><glyph glyph-name="zerowidthspace" horiz-adv-x="0" unicode="&#8203;" /></font>
</defs>
</svg>
